#TITLE:Losing Control;
#SUBTITLE:;
#ARTIST:D-Block & S-te-Fan;
#TITLETRANSLIT:;
#SUBTITLETRANSLIT:;
#ARTISTTRANSLIT:;
#GENRE:;
#CREDIT:;
#MUSIC:Losing Control.mp3;
#BANNER:;
#BACKGROUND:;
#CDTITLE:;
#SAMPLESTART:102.253;
#SAMPLELENGTH:25.800;
#SELECTABLE:YES;
#OFFSET:-0.053;
#BPMS:0.000=150.000;
#STOPS:;
#BGCHANGES:;
#FGCHANGES:;

//--------------- dance-single - ----------------
#NOTES:
     dance-single:
     :
     Hard:
     11:
     0,0,0,0,0:
0000
0000
0000
0000
,
0000
0000
0000
0000
,
0000
0000
0000
0000
,
0000
0000
0000
0000
,
0000
0000
0000
0000
,
0000
0000
0000
0000
,
0000
0000
0000
0000
,
0000
0000
0000
0000
0000
0000
0000
0001
,
0100
0000
010M
1000
0100
0000
M100
0001
,
0100
0000
010M
1000
0100
0000
M100
0001
,
0010
0000
001M
1000
0100
0000
M100
0001
,
0010
0000
001M
1000
0100
0000
M100
0001
,
1000
0001
1000
0010
0100
0010
1000
0001
0100
0001
1000
0100
0010
0001
1000
0010
,
0100
0001
1000
0100
0010
0001
0010
0100
1000
0001
0100
0010
1000
0001
0010
0100
,
1000
0010
0100
0001
1000
0100
0010
0100
1000
0001
0100
0001
0010
0100
1000
0001
,
0010
0000
0000
0000
0000
0000
0000
0000
0001
0000
0000
1000
0000
0000
1000
0000
,
0101
0000
1000
0000
0101
0000
1000
0000
0011
0000
0000
1000
0011
0000
1000
0000
,
0101
0000
1000
0000
0101
0000
1000
0000
0011
0000
0000
1000
0011
0000
1000
0000
,
0101
0000
1000
0000
0101
0000
1000
0000
0011
0000
0000
1000
0011
0000
1000
0000
,
0101
0000
0000
0000
1000
0000
0000
0000
0101
0000
0000
0000
1000
0000
0000
0000
0001
0000
1000
0001
1000
0000
0100
0000
0010
0000
0000
0000
0010
0000
0100
0000
,
1010
0000
0001
0000
1010
0000
0001
0000
1100
0000
0000
0001
1100
0000
0001
0000
,
1010
0000
0001
0000
1010
0000
0001
0000
1100
0000
0000
0001
1100
0000
0001
0000
,
1010
0000
0001
0000
1010
0000
0001
0000
1100
0000
0000
0001
1000
0001
1000
0001
,
1100
0000
0000
0000
0010
0000
0100
0000
0001
0000
0100
0000
0010
0000
1000
0000
0100
0010
0100
0000
0010
0000
0001
0000
1000
0000
0000
0000
0001
0000
0000
0000
,
1010
0000
0001
0000
1010
0000
0001
0000
1100
0000
0000
0001
1100
0000
0001
0000
,
1010
0000
0001
1000
0101
0000
1000
0000
0011
0000
0000
1000
0011
0000
1000
0000
,
0011
0000
0100
0010
1100
0000
0001
0000
1010
0000
0000
0001
1010
0000
0001
0000
,
1100
0000
0001
1000
0011
0000
1000
0000
0002
0000
0000
2003
0000
0000
3001
0000
,
1000
0100
0010
0001
0010
0100
1000
0001
0010
0100
1000
0100
0010
0001
1000
0010
,
1000
0100
0010
0001
1000
0001
0010
0100
1000
0010
0100
0010
1000
0001
0010
0100
,
1000
0000
0020
0030
2000
3000
0002
0003
,
0010
0010
0100
0100
1000
1000
0001
1101
,
1101
0001
1010
001M
1100
0001
1010
001M
,
1100
0000
0001
0000
1010
0000
001M
0000
1100
0000
0001
0000
1010
0000
0000
0001
,
1010
0000
M010
0000
1100
0000
0001
0000
1010
0000
001M
0000
1100
0000
1000
0001
,
1100
0000
0001
0000
1100
0000
0000
0001
1100
0000
0000
0000
1100
0000
0011
0000
,
1101
1000
0101
M100
0011
1000
0101
M100
,
0011
1000
0101
M100
0011
1000
0101
1010
,
0101
0000
1000
0001
1010
0000
0001
1010
0101
0000
0000
0000
1100
0000
0011
0000
,
1100
0000
0000
0000
0001
1000
0001
0000
0100
0000
0000
0000
0010
0000
1000
0000
0001
0000
1000
0000
0100
0000
0000
0000
M100
0000
0001
0000
1100
0000
0000
0000
,
1101
11M1
M111
1M11
,
0011
0000
0100
0000
M101
0000
0010
0000
0101
0000
1000
0000
0011
0000
1000
0011
,
1100
0000
0000
0000
11M1
0000
0000
0000
1M11
0000
0000
0000
111M
0000
0001
1000
,
0101
0000
1000
0001
1010
0000
0001
1010
0101
0000
0000
0000
1000
0000
0001
0000
,
1101
1101
1101
1000
0011
M010
0101
1000
,
0011
M010
0101
1000
0011
1000
0101
1010
,
0001
0000
0010
0000
0100
0000
1000
0000
0001
0000
1000
0000
0010
0000
0100
0000
0001
0000
1000
0000
0001
0000
0010
0000
0100
0000
0000
0000
0000
0000
1000
0000
0000
0001
0000
0000
1100
0000
0000
0000
0000
0000
0011
0000
0000
0000
0000
0000
,
2200
0000
0000
3300
,
M000
0M00
00M0
000M
00M0
0M00
M000
0M00
00M2
0000
00M0
0M00
M000
0M00
00M0
0000
,
00M0
0M00
M000
0M00
00M0
0000
00M0
0M00
M000
0M00
00M0
0000
00M0
0M00
M000
0M00
,
00M0
0000
00M0
0M00
M000
0M00
00M0
0000
M023
0M00
0000
000M
0000
0M00
M000
0M00
,
0000
000M
0000
0M00
M000
0M00
0000
000M
0000
0M00
M000
0M00
0000
000M
0000
0M00
,
M000
0000
0M00
000M
M000
0000
0M00
000M
0230
000M
00M0
0000
M000
0000
00M0
000M
,
00M0
0000
M000
00M0
000M
00M0
0000
M000
0000
00M0
000M
00M0
M000
000M
00M0
M000
,
00M0
000M
0000
M000
0000
00M0
000M
00M0
2300
0000
0M00
00M0
000M
00M0
0M00
0000
,
0M00
00M0
000M
00M0
0M00
0000
0M00
00M0
000M
00M0
0M00
0000
0001
0000
0001
0000
,
3100
0000
0000
0000
1000
0000
0000
0000
0001
0000
0000
0010
0100
0000
0000
0000
,
1000
0000
0000
0000
0010
0000
M010
0000
0010
0000
0000
1000
0100
0000
0000
0000
,
1000
0000
0000
0000
0010
0000
0100
01M0
1000
0000
0000
0001
0000
0000
0010
0000
,
0100
0000
0000
1000
0000
0000
0001
0000
2001
0000
0000
0000
0001
0000
0000
0000
,
3020
0000
0000
0000
0130
0000
0000
0000
0001
0000
0000
1000
0001
0000
0000
0000
,
0001
0000
0000
0000
0010
0000
001M
0000
1000
0000
0000
0001
1000
0000
1000
0000
,
0100
0000
0000
0000
0100
0000
0010
001M
1000
0000
0000
1000
0000
0000
0010
0000
,
0100
0000
0000
0001
0000
0000
1000
0000
0001
0000
0000
0000
0010
0000
001M
0000
,
2000
0000
3002
0023
0000
0032
0203
0320
,
0000
0000
0230
0000
0302
0000
0023
0000
0230
0000
0300
0000
2000
0000
3100
0100
,
0002
0000
0023
2030
0000
3020
0032
0203
,
0000
0320
2030
3002
0203
0300
0002
0023
,
0032
0000
2003
3200
0000
2300
0000
3020
,
0000
0000
0000
0030
0000
0000
M010
0000
0000
0000
0000
0000
0020
0000
0000
0000
0000
0000
1030
0000
0100
0000
0010
0000
0002
0000
0000
0000
0000
0000
0003
0000
0000
0000
0000
0000
2000
0000
0000
0000
0000
0000
3100
0000
0000
0100
0000
0000
,
0002
0023
0230
0320
0000
0032
0203
0320
,
0000
0230
0302
2003
3002
0000
2003
3200
,
2300
0000
3002
0023
0000
0032
0203
0320
,
0000
0000
0000
0000
0000
0000
0230
0000
0000
0000
0000
0000
0302
0000
0000
0000
0000
0000
0013
0000
0100
0000
1000
0000
0200
0000
0000
0000
0000
0000
0300
0000
0000
0000
0000
0000
2000
0000
0000
0000
0000
0000
3100
0000
0000
0100
0000
0000
,
0002
0000
0023
0230
0000
0320
0032
0203
,
0000
0320
2030
3002
0203
0300
0002
0023
,
0032
0000
2003
3200
0000
2300
0000
3020
,
0000
0000
0000
0030
0000
0000
M010
0000
0000
0000
0000
0000
0020
0000
0000
0000
0000
0000
1030
0000
0100
0000
0010
0000
0002
0000
0000
0000
0000
0000
1003
0000
0000
0000
0000
0000
2000
0000
0000
0000
0000
0000
3100
0000
0000
0100
0000
0000
,
0002
0023
0230
0320
0000
0032
0203
0320
,
0000
0230
0302
2003
3002
0000
0000
0000
,
2003
0000
0000
0000
3020
0000
0230
0000
0301
0000
0000
1000
0000
0000
0000
0000
,
0000
0000
0000
0000
0100
0000
M100
0000
0001
0000
0000
1000
0000
0000
0010
0000
,
1200
0000
0000
0000
0302
0000
0103
0100
1000
0000
0000
0010
0000
0000
0100
0000
,
0001
0000
0000
0000
1000
0001
1000
0000
0001
0000
0000
0000
0010
0000
0000
0000
0100
0000
0000
0000
1000
0000
0000
0000
0001
0000
0000
0000
1000
0000
0000
0000
,
1200
0000
0000
0000
0320
0000
2030
0000
3001
0000
0000
1000
0001
0000
0000
0000
,
1000
0000
0000
0000
0010
0000
M010
0000
0001
0000
0000
1000
0001
0000
0000
0000
,
2100
0000
0000
0000
3002
0000
0013
0010
1000
0000
0000
0100
0000
0000
0010
0000
,
0100
0000
0000
0000
1000
0001
1000
0000
0001
0000
0000
0000
0100
0000
0000
0000
0010
0000
0000
0000
0000
0000
0000
0000
0100
0000
0000
0000
0001
0000
0000
0000
,
0010
0000
0010
0000
0001
0000
0001
0000
1000
0000
0000
1000
0001
0000
0001
0000
,
1000
0000
1000
0000
0010
0000
0010
0000
0100
0000
0000
0100
0001
0000
1000
0001
,
1000
0000
1000
0000
0100
0000
0100
0000
0010
0000
0000
0010
0001
0000
0001
1000
,
0010
0000
0010
0000
0100
0000
0100
0000
0001
0000
0000
0001
0100
0000
0010
1000
,
0001
0010
0100
1000
0010
1000
0100
0010
0001
0100
0001
1000
0010
0100
0010
1000
,
0001
0010
0100
0010
0001
1000
0100
0010
0100
1000
0100
0010
0001
0010
0100
1000
,
0001
0100
0010
1000
0100
1000
0001
0010
0100
1000
0010
0100
0001
0010
0100
1000
,
0000
0000
0000
0000
0000
0000
0000
0000
0001
0000
1000
0001
0100
0000
010M
0000
,
1010
0000
1010
0001
1100
010M
1010
0001
,
1100
0000
0000
0000
0000
0000
0010
0000
0000
0000
0000
0000
1100
0000
0000
0000
0000
0000
1000
0000
0010
0000
0100
0000
0022
0000
0000
0000
0000
0000
0033
0000
0000
0000
0000
0000
2M22
0000
0000
0000
0000
0000
3133
0000
0000
0001
0000
0000
,
1100
0000
1100
0010
1100
0001
1100
010M
,
1010
0001
1010
0100
11M0
0000
0011
1100
,
0011
0000
0000
0000
0000
0000
0000
0000
1100
0000
0000
0000
0001
0000
0000
0000
1100
0000
0000
0000
0010
0000
0000
0000
1100
0000
0001
1000
0001
0000
0000
0000
,
1010
0000
0000
0001
0000
0000
1010
0000
0000
0001
0010
0100
1010
0000
0000
0000
0000
0000
1010
0000
0000
0101
0000
0000
,
0101
0000
M100
0000
0011
0000
0100
0000
M101
0000
0010
0000
0101
0000
1010
0101
,
1010
0002
2003
3200
2300
0000
3001
1000
,
1101
1101
1101
1000
0101
M100
0011
1000
,
0101
0000
0000
0000
0000
0000
0010
0000
0000
0000
0000
0000
0101
0000
0000
0000
0000
0000
1000
0000
0010
0000
0100
0000
0022
0000
0000
0000
0000
0000
0033
0000
0000
0000
0000
0000
2022
0000
0000
0000
0000
0000
3133
0000
0000
0010
0000
0000
,
1100
0000
1100
0001
1100
0010
1100
010M
,
1010
0000
0001
0000
1010
0000
0100
0000
1010
0101
1010
0000
0101
0000
1100
0000
,
0101
1010
0101
1000
0101
0010
0101
M100
,
0011
0000
0000
0000
0000
0000
1000
0000
0000
0000
0000
0000
0011
0000
0000
0000
0000
0000
1000
0000
0010
0000
0100
0000
0011
0000
0000
0000
0000
0000
0001
0000
0000
0000
0000
0000
1100
0000
0000
0000
0000
0000
1100
0000
0000
0011
0000
0000
,
1100
1100
0011
1000
0011
0100
0011
1100
,
0011
1100
0011
0000
1100
0000
0101
0000
2202
0000
0000
0000
0000
0000
0000
0000
,
3303
2000
0000
3002
,
2003
0000
3200
0000
,
0320
0000
0000
0000
,
0230
0000
2300
0000
,
3020
0000
0000
0000
,
0230
0000
0000
0000
,
0000
0000
0000
0000
,
0000
0000
0000
0000
0000
0000
0301
0001
,
0200
0000
0320
2030
0000
3020
0230
0302
,
0000
0000
2003
0000
3200
0000
0320
0000
0032
0000
0000
0000
2003
0000
3100
0100
,
0002
0000
0023
0032
0000
0203
0320
2030
,
0000
3002
0023
0230
2300
0000
3200
0320
,
0031
1000
0100
1000
0001
0100
0010
0100
0001
1000
0010
1000
0100
1000
0001
0100
,
0010
1000
0001
0010
0100
1000
0001
1000
0100
0010
0001
1000
0100
0010
0100
1000
,
0001
0100
0010
0100
0001
0010
0100
1000
0010
0100
0001
0010
0100
1000
0010
0100
,
0000
0000
0000
0000
0000
0000
0001
1000
0100
0000
0010
0001
0100
0000
010M
0000
,
1010
0000
1010
0001
1100
010M
1010
0001
,
1100
0010
1000
0001
1001
0000
MMMM
0000
,
0101
0000
M100
0001
0010
0000
0010
1000
0100
0000
0100
0001
2000
0000
0000
0000
,
3011
0000
M010
0001
0100
0000
0001
1000
0101
1000
0000
0000
0011
0000
1000
0000
,
0101
0000
010M
0010
1000
0000
0001
0010
0101
0010
0000
0001
1100
0000
0000
0000
,
0002
0000
0000
0000
0203
0000
0320
0000
0000
0000
0230
0000
0302
0000
2003
3000
,
1010
0101
0000
0000
1010
0000
0001
0000
1010
0101
0000
1000
0101
0000
0000
0000
,
1010
0000
001M
1000
0100
0000
0100
0001
1010
0101
0000
0100
1000
0000
0000
0000
,
0011
0000
M010
0001
0100
0000
0010
1000
0011
0000
0000
0000
1100
0000
0000
0000
,
0001
0000
0000
0000
0000
0000
1000
0100
0010
0000
0001
0000
1000
0000
0001
0000
,
0400
0000
0000
0000
,
0000
0000
0000
0000
,
1001
0000
0000
0000
,
0000
0000
0000
0000
,
0010
0000
0001
0000
0000
1000
0000
0000
,
0010
0000
0000
0000
0000
0000
0001
0000
0000
0000
0000
0000
0010
0000
0301
1000
,
0010
0100
0001
0100
0010
1000
0100
0010
0001
0010
0100
1000
0100
0010
0001
0100
,
0010
0000
0000
0000
0000
0000
0100
0000
010M
0000
0010
0001
1000
0000
0010
0000
,
0200
0000
0320
2030
0000
3200
0320
0032
,
0000
0000
0000
0000
0103
0000
0000
0000
0010
0000
0000
0000
1000
0000
0000
0000
0010
0000
0000
0000
0000
0000
0000
0000
1000
0001
0000
0000
0001
0000
1000
0000
,
0101
1010
0101
0000
1010
0000
0001
0000
1010
0000
0100
0000
1010
0000
001M
0000
,
1100
0000
0001
0000
1100
0000
010M
0000
1010
0101
1010
0000
0101
0000
1100
0000
,
0011
1100
0011
1000
0011
0100
0011
M010
,
0101
0000
0000
0000
0000
0000
1000
0000
0000
0000
0000
0000
0101
0000
0000
0000
0000
0000
0010
0000
0001
0000
1000
0000
0101
0000
0000
0000
0000
0000
1000
0000
0000
0000
0000
0000
0101
0000
0000
0000
0000
0000
1010
0000
0000
0101
0000
0000
,
1010
1010
1010
0001
1100
0010
1100
0001
,
1010
0101
1010
0000
0101
0000
1100
0000
2202
0000
0000
0000
0000
0000
3303
0000
,
1101
1101
1101
1000
0101
M100
0011
1000
,
0101
0000
0000
0000
0000
0000
0010
0000
0000
0000
0000
0000
0101
0000
0000
0000
0000
0000
1000
0000
0100
0000
0010
0000
0202
0000
0000
0000
0000
0000
0303
0000
0000
0000
0000
0000
22M2
0000
0000
0000
0000
0000
3313
0000
0000
0001
0000
0000
,
1010
0000
1010
0100
1010
0001
1010
001M
,
1100
0000
0010
0000
1100
0000
0001
0000
0101
1010
0101
0000
0101
0000
1100
0000
,
0022
0000
1000
0200
0000
0000
0300
0033
,
2200
0000
0000
0000
0001
0000
0020
0000
0000
0000
3330
0000
0011
0000
0011
1100
,
0011
0000
0011
0000
1100
0000
0001
0000
1010
0000
0000
0001
1100
0000
0011
0000
,
1010
0101
1010
0000
0101
0000
1100
0000
2222
0000
0000
0000
0000
0000
0000
0000
,
3333
0000
0000
0000
;

//--------------- dance-single - ----------------
#NOTES:
     dance-single:
     :
     Challenge:
     12:
     0,0,0,0,0:
0000
0000
0000
0000
,
0000
0000
0000
0000
,
0000
0000
0000
0000
,
0000
0000
0000
0000
,
0000
0000
0000
0000
,
0000
0000
0000
0000
,
0000
0000
0000
0000
,
0000
0000
0000
0000
0000
0000
0000
0001
,
0100
0000
010M
1000
0100
0000
M100
0001
,
0100
0000
010M
1000
0100
0000
M100
0001
,
0010
0000
001M
1000
0100
0000
M100
0001
,
0010
0000
001M
1000
0100
0000
M100
0001
,
1000
0001
1000
0010
0100
0010
1000
0001
0100
0001
1000
0100
0010
0001
1000
0010
,
0100
0001
1000
0100
0010
0001
0010
0100
1000
0001
0100
0010
1000
0001
0010
0100
,
1000
0010
0100
0001
1000
0100
0010
0100
1000
0001
0100
0001
0010
0100
1000
0001
,
0010
0000
0000
0000
0000
0000
0000
0000
0001
0000
0000
1000
0000
0000
1000
0000
,
0101
0000
1000
0000
0101
0000
1000
0000
0011
0000
0000
1000
0011
0000
1000
0000
,
0101
0000
1000
0000
0101
0000
1000
0000
0011
0000
0000
1000
0011
0000
1000
0000
,
0101
0000
1000
0000
0101
0000
1000
0000
0011
0000
0000
1000
0011
0000
1000
0000
,
0101
0000
0000
0000
1000
0000
0000
0000
0101
0000
0000
0000
1000
0000
0000
0000
0001
0000
1000
0001
1000
0000
0100
0000
0010
0000
0000
0000
0010
0000
0100
0000
,
1010
0000
0001
0000
1010
0000
0001
0000
1100
0000
0000
0001
1100
0000
0001
0000
,
1010
0000
0001
0000
1010
0000
0001
0000
1100
0000
0000
0001
1100
0000
0001
0000
,
1010
0000
0001
0000
1010
0000
0001
0000
1100
0000
0000
0001
1000
0001
1000
0001
,
1100
0000
0000
0000
0010
0000
0100
0000
0001
0000
0100
0000
0010
0000
1000
0000
0100
0010
0100
0000
0010
0000
0001
0000
1000
0000
0000
0000
0001
0000
0000
0000
,
1010
0000
0001
0000
1010
0000
0001
0000
1100
0000
0000
0001
1100
0000
0001
0000
,
1010
0000
0001
1000
0101
0000
1000
0000
0011
0000
0000
1000
0011
0000
1000
0000
,
0011
0000
0100
0010
1100
0000
0001
0000
1010
0000
0000
0001
1010
0000
0001
0000
,
1100
0000
0001
1000
0011
0000
1000
0000
0002
0000
0000
2003
0000
0000
3001
0000
,
1000
0100
0010
0001
0010
0100
1000
0001
0010
0100
1000
0100
0010
0001
1000
0010
,
1000
0100
0010
0001
1000
0001
0010
0100
1000
0010
0100
0010
1000
0001
0010
0100
,
1000
0000
0020
0030
2000
3000
0002
0003
,
0010
0010
0100
0100
1000
1000
0001
1101
,
1101
0001
1010
001M
1100
0001
1010
001M
,
1100
0000
0001
0000
1010
0000
001M
0000
1100
0000
0001
0000
1010
0000
0000
0001
,
1010
0000
M010
0000
1100
0000
0001
0000
1010
0000
001M
0000
1100
0000
1000
0001
,
1100
0000
0001
0000
1100
0000
0000
0001
1100
0000
0000
0000
1100
0000
0011
0000
,
1101
1000
0101
M100
0011
1000
0101
M100
,
0011
1000
0101
M100
0011
1000
0101
1010
,
0101
0000
1000
0001
1010
0000
0001
1010
0101
0000
0000
0000
1100
0000
0011
0000
,
1100
0000
0000
0000
0001
1000
0001
0000
0100
0000
0000
0000
0010
0000
1000
0000
0001
0000
1000
0000
0100
0000
0000
0000
M100
0000
0001
0000
1100
0000
0000
0000
,
1101
11M1
M111
1M11
,
0011
0000
0100
0000
M101
0000
0010
0000
0101
0000
1000
0000
0011
0000
1000
0011
,
1100
0000
0000
0000
11M1
0000
0000
0000
1M11
0000
0000
0000
111M
0000
0001
1000
,
0101
0000
1000
0001
1010
0000
0001
1010
0101
0000
0000
0000
1000
0000
0001
0000
,
1101
1101
1101
1000
0011
M010
0101
1000
,
0011
M010
0101
1000
0011
1000
0101
1010
,
0001
0000
0010
0000
0100
0000
1000
0000
0001
0000
1000
0000
0010
0000
0100
0000
0001
0000
1000
0000
0001
0000
0010
0000
0100
0000
0000
0000
0000
0000
1000
0000
0000
0001
0000
0000
1100
0000
0000
0000
0000
0000
0011
0000
0000
0000
0000
0000
,
2200
0000
0000
3300
,
M000
0M00
00M0
000M
00M0
0M00
M000
0M00
00M2
0000
00M0
0M00
M000
0M00
00M0
0000
,
00M0
0M00
M000
0M00
00M0
0000
00M0
0M00
M000
0M00
00M0
0000
00M0
0M00
M000
0M00
,
00M0
0000
00M0
0M00
M000
0M00
00M0
0000
M023
0M00
0000
000M
0000
0M00
M000
0M00
,
0000
000M
0000
0M00
M000
0M00
0000
000M
0000
0M00
M000
0M00
0000
000M
0000
0M00
,
M000
0000
0M00
000M
M000
0000
0M00
000M
0230
000M
00M0
0000
M000
0000
00M0
000M
,
00M0
0000
M000
00M0
000M
00M0
0000
M000
0000
00M0
000M
00M0
M000
000M
00M0
M000
,
00M0
000M
0000
M000
0000
00M0
000M
00M0
2300
0000
0M00
00M0
000M
00M0
0M00
0000
,
0M00
00M0
000M
00M0
0M00
0000
0M00
00M0
000M
00M0
0M00
0000
0001
0000
0001
0000
,
3100
0000
0000
0000
1000
0000
0000
0000
0001
0000
0000
0010
0100
0000
0000
0000
,
1000
0000
0000
0000
0010
0000
M010
0000
0010
0000
0000
1000
0100
0000
0000
0000
,
1000
0000
0000
0000
0010
0000
0100
01M0
1000
0000
0000
0001
0000
0000
0010
0000
,
0100
0000
0000
1000
0000
0000
0001
0000
2001
0000
0000
0000
0001
0000
0000
0000
,
3020
0000
0000
0000
0130
0000
0000
0000
0001
0000
0000
1000
0001
0000
0000
0000
,
0001
0000
0000
0000
0010
0000
001M
0000
1000
0000
0000
0001
1000
0000
1000
0000
,
0100
0000
0000
0000
0100
0000
0010
001M
1000
0000
0000
1000
0000
0000
0010
0000
,
0100
0000
0000
0001
0000
0000
1000
0000
0001
0000
0000
0000
0010
0000
001M
0000
,
2000
0000
3002
0023
0000
0032
0203
0320
,
0000
0000
0230
0000
0302
0000
0023
0000
0230
0000
0300
0000
2000
0000
3100
0100
,
0002
0000
0023
2030
0000
3020
0032
0203
,
0000
0320
2030
3002
0203
0300
0002
0023
,
0032
0000
2003
3200
0000
2300
0000
3020
,
0000
0000
0000
0030
0000
0000
M010
0000
0000
0000
0000
0000
0020
0000
0000
0000
0000
0000
1030
0000
0100
0000
0010
0000
0002
0000
0000
0000
0000
0000
0003
0000
0000
0000
0000
0000
2000
0000
0000
0000
0000
0000
3100
0000
0000
0100
0000
0000
,
0002
0023
0230
0320
0000
0032
0203
0320
,
0000
0230
0302
2003
3002
0000
2003
3200
,
2300
0000
3002
0023
0000
0032
0203
0320
,
0000
0000
0000
0000
0000
0000
0230
0000
0000
0000
0000
0000
0302
0000
0000
0000
0000
0000
0013
0000
0100
0000
1000
0000
0200
0000
0000
0000
0000
0000
0300
0000
0000
0000
0000
0000
2000
0000
0000
0000
0000
0000
3100
0000
0000
0100
0000
0000
,
0002
0000
0023
0230
0000
0320
0032
0203
,
0000
0320
2030
3002
0203
0300
0002
0023
,
0032
0000
2003
3200
0000
2300
0000
3020
,
0000
0000
0000
0030
0000
0000
M010
0000
0000
0000
0000
0000
0020
0000
0000
0000
0000
0000
1030
0000
0100
0000
0010
0000
0002
0000
0000
0000
0000
0000
1003
0000
0000
0000
0000
0000
2000
0000
0000
0000
0000
0000
3100
0000
0000
0100
0000
0000
,
0002
0023
0230
0320
0000
0032
0203
0320
,
0000
0230
0302
2003
3002
0000
0000
0000
,
2003
0000
0000
0000
3020
0000
0230
0000
0301
0000
0000
1000
0000
0000
0000
0000
,
0000
0000
0000
0000
0100
0000
M100
0000
0001
0000
0000
1000
0000
0000
0010
0000
,
1200
0000
0000
0000
0302
0000
0103
0100
1000
0000
0000
0010
0000
0000
0100
0000
,
0001
0000
0000
0000
1000
0001
1000
0000
0001
0000
0000
0000
0010
0000
0000
0000
0100
0000
0000
0000
1000
0000
0000
0000
0001
0000
0000
0000
1000
0000
0000
0000
,
1200
0000
0000
0000
0320
0000
2030
0000
3001
0000
0000
1000
0001
0000
0000
0000
,
1000
0000
0000
0000
0010
0000
M010
0000
0001
0000
0000
1000
0001
0000
0000
0000
,
2100
0000
0000
0000
3002
0000
0013
0010
1000
0000
0000
0100
0000
0000
0010
0000
,
0100
0000
0000
0000
1000
0001
1000
0000
0001
0000
0000
0000
0100
0000
0000
0000
0010
0000
0000
0000
0000
0000
0000
0000
0100
0000
0000
0000
0001
0000
0000
0000
,
0010
0000
0010
0000
0001
0000
0001
0000
1000
0000
0000
1000
0001
0000
0001
0000
,
1000
0000
1000
0000
0010
0000
0010
0000
0100
0000
0000
0100
0001
0000
1000
0001
,
1000
0000
1000
0000
0100
0000
0100
0000
0010
0000
0000
0010
0001
0000
0001
1000
,
0010
0000
0010
0000
0100
0000
0100
0000
0001
0000
0000
0001
0100
0000
0010
1000
,
0001
0010
0100
1000
0010
1000
0100
0010
0001
0100
0001
1000
0010
0100
0010
1000
,
0001
0010
0100
0010
0001
1000
0100
0010
0100
1000
0100
0010
0001
0010
0100
1000
,
0001
0100
0010
1000
0100
1000
0001
0010
0100
1000
0010
0100
0001
0010
0100
1000
,
0000
0000
0000
0000
0000
0000
0000
0000
0001
0000
1000
0001
0100
0000
010M
0000
,
1010
0000
1010
0001
1100
010M
1010
0001
,
1100
0000
0000
0000
0000
0000
0010
0000
0000
0000
0000
0000
1100
0000
0000
0000
0000
0000
1000
0000
0010
0000
0100
0000
0022
0000
0000
0000
0000
0000
0033
0000
0000
0000
0000
0000
2M22
0000
0000
0000
0000
0000
3133
0000
0000
0001
0000
0000
,
1100
0000
1100
0010
1100
0001
1100
010M
,
1010
0001
1010
0100
11M0
0000
0011
1100
,
0011
0000
0000
0000
0000
0000
0000
0000
1100
0000
0000
0000
0001
0000
0000
0000
1100
0000
0000
0000
0010
0000
0000
0000
1100
0000
0001
1000
0001
0000
0000
0000
,
1010
0000
0000
0001
0000
0000
1010
0000
0000
0001
0010
0100
1010
0000
0000
0000
0000
0000
1010
0000
0000
0101
0000
0000
,
0101
0000
M100
0000
0011
0000
0100
0000
M101
0000
0010
0000
0101
0000
1010
0101
,
1010
0002
2003
3200
2300
0000
3001
1000
,
1101
1101
1101
1000
0101
M100
0011
1000
,
0101
0000
0000
0000
0000
0000
0010
0000
0000
0000
0000
0000
0101
0000
0000
0000
0000
0000
1000
0000
0010
0000
0100
0000
0022
0000
0000
0000
0000
0000
0033
0000
0000
0000
0000
0000
2022
0000
0000
0000
0000
0000
3133
0000
0000
0010
0000
0000
,
1100
0000
1100
0001
1100
0010
1100
010M
,
1010
0000
0001
0000
1010
0000
0100
0000
1010
0101
1010
0000
0101
0000
1100
0000
,
0101
1010
0101
1000
0101
0010
0101
M100
,
0011
0000
0000
0000
0000
0000
1000
0000
0000
0000
0000
0000
0011
0000
0000
0000
0000
0000
1000
0000
0010
0000
0100
0000
0011
0000
0000
0000
0000
0000
0001
0000
0000
0000
0000
0000
1100
0000
0000
0000
0000
0000
1100
0000
0000
0011
0000
0000
,
1100
1100
0011
1000
0011
0100
0011
1100
,
0011
1100
0011
0000
1100
0000
0101
0000
2202
0000
0000
0000
0000
0000
0000
0000
,
3303
2000
0000
3002
,
2003
0000
3200
0000
,
0320
0000
0000
0000
,
0230
0000
2300
0000
,
3020
0000
0000
0000
,
0230
0000
0000
0000
,
0000
0000
0000
0000
,
0000
0000
0000
0000
0000
0000
0301
0001
,
0200
0000
0320
2030
0000
3020
0230
0302
,
0000
0000
2003
0000
3200
0000
0320
0000
0032
0000
0000
0000
2003
0000
3100
0100
,
0002
0000
0023
0032
0000
0203
0320
2030
,
0000
3002
0023
0230
2300
0000
3200
0320
,
0031
1000
0100
1000
0001
0100
0010
0100
0001
1000
0010
1000
0100
1000
0001
0100
,
0010
1000
0001
0010
0100
1000
0001
1000
0100
0010
0001
1000
0100
0010
0100
1000
,
0001
0100
0010
0100
0001
0010
0100
1000
0010
0100
0001
0010
0100
1000
0010
0100
,
0000
0000
0000
0000
0000
0000
0001
1000
0100
0000
0010
0001
0100
0000
010M
0000
,
1010
0000
1010
0001
1100
010M
1010
0001
,
1100
0010
1000
0001
1001
0000
MMMM
0000
,
0101
0000
M100
0001
0010
0000
0010
1000
0100
0000
0100
0001
2000
0000
0000
0000
,
3011
0000
M010
0001
0100
0000
0001
1000
0101
1000
0000
0000
0011
0000
1000
0000
,
0101
0000
010M
0010
1000
0000
0001
0010
0101
0010
0000
0001
1100
0000
0000
0000
,
0002
0000
0000
0000
0203
0000
0320
0000
0000
0000
0230
0000
0302
0000
2003
3000
,
1010
0101
0000
0000
1010
0000
0001
0000
1010
0101
0000
1000
0101
0000
0000
0000
,
1010
0000
001M
1000
0100
0000
0100
0001
1010
0101
0000
0100
1000
0000
0000
0000
,
0011
0000
M010
0001
0100
0000
0010
1000
0011
0000
0000
0000
1100
0000
0000
0000
,
0001
0000
0000
0000
0000
0000
1000
0100
0010
0000
0001
0000
1000
0000
0001
0000
,
0400
0000
0000
0000
,
0000
0000
0000
0000
,
1001
0000
0000
0000
,
0000
0000
0000
0000
,
0010
0000
0001
0000
0000
1000
0000
0000
,
0010
0000
0000
0000
0000
0000
0001
0000
0000
0000
0000
0000
0010
0000
0301
1000
,
0010
0100
0001
0100
0010
1000
0100
0010
0001
0010
0100
1000
0100
0010
0001
0100
,
0010
0000
0000
0000
0000
0000
0100
0000
010M
0000
0010
0001
1000
0000
0010
0000
,
0200
0000
0320
2030
0000
3200
0320
0032
,
0000
0000
0000
0000
0103
0000
0000
0000
0010
0000
0000
0000
1000
0000
0000
0000
0010
0000
0000
0000
0000
0000
0000
0000
1000
0001
0000
0000
0001
0000
1000
0000
,
0101
1010
0101
0000
1010
0000
0001
0000
1010
0000
0100
0000
1010
0000
001M
0000
,
1100
0000
0001
0000
1100
0000
010M
0000
1010
0101
1010
0000
0101
0000
1100
0000
,
0011
1100
0011
1000
0011
0100
0011
M010
,
0101
0000
0000
0000
0000
0000
1000
0000
0000
0000
0000
0000
0101
0000
0000
0000
0000
0000
0010
0000
0001
0000
1000
0000
0101
0000
0000
0000
0000
0000
1000
0000
0000
0000
0000
0000
0101
0000
0000
0000
0000
0000
1010
0000
0000
0101
0000
0000
,
1010
1010
1010
0001
1100
0010
1100
0001
,
1010
0101
1010
0000
0101
0000
1100
0000
2202
0000
0000
0000
0000
0000
3303
0000
,
1101
1101
1101
1000
0101
M100
0011
1000
,
0101
0000
0000
0000
0000
0000
0010
0000
0000
0000
0000
0000
0101
0000
0000
0000
0000
0000
1000
0000
0100
0000
0010
0000
0202
0000
0000
0000
0000
0000
0303
0000
0000
0000
0000
0000
22M2
0000
0000
0000
0000
0000
3313
0000
0000
0001
0000
0000
,
1010
0000
1010
0100
1010
0001
1010
001M
,
1100
0000
0010
0000
1100
0000
0001
0000
0101
1010
0101
0000
0101
0000
1100
0000
,
0022
0000
1000
0200
0000
0000
0300
0033
,
2200
0000
0000
0000
0001
0000
0020
0000
0000
0000
3330
0000
0011
0000
0011
1100
,
0011
0000
0011
0000
1100
0000
0001
0000
1010
0000
0000
0001
1100
0000
0011
0000
,
1010
0101
1010
0000
0101
0000
1100
0000
2222
0000
0000
0000
0000
0000
0000
0000
,
3333
0000
0000
0000
;
