#TITLE:Heresy;
#SUBTITLE:;
#ARTIST:Audiofreq;
#TITLETRANSLIT:;
#SUBTITLETRANSLIT:;
#ARTISTTRANSLIT:;
#GENRE:;
#CREDIT:Z-Axis;
#MUSIC:Heresy.ogg;
#BANNER:bn.png;
#BACKGROUND:bg.jpg;
#CDTITLE:;
#SAMPLESTART:44.454;
#SAMPLELENGTH:26.400;
#SELECTABLE:YES;
#OFFSET:-0.054;
#BPMS:0.000=200.000;
#STOPS:;
#BGCHANGES:;
#FGCHANGES:;

//--------------- dance-single - ----------------
#NOTES:
     dance-single:
     :
     Challenge:
     17:
     0,0,0,0,0:
0000
0000
0000
0000
,
0000
0000
0000
0000
,
0000
0000
0000
0000
,
0000
0000
0000
0000
,
0000
0000
0000
0000
,
0000
0000
0000
0000
,
0000
0000
0000
0000
,
0000
0000
0000
0000
,
0000
0000
0000
0000
,
1001
0000
0000
0000
0000
0000
0000
0000
0001
0000
0000
0001
0000
0000
0001
0000
,
1000
0000
0000
1000
0000
0000
1000
0000
0010
0000
0000
0010
0000
0000
0010
0000
,
0110
0000
0000
0000
0000
0000
0000
0000
1000
0000
0000
1000
0000
0000
1000
0000
,
0010
0000
0000
0010
0000
0000
0010
0000
0100
0000
0000
0100
0000
0000
0100
0000
,
1001
0000
0000
0001
0000
0000
0001
0000
1100
0000
0000
1000
0000
0000
1000
0000
,
0101
0100
0110
0010
1001
1001
1001
2002
,
0000
0000
0000
0000
,
0000
0000
3003
0010
,
0110
0000
0110
0010
1001
0000
1001
0000
,
1001
0000
0000
0000
1001
0000
0010
0000
1001
0000
0000
0000
1000
0010
0000
0010
,
0100
0000
0101
0000
0001
0100
0001
0000
1001
0000
0000
0000
0011
0000
0000
0000
,
0110
0000
0000
1000
0100
0000
1000
0010
1000
0010
0000
0000
0110
0000
0000
0001
,
0100
0001
1000
0000
0100
1000
0100
0000
1100
0000
0000
0000
1100
0000
0000
0000
,
1100
0000
0000
0000
0011
0000
0010
0000
0110
0000
0100
1000
0100
0000
0010
0000
,
1100
0000
1000
0000
0001
0100
0001
0000
0101
0000
0000
0000
0101
0000
0000
0000
,
1010
0000
0000
1000
0010
0000
0100
0000
0001
0100
0001
0100
0010
0000
0000
0000
,
1001
0000
0000
0000
1000
0100
1000
0000
0001
0010
0001
0000
1000
0100
1000
0000
,
0010
0100
0010
0000
1010
0000
0000
0000
1001
0000
0101
0000
1001
0000
0001
0010
,
0100
0000
0100
0000
1000
0100
1000
0000
1100
0000
0000
0000
1010
0000
0010
0000
,
0100
0001
0000
0000
2000
0000
0000
0000
3200
0000
0000
0000
0310
0000
0000
0000
,
0010
0001
0010
0000
0011
0000
1001
0000
1100
0000
0000
0000
1000
0010
1000
0000
,
0001
0100
0001
0000
1000
0001
1000
0000
0001
0010
0001
0000
0100
0000
0000
0000
,
1010
0000
1010
0000
0010
0100
0010
0000
1010
0000
0000
0000
1000
0100
1000
0000
,
0001
2000
3200
0320
,
0031
1000
0100
1000
0010
0100
0010
1000
,
0010
0000
0100
0000
0010
0000
1000
0000
0001
0000
0000
0000
0001
0000
0010
0001
,
0100
0001
0100
0010
1000
0000
0010
0100
,
0010
0000
1000
0000
0001
0000
1000
0000
0100
0000
0000
0000
0100
1000
0100
1000
,
0001
0010
0010
0001
0100
0001
1000
0001
,
0010
0001
1000
0001
0100
0000
0010
0010
,
0010
0100
0010
1000
0001
0000
1000
0001
,
0010
0000
0100
0010
0002
0000
0003
0000
1100
0000
0000
0000
0101
0000
0010
0000
,
1001
0000
0000
0000
0000
0000
0000
0000
0110
0000
0000
1001
0000
0000
0010
0000
,
0100
0000
0000
0110
0000
0000
1001
0000
0010
0000
0000
0100
0000
0000
1001
0000
,
0110
0000
0000
0000
0000
0000
0000
0000
0110
0000
0000
1001
0000
0000
0100
0000
,
0010
0000
0000
0110
0000
0000
1001
0000
0100
0000
0000
0010
0000
0000
0110
0000
,
1001
0000
0010
0001
1100
0000
0010
1000
,
0101
0000
0011
0000
0110
0100
1100
2000
,
0000
0000
0000
0000
,
0000
0000
0000
3010
,
0100
0000
0000
0000
0100
0000
0000
0000
0100
0000
0000
0000
0100
0000
0000
0010
,
0200
0000
0000
0000
0310
0010
0100
0100
,
1010
0000
0000
0000
1010
0000
1000
0010
0100
0000
0000
0000
0110
0000
0010
0100
,
0001
0000
1000
0000
0001
0000
1000
0100
0010
0000
0000
0001
0010
0000
0110
0000
,
1001
0000
0000
0000
1100
0000
1000
0001
0100
0000
0000
0000
0101
0000
0001
0100
,
0001
0100
0010
0000
0100
0010
0100
0010
1000
0000
0010
1000
0001
0000
0000
0000
,
1100
0000
0000
0000
1001
0000
1000
0100
0010
0000
0000
0000
1001
0000
0001
0100
,
0010
0000
1000
0000
0100
0000
0010
0100
0010
0100
0000
0000
0110
0000
0000
0000
,
1000
0100
1000
0000
1010
0000
0000
0000
1000
0001
1000
0001
1000
0000
0001
0000
,
1002
0000
2003
0000
3002
0000
0010
1003
,
0001
0100
0001
0000
1000
0100
1000
0000
0001
0100
0001
0000
0010
0100
0010
0100
,
1000
0000
0100
0000
0010
0001
0010
0001
0010
0000
1001
0000
1010
0000
1000
0010
,
0100
0000
0010
0000
0100
0001
0100
0000
0001
0000
0000
0000
0011
0000
0011
0000
,
0010
0100
0000
0000
0200
0000
0000
0000
2300
0000
0000
0000
3002
0000
0000
0003
,
1000
0010
1000
0000
1001
0000
0101
0000
0001
0100
0001
0000
1000
0100
1000
0000
,
0001
0010
0001
0000
0010
0100
0010
0000
0100
1000
0100
0000
1001
0000
0000
0000
,
0110
0000
0110
0000
1000
0001
0100
0000
0101
0000
0001
0100
0001
0000
0010
0100
,
0010
0001
0010
1000
0010
0001
0010
0100
,
2000
3020
0230
0302
,
0000
0100
0203
0302
,
2003
3200
0320
0032
,
0000
0000
0000
0000
,
0203
0320
2030
3002
,
0023
0230
0320
0032
,
0000
0000
0000
0000
,
0000
0000
0000
0000
,
0000
2003
3200
0320
,
0030
0020
0032
0023
,
0000
0000
0000
0000
,
0000
0000
0000
0000
,
0230
2300
3002
0203
,
0320
0230
0302
2003
,
0000
0000
0000
0000
,
0000
0000
0000
3000
,
0001
0100
1000
0100
0010
0000
0100
0000
,
0001
0000
0010
0000
0100
0000
0001
0100
1000
0000
0000
0000
0100
0000
0000
0000
,
1000
0010
0100
1000
0100
0000
0001
0000
,
1000
0000
0010
0000
0100
0000
1000
0000
0001
0010
1000
0000
0001
0000
0100
0000
,
0010
1000
0010
0100
0001
0000
1000
0000
,
0100
0010
1000
0010
0100
0000
1000
0000
,
0001
0100
0010
0001
0010
0000
1000
0000
,
0100
0000
0100
0000
0010
0000
0010
0000
0001
0100
1000
0000
0100
0000
1000
0000
,
0100
0100
0001
0001
0020
0000
2030
0000
,
3001
0100
1000
0010
0200
0000
2300
0000
,
3001
0010
1000
1000
0002
0000
2003
0000
,
3100
0000
0010
0000
0001
0000
0001
0000
1000
0100
0001
0000
1000
0000
0010
0000
,
0001
1000
0010
0100
2000
0000
3002
0013
,
1000
0100
0010
1000
0020
0000
0230
0000
,
1300
0010
0100
0100
2000
0000
3200
0301
,
0010
0000
0010
0000
0100
0000
0100
0000
0001
0100
1000
0000
0020
0000
0030
0000
,
1001
0000
0000
0000
0000
0000
0000
0000
1100
0000
0000
1100
0000
0000
1100
0000
,
1001
0000
0000
1100
0000
0000
1100
0000
1001
0000
0000
1100
0000
0000
0110
0000
,
0011
0000
0000
0000
0000
0000
0000
0000
0101
0000
0000
0101
0000
0000
0101
0000
,
1001
0000
0000
0101
0000
0000
0101
0000
1001
0000
0000
0101
0000
0000
0101
0000
,
1001
0000
1000
0100
0011
0000
0001
0100
,
1010
0000
1001
0000
0001
0010
0100
1000
,
0000
0000
0000
0000
,
0000
0000
0000
0010
,
0010
1000
0010
0000
1000
0000
0010
0100
0010
0100
0010
0000
0100
0001
0100
0000
,
0001
1000
0001
0000
1000
0100
1000
0100
1000
0000
0001
1000
0001
0000
1000
0000
,
1100
0000
1100
0000
1000
0001
0100
0000
0010
1000
0010
0000
0100
0001
0100
0000
,
0101
0000
1100
0000
1000
0100
0010
0000
0110
0000
1000
0000
0001
0000
0010
0000
,
0110
0000
0011
0001
1000
0000
1100
0000
1000
0001
1000
0000
0010
1000
0010
0000
,
0100
0001
0100
0000
0010
0100
0010
0100
0010
0000
1000
0001
1000
0000
0100
0000
,
0011
0000
1001
0000
1100
1000
0010
0000
1010
0000
0000
0000
0100
0001
0100
0000
,
0011
0000
0000
0001
0010
0000
0010
0001
0010
0000
0010
0000
0200
0000
0310
0000
,
0100
1000
0100
0000
0010
0001
0010
0000
0100
1000
0100
0000
1000
0001
1000
0000
,
0001
0100
0001
0000
0100
0010
0100
0000
0010
1000
0010
0000
1000
0000
0001
0000
,
0011
0000
0011
0000
0010
0100
0010
0000
0100
1000
0100
0000
1000
0001
1000
0000
,
1010
0000
0000
0100
0001
0000
0000
0010
0001
1000
0100
1000
0001
0000
0000
0000
,
0101
0000
0101
0000
0001
0100
0001
0000
1000
0001
1000
0000
0001
0100
0001
0000
,
1010
0000
0110
0000
0001
0000
0010
0001
1000
0000
0001
0000
0011
0000
0110
0000
,
1100
2000
3020
0230
,
0310
0010
0010
0100
,
0010
1000
0010
0000
0101
0000
0100
0000
0101
0000
0000
0000
0101
0000
0000
0000
,
0101
0000
0101
0001
1001
0000
1001
0000
,
1001
0000
0000
0000
1001
0000
0100
0000
1001
0000
0000
0001
1000
0000
0100
0000
,
1100
0000
1000
0000
0100
1000
0100
1000
0100
0000
0010
0000
0110
0000
1001
0000
,
0001
1000
0001
0000
1001
0000
1000
0000
1010
0000
0000
0000
1010
0000
0000
0000
,
1010
0000
0000
0000
0010
0100
0010
0100
0010
0000
0000
0100
0001
0000
1001
0000
,
1100
0000
1100
0100
1100
1000
0001
0000
,
0002
0000
2003
0000
3002
0010
0013
0010
,
0010
0001
0100
0000
1000
0100
0001
0000
0010
0001
0100
0000
1000
0100
0001
0000
,
0010
0001
0100
0000
1000
0100
0001
0000
0011
0000
0110
0000
1100
0000
1000
0100
,
1000
0000
0100
0000
0001
0100
1000
0000
0010
1000
0100
0000
1100
0000
1001
0000
,
0001
1000
0000
0000
0002
0000
0000
0000
1003
0100
0010
0001
1000
0000
0000
0000
,
0001
0010
0100
0000
1001
0000
1100
0000
1001
0000
1000
0000
0010
1000
0100
0000
,
0001
0100
1000
0000
0010
1000
0100
0000
0001
0100
1000
0000
0110
0000
0000
0100
,
0010
0001
0100
1000
0001
0010
1000
0100
,
0210
0000
0000
0000
,
0310
0000
0000
0000
;
