#TITLE:FULi AUTO BUSTER;
#SUBTITLE:;
#ARTIST:MYUKKE.;
#TITLETRANSLIT:;
#SUBTITLETRANSLIT:;
#ARTISTTRANSLIT:;
#GENRE:;
#CREDIT:z-axis;
#MUSIC:FULi AUTO BUSTER.mp3;
#BANNER:bn.png;
#BACKGROUND:bg.jpg;
#CDTITLE:;
#SAMPLESTART:82.791;
#SAMPLELENGTH:13.241;
#SELECTABLE:YES;
#OFFSET:-0.032;
#BPMS:0.000=145.000;
#STOPS:;
#BGCHANGES:;
#FGCHANGES:;

//--------------- dance-single - ----------------
#NOTES:
     dance-single:
     :
     Hard:
     13:
     0,0,0,0,0:
0000
0000
0000
0000
,
0000
0000
0000
0000
,
0000
0000
0000
0000
,
0000
0000
0000
0000
,
0000
0000
0000
0000
,
0000
0000
0000
0000
,
0000
0000
0000
0000
,
0000
0000
0000
0000
,
0000
0000
0000
0000
0000
0000
0000
0110
,
0000
0100
0100
0110
0000
0010
1001
0000
,
1000
0000
0100
0000
0010
0001
0010
0000
0100
0000
0100
0000
1000
0010
1000
0000
,
0001
0000
0010
0000
0100
1000
0100
0000
0010
0000
0001
0000
1000
0001
1000
0000
,
0010
0000
0010
0000
1000
0010
1000
0000
0100
0000
0010
0000
0001
1000
0001
0000
,
1000
0000
0000
0000
0000
0000
0100
0000
0000
0000
0000
0000
1000
0000
0000
0000
0000
0000
0001
0000
1000
0000
0001
0000
1000
0000
0000
0000
0000
0000
0001
0000
0000
0000
0000
0000
0010
0000
0000
0000
0000
0000
0100
0000
0000
0010
0000
0000
,
0100
0000
0000
0000
0000
0000
0010
0000
0000
0000
0000
0000
0100
0000
0000
0000
0000
0000
0010
0000
0000
0001
1000
0001
,
1000
0000
1000
0000
0001
0000
1000
0100
,
1000
0001
1000
0001
1000
0001
1000
0001
0040
0000
0000
0000
0000
0000
0000
0000
,
0130
0000
0000
0000
0100
1000
0001
0000
0200
0000
0000
0300
MMMM
0000
0000
0000
,
1001
0000
1000
0100
0001
0100
0010
0110
,
0000
0010
0021
0000
0031
0100
0001
0001
,
0201
0000
0310
1000
0001
0100
0010
2100
,
0000
0000
3001
0010
0001
0010
0001
0010
0001
0000
0100
0000
0010
0000
0010
0000
,
2010
0000
3001
0010
0100
0010
0001
1020
,
0000
0000
0130
0000
0102
0000
0000
0000
0103
0010
0100
0000
0010
0000
1000
0000
,
1002
0000
0103
0010
1000
0100
0000
0210
,
0000
0320
0032
1003
0010
1000
0100
0100
,
0120
0000
0130
0010
0001
0100
0001
0201
,
0000
0301
1002
0000
2003
3020
1030
0100
,
2100
0000
3010
1000
0100
0001
0100
1200
,
0000
0000
1300
0010
1000
0010
1000
0010
2000
0000
3002
0000
1003
0000
0010
0000
,
0201
0000
0301
0010
0100
0010
0010
0021
,
0000
0000
0031
0000
0201
0000
0000
0000
0310
1000
0010
0000
0100
0000
0001
0000
,
2001
0000
3100
0010
0001
0010
0000
0021
,
0000
0230
2300
3010
0100
0001
1000
1000
,
1001
0001
1000
0010
0000
0100
0001
0010
,
0000
0010
0100
1000
0000
0010
1000
0100
,
0010
0001
1000
0010
0000
0010
1000
0100
,
0010
0000
0010
0000
0010
0000
0100
0000
0010
0000
0001
1000
0001
0000
0010
0000
,
1001
0001
0100
1000
0100
0002
0013
1200
,
0000
1300
0100
0001
0100
1000
0001
0100
,
0110
0010
1000
0100
0001
0100
0010
0001
,
0100
1000
0100
0001
0010
0100
MMMM
0000
,
1000
0010
1000
0000
0001
0000
0010
0000
0001
0000
1000
0010
0100
0000
0001
0000
,
0010
0001
0010
0000
0100
0000
0010
0000
0001
0000
1000
0010
0100
0000
0001
0000
,
0100
0000
0010
0000
0100
0000
0001
0000
0010
0000
0100
1000
0001
0000
0100
0000
,
0010
0000
1000
0000
0100
0000
0010
0001
1000
0000
0100
0000
1000
0000
0010
0000
,
0100
0000
0100
0000
0001
0000
1000
0001
1000
0000
0001
0010
0100
0000
1000
0000
,
0010
0000
0100
0000
0001
0000
0100
0000
0010
0000
1000
0100
0010
0000
0001
0000
,
1000
0001
1000
0001
1000
0001
1000
0001
0040
0000
0000
0000
0130
0000
0010
0000
,
0000
0100
0100
0010
0100
0010
1001
0000
,
1000
0000
0100
0000
0001
0000
0100
0000
1000
0000
0010
1000
0010
0000
0100
0000
,
0001
0000
0010
0000
1000
0000
0010
0000
0001
0000
0100
0010
0100
0000
0010
0000
,
1000
0000
0100
0000
0001
0000
0100
0000
0010
0000
0001
0010
0001
0000
1000
0000
,
0010
0000
0100
0000
1000
0000
0100
0010
0100
0000
0001
0000
0010
0000
0100
0000
,
1000
0000
0100
0000
0001
0000
0100
0000
1000
0000
0010
1000
0010
0000
0100
0000
,
0001
0000
0010
0000
1000
0000
0010
0000
0001
0000
1000
0100
1000
0000
0100
0000
,
0010
0000
0001
0000
0100
0000
1000
0000
0100
0000
0001
0100
0001
0000
0010
0000
,
0100
0000
0010
0000
1001
0000
0000
0000
0010
0000
0000
0000
1001
0000
0001
0010
,
0001
0010
0100
2000
0000
3010
0100
0002
,
0000
1003
0100
0002
0000
0103
1000
0010
,
0200
0000
0301
1000
0010
0100
0001
0020
,
0000
0000
0034
0000
0103
0000
0040
0000
1030
0000
0400
0000
0310
0000
0001
0100
,
0010
1000
0001
0020
0000
0130
1000
0020
,
0000
0000
1030
0000
0001
1000
0100
0000
1000
0000
0010
0000
1000
0000
0001
0000
,
0100
0010
0100
0010
0100
0010
0100
0010
0400
0000
0000
0000
0300
0000
0110
0000
,
0000
0110
0110
1001
0000
0101
1001
1000
,
0001
0000
0100
0000
0010
0100
0010
0000
1000
0000
0100
0010
0100
0000
0010
0000
,
0001
0000
0100
0000
0010
0100
0010
0000
1000
0000
0100
0010
0100
0000
0010
0000
,
0001
0000
1000
0000
0001
0100
0010
0000
1000
0000
0100
0010
0001
0000
0010
0000
,
0001
0000
0100
0000
0010
0000
0100
0001
0010
0000
0100
0000
0010
0000
0001
0000
,
0100
0000
0000
0000
0010
0000
0000
0000
1000
0000
0010
1000
0010
0000
0100
0000
,
0001
0000
0000
0000
0001
0000
0000
0000
1000
0000
0001
0010
0001
0000
1000
0000
,
0001
1000
0001
1000
0001
1000
0001
1000
0001
0000
1000
0000
1000
0000
0010
0000
,
0100
0100
0100
0010
0100
0010
1001
0000
;

//--------------- dance-single - ----------------
#NOTES:
     dance-single:
     :
     Challenge:
     16:
     0,0,0,0,0:
0000
0000
0000
0000
,
0000
0000
0000
0000
,
0000
0000
0000
0000
,
0000
0000
0000
0000
,
0000
0000
0000
0000
,
0000
0000
0000
0000
0000
0000
0000
0000
0000
0000
0000
0000
0000
0000
1000
0001
,
0100
0000
0010
0000
1000
0000
0100
0000
0000
0000
0100
0000
0010
0000
0010
0001
,
1000
0000
0100
0000
1000
0010
0100
0000
0001
0000
0010
0000
0001
0000
0010
0100
,
4000
0000
0000
0000
0000
0000
3000
1001
,
0000
1000
0001
1001
0000
0010
MMMM
0000
,
0001
0000
1000
0000
0001
0100
0010
0000
1000
0100
0010
0100
0010
0000
0001
0000
,
0100
0000
0001
0000
0010
0100
1000
0000
0010
0100
0001
0100
0010
0000
1000
0000
,
0100
0000
0010
0000
0100
1000
0010
0000
0100
0010
0100
1000
0100
0000
0001
0000
,
0010
0000
0000
0000
0000
0000
0100
0000
0000
0000
0000
0000
0010
0000
0000
0000
0000
0000
0100
0000
0010
0000
0100
0000
1000
0000
0000
0000
0000
0000
0001
0000
0000
0000
0000
0000
1000
0000
0000
0000
0000
0000
0010
0000
0000
0100
0000
0000
,
0001
0000
0000
0000
0000
0000
0001
0000
0000
0000
0000
0000
1000
0000
0000
0010
0000
0000
1000
0000
0000
0000
0000
0000
0001
0000
0000
0100
0000
0000
0010
0000
0000
0100
0000
0000
0001
0000
0000
0000
0000
0000
0010
0000
0100
0000
0010
0000
,
0100
0000
0000
0000
0000
0000
1000
0000
0000
0000
0000
0000
0001
0000
0000
1000
0000
0000
0001
0000
0000
0000
0000
0000
0010
0000
0000
0100
0000
0000
0010
0000
0000
0100
0000
0000
1000
0000
0000
0000
0000
0000
0001
0000
1000
0000
0001
0000
,
1000
0001
0100
0010
1000
0100
0010
0001
0400
0000
0000
0000
0000
0000
0000
0000
,
0310
0000
1000
0000
0001
1000
0001
0000
0200
0000
0000
0300
MMMM
0000
0000
0000
,
2100
0000
3001
1000
0010
M010
0010
0201
,
0000
0301
0012
0000
0013
0001
0101
0010
,
0210
0000
0310
1000
0001
0010
0100
2100
,
0000
0000
3100
1000
0010
1000
0100
1000
0010
0000
0100
0000
0110
0000
0001
0000
,
0102
0000
1003
0001
0100
010M
0010
0012
,
0000
0000
1003
0000
1002
0000
0000
0000
1003
0100
1000
0000
1010
0000
0001
0000
,
2001
0000
3010
M010
0001
0100
0000
2010
,
0000
3002
0203
0001
0320
1030
1001
0001
,
0021
0000
0130
0010
0001
00M1
0010
0120
,
0000
1030
2001
0000
3002
0013
0011
0100
,
2100
0000
3010
0100
0010
1000
0100
0021
,
0000
0000
0031
0010
0001
0100
0001
0010
0200
0000
2300
0000
3001
0000
0010
0000
,
1200
0000
0310
0001
0010
001M
1000
1020
,
0000
0000
0130
0000
1200
0000
0000
0000
1300
0100
0001
0000
1001
0000
1000
0000
,
2010
0000
3010
1000
10M0
0010
0000
0021
,
0000
0230
2300
3100
M100
0001
0101
0001
,
1001
1000
0001
0010
0000
0010
0010
0001
,
0000
0100
0010
1000
0000
1000
0010
0010
,
1000
1000
0100
0010
0000
0010
0001
0100
,
0010
0000
0M10
0000
0010
0000
0100
0000
0010
0000
1000
0001
1000
0000
0001
0000
,
1010
0010
M010
0001
0011
0002
0013
1200
,
0300
0100
M100
0001
1001
1000
0010
0100
,
0101
0001
1000
0100
01M0
0001
1000
1010
,
0020
0130
0101
0001
0010
001M
1001
0000
,
1000
0000
0000
0010
0000
0000
0100
0000
0000
0000
0000
0000
1000
0000
0000
0000
0000
0000
0100
0000
0000
0000
0000
0000
0001
0000
0000
0000
0000
0000
0010
0000
0001
0000
1000
0000
0100
0000
0000
0000
0000
0000
0010
0000
0000
0000
0000
0000
,
0001
0000
0000
0010
0000
0000
0100
0000
0000
0000
0000
0000
0001
0000
0000
0000
0000
0000
0100
0000
0000
0000
0000
0000
0010
0000
0000
0000
0000
0000
0001
0000
1000
0000
0100
0000
0010
0000
0000
0000
0000
0000
0001
0000
0000
0000
0000
0000
,
1000
0000
0000
0010
0000
0000
0100
0000
0000
0000
0000
0000
1000
0000
0000
0000
0000
0000
0100
0000
0000
0000
0000
0000
0001
0000
0000
0000
0000
0000
0010
0000
0100
0000
1000
0000
0100
0000
0000
0000
0000
0000
0010
0000
0000
0000
0000
0000
,
0001
0000
0000
0100
0000
0000
1000
0000
0000
0100
0010
1000
0001
0000
0000
0010
0000
0000
0100
0000
0000
1000
0000
0000
,
0001
0000
0000
0000
0000
0000
0001
0000
0000
0000
0000
0000
0100
0000
0000
0000
0000
0000
0100
0000
0000
0010
0000
0000
1000
0000
0000
0000
0000
0000
0100
0000
0010
0000
0001
0000
1000
0000
0000
0000
0000
0000
0100
0000
0000
0000
0000
0000
,
1000
0000
0000
0100
0000
0000
0001
0000
0000
0100
0000
0000
0010
0000
0000
0100
0000
0000
1000
0000
0000
0001
0000
0000
0100
0000
0000
0000
0000
0000
0010
0000
1000
0000
0100
0000
0010
0000
0000
0000
0000
0000
0001
0000
0000
0000
0000
0000
,
0100
0010
1000
0100
0010
0001
0100
0010
4000
0000
0000
0000
3002
0000
0103
0000
,
0000
0100
010M
1000
0100
M100
0101
0000
,
0010
0000
0000
1000
0000
0000
0100
0000
0000
0000
0000
0000
1000
0000
0000
0100
0000
0000
0010
0000
0000
0100
0000
0000
0010
0000
0000
0000
0000
0000
0100
0000
0010
0000
0001
0000
1000
0000
0000
0000
0000
0000
0010
0000
0000
0000
0000
0000
,
1000
0000
0000
0100
0000
0000
0010
0000
0000
0100
0000
0000
0001
0000
0000
0100
0000
0000
0010
0000
0000
0000
0000
0000
0001
0000
0000
0000
0000
0000
1000
0000
0010
0000
0100
0000
0001
0000
0000
0000
0000
0000
0010
0000
0000
0000
0000
0000
,
0001
0000
0000
1000
0000
0000
0100
0000
0000
0000
0000
0000
1000
0000
0000
0100
0000
0000
0010
0000
0000
0100
0000
0000
0010
0000
0000
0000
0000
0000
0001
0000
0010
0000
0100
0000
1000
0000
0000
0000
0000
0000
0010
0000
0000
0000
0000
0000
,
1000
0000
0000
0000
0000
0000
0001
0000
0000
0100
0000
0000
0010
0000
0000
0000
0000
0000
0100
0000
0010
0000
1000
0000
0001
0000
0000
0000
0000
0000
0010
0000
0000
0100
0000
0000
1000
0000
0000
0100
0000
0000
0010
0000
0000
0000
0000
0000
,
0001
0000
0000
0100
0000
0000
0010
0000
0000
0000
0000
0000
1000
0000
0000
0010
0000
0000
0100
0000
0000
0010
0000
0000
0100
0000
0000
0000
0000
0000
0001
0000
0010
0000
0100
0000
1000
0000
0000
0000
0000
0000
1000
0000
0000
0000
0000
0000
,
0001
0000
0000
0100
0000
0000
0010
0000
0000
0100
0000
0000
1000
0000
0000
0100
0000
0000
0010
0000
0000
0000
0000
0000
1000
0000
0000
0000
0000
0000
1000
0000
0100
0000
0010
0000
0001
0000
0000
0000
0000
0000
0100
0000
0000
0000
0000
0000
,
0001
0000
0000
0010
0000
0000
0100
0000
0000
0000
0000
0000
1000
0000
0000
0100
0000
0000
0010
0000
0000
0100
0000
0000
0010
0000
0000
0000
0000
0000
0100
0000
0010
0000
0001
0000
1000
0000
0000
0000
0000
0000
0010
0000
0000
0000
0000
0000
,
0100
0000
0001
0000
0101
0000
0100
0000
0110
0000
0010
0000
1001
0000
1000
0100
,
1000
0100
0001
0200
0000
0301
0100
2000
,
0000
3001
0100
2000
0000
3001
0010
1000
,
0020
0000
0130
0001
0010
1000
0001
0200
,
0000
0000
0000
0000
0000
0000
1300
0000
0100
0000
0010
0000
0100
0000
0000
0000
0000
0000
0010
0000
0100
0000
0010
0000
0001
0000
0000
0000
0000
0000
0010
0000
0001
0000
1000
0000
0001
0000
0000
0000
0000
0000
0100
0000
0000
0001
0000
0000
,
1000
0000
0000
0100
0000
0000
1000
0000
0000
0020
0000
0000
0000
0000
0000
0130
0000
0000
0001
0000
0000
1000
0001
1000
,
0001
0000
0000
0000
0000
0000
1000
0000
0000
0000
0000
0000
0001
0000
0000
0100
0000
0000
0010
0000
0000
0000
0000
0000
1000
0000
0000
0000
0000
0000
0100
0000
0000
0000
0000
0000
1000
0000
0000
0000
0000
0000
0001
0000
0100
0000
0001
0000
,
0100
0010
1000
0100
0010
0001
0100
0010
0400
0000
0000
0000
0310
0000
0110
0000
,
0000
0110
1010
0101
0000
0011
MMMM
0000
,
1010
0000
0010
0000
1000
0100
0001
0000
0100
0001
0100
0010
0100
1000
0001
0000
,
1000
0000
0100
0000
0010
0001
0100
0000
0010
0001
0010
0100
0010
1000
0001
0000
,
1000
0000
0100
0000
0001
0100
1000
0000
1000
0010
0100
0010
0001
0010
0100
0000
,
0001
0000
0000
0010
0000
0000
1000
0000
0000
0010
0001
1000
0100
0000
0000
0010
0000
0000
0001
0000
0000
1000
0000
0000
,
0010
0000
0000
0000
0000
0000
0100
0000
0000
0000
0000
0000
0001
0000
0000
1000
0000
0000
0100
0000
0000
0000
0000
0000
0001
0000
0000
0100
0000
0000
0010
0000
0000
0100
0000
0000
0001
0000
0000
0000
0000
0000
0100
0000
1000
0000
0100
0000
,
1000
0000
0000
0000
0000
0000
0100
0000
0000
0000
0000
0000
1000
0000
0000
0010
0000
0000
0100
0000
0000
0000
0000
0000
1000
0000
0000
0100
0000
0000
0010
0000
0000
0100
0000
0000
1000
0000
0000
0000
0000
0000
0100
0000
0001
0000
0100
0000
,
0001
1000
0100
0010
0001
1000
0100
1000
0040
0000
0000
0000
0130
0000
0010
0000
,
0100
01M0
0200
0010
00M0
0310
1001
0000
;
