#TITLE:Eligo;
#SUBTITLE:;
#ARTIST:Nhato;
#TITLETRANSLIT:;
#SUBTITLETRANSLIT:;
#ARTISTTRANSLIT:;
#GENRE:;
#CREDIT:z-axis;
#MUSIC:Eligo.ogg;
#BANNER:;
#BACKGROUND:;
#CDTITLE:;
#SAMPLESTART:88.008;
#SAMPLELENGTH:29.091;
#SELECTABLE:YES;
#OFFSET:-0.735;
#BPMS:0.000=132.000;
#STOPS:;
#BGCHANGES:;
#FGCHANGES:;

//--------------- dance-single - ----------------
#NOTES:
     dance-single:
     :
     Medium:
     11:
     0,0,0,0,0:
0000
0000
0000
0000
;

//--------------- dance-single - ----------------
#NOTES:
     dance-single:
     :
     Hard:
     11:
     0,0,0,0,0:
0000
0000
0000
0000
,
0000
0000
0000
0000
,
0000
0000
0000
0000
,
0000
0000
0000
0000
,
1000
0010
0100
0001
1000
0001
0010
0001
,
1000
0010
0100
0010
1000
0001
0010
0100
,
0010
0001
0100
0010
1000
0001
0010
0001
,
0100
0000
0010
0000
1000
0000
0001
0000
0010
0000
0001
0000
1000
0100
1000
0100
,
1000
0001
0010
0001
1000
0010
0100
0010
,
1000
0001
0010
0001
1000
0100
0010
0100
,
1000
0001
0100
0001
1000
0010
0100
0001
,
0010
0100
0010
0001
0100
0010
1000
0001
,
0010
0001
0100
0001
0010
0100
0010
0001
,
0100
0010
0100
0001
1000
0010
0100
0001
,
0010
0100
0010
0001
1000
0001
0100
0010
,
1000
0000
0001
0000
0010
0000
0001
1000
0001
0000
1000
0001
1000
0100
1000
0100
,
1000
0001
0000
0010
0000
0000
0001
0100
0001
1000
0000
0001
0000
0000
1000
0100
,
1000
0001
0000
1000
0000
0000
0001
0100
0001
1000
0000
0010
0000
0000
1000
0010
,
1000
0001
0000
0100
0000
0000
0001
0010
0001
1000
0000
0100
0000
0000
1000
0100
,
1000
0001
0000
0010
0000
0000
0001
1000
0001
0100
0000
0001
0010
0001
0010
0001
,
1000
0100
0000
1000
0000
0000
0100
1000
0001
1000
0000
0010
0000
0000
1000
0001
,
0100
0001
0000
0010
0000
0000
0001
0100
0001
1000
0000
0010
0000
0000
1000
0010
,
1000
0001
0000
0100
0000
0000
0010
1000
0001
1000
0000
0100
0000
0000
1000
0001
,
0100
0001
0000
0010
0000
0000
0001
1000
0001
0100
0000
0001
0010
0100
0010
0100
,
0010
0001
0000
1000
0000
0000
0001
0100
0001
0100
0000
0010
0000
0000
1000
0100
,
1000
0100
0000
0010
0000
0000
0001
0100
0001
1000
0010
0100
0010
1000
0001
1000
,
0001
0100
0000
0001
0000
0000
1000
0100
1000
0010
0000
1000
0000
0000
0001
1000
,
0001
0010
0000
0001
0000
0000
1000
0001
1000
0010
0100
0001
1000
0001
0010
0001
,
0100
0001
1000
0100
0010
0001
1000
0010
0100
0001
0010
0100
1000
0001
0100
0010
,
0100
0001
1000
0100
1000
0001
0010
0001
1000
0100
1000
0001
0100
0010
1000
0001
,
0010
0001
1000
0100
0010
0001
1000
0010
1000
0001
0100
0010
1000
0001
0010
0100
,
1000
0001
1000
1001
,
1000
0001
0000
0100
0001
0000
0010
0001
1000
0100
0000
1000
0001
0000
1000
0010
,
1000
0001
0000
1000
0100
0000
1000
0001
0000
1000
0001
0000
0010
0000
0100
1000
,
0001
1000
0000
0001
0100
0000
0001
0010
0001
1000
0000
0100
1000
0000
0100
0010
,
0001
1000
0000
0001
0100
0000
0010
1000
0000
0010
1000
0000
0001
0100
0001
0100
,
0001
1000
0000
0001
0010
0000
0001
1000
0100
1000
0000
0001
0010
0000
0001
1000
,
0100
1000
0000
0001
1000
0000
0001
0010
0000
0001
0010
0000
0001
0000
0100
0010
,
1000
0001
0000
0100
0001
0000
1000
0010
1000
0100
0000
1000
0001
0000
0100
0010
,
1000
0001
0000
1000
0001
0100
0010
1000
0000
0010
1000
0000
0001
1000
0001
1000
,
0001
0010
0000
0001
0100
0000
0010
1000
0010
0100
0000
0001
1000
0000
0100
1000
,
0001
0100
0000
0001
1000
0000
0100
1000
0000
0100
1000
0000
0001
0010
0001
0010
,
0001
1000
0000
0001
1000
0000
0010
1000
0001
0100
0000
0001
1000
0000
0001
0010
,
0001
1000
0000
0001
1000
0000
0001
0100
0000
0001
0100
0000
0010
1000
0010
1000
,
0001
0100
0000
0001
0010
0000
0001
0010
0100
0010
0000
0100
1000
0000
0001
0100
,
0001
1000
0000
0100
0010
0000
0001
0010
0000
0001
0010
0000
0100
1000
0100
1000
,
0001
0010
0100
1000
0001
0010
0100
0010
0001
1000
0001
0100
0010
1000
0001
0010
,
0100
1000
0001
0010
0100
1000
0001
0010
0100
1000
0001
0100
0001
0000
0000
0000
,
0001
1000
0000
0100
1000
0000
0001
1000
0100
1000
0000
0001
1000
0010
0100
0001
,
1000
0001
0000
1000
0100
0000
0010
0001
0000
0010
0001
0000
1000
0001
1000
0100
,
0010
0001
0000
1000
0001
0010
0100
1000
0001
0100
0000
0010
1000
0001
0100
0010
,
1000
0001
0000
0010
0100
0000
1000
0100
0000
1000
0100
0000
1000
0001
0100
0001
,
1000
0100
0000
1000
0010
0100
0001
1000
0100
0010
0000
0001
1000
0000
0010
1000
,
0001
0100
0000
0001
1000
0000
0010
1000
0000
0010
1000
0000
0010
1000
0001
1000
,
0100
0010
0000
0001
0010
0000
0100
1000
0100
0010
0000
0001
0100
0010
1000
0001
,
0010
0100
0000
1000
0001
0000
0100
0001
0000
0100
0001
0000
0010
0001
0010
0001
,
1000
0001
0000
1000
0100
0000
0010
0001
1000
0001
0000
1000
0010
0000
0100
0010
,
0100
0001
0000
1000
0001
0000
1000
0100
0000
0010
0100
0000
1000
0001
0010
0100
,
1000
0001
0000
1000
0001
0000
1000
0010
0100
0001
0000
1000
0001
0000
1000
0100
,
0010
0001
0000
0010
0001
0000
0010
0100
0000
0010
0100
0000
1000
0100
1000
0100
,
1000
0001
0000
1000
0100
0000
1000
0001
0100
0010
0000
0100
0010
0000
0100
0000
,
0001
0010
0000
0100
0010
0000
0001
1000
0000
0001
1000
0000
0001
0010
0100
1000
,
0001
0100
0000
0010
0100
0000
0010
0000
1000
0100
0000
0010
0100
0000
1000
0000
,
0001
0010
0000
0100
1000
0000
0010
0100
0000
0001
0010
0100
0000
0100
1000
0010
,
0200
0000
0010
0000
0000
0001
0000
0302
,
0000
1000
2003
0000
3200
0010
0320
0000
,
0032
0000
1000
0000
0000
1000
0000
0203
,
0000
0010
0010
0000
0000
0010
0000
0000
,
0302
0000
1000
0000
0000
1000
0000
0203
,
0000
0010
0320
0000
2030
0001
3002
0000
,
0203
0000
0000
0320
0000
0000
2030
0000
0000
0000
3020
0000
0000
0000
0230
0000
,
0000
0000
0001
0000
0000
0001
0000
0000
,
0302
0000
0010
0000
0000
0010
0000
2003
,
0000
0100
0100
0000
0000
0100
0000
0000
,
3020
0000
1000
0000
0000
1000
0000
0230
,
0000
0010
0010
0000
0000
0010
0000
0000
,
0302
0000
1000
0000
0000
1000
0000
0023
,
0000
0100
0100
0000
0000
0100
0000
0000
,
0032
0000
0000
2003
0000
0000
3020
0000
0000
0000
0230
0000
0000
0000
0302
0000
,
0000
0000
0000
0000
,
0000
0000
0000
0000
0000
0000
0000
0000
0000
0000
0000
0000
1003
0100
0010
0001
,
2000
0000
0000
3002
0000
0000
0203
0000
0000
0000
0000
0000
0300
0000
0010
1000
,
0001
1000
0200
0000
0000
1300
0001
1000
0100
0010
0002
0000
0000
0000
0013
0100
,
2000
0000
0000
3020
0000
0000
0230
0000
0000
0000
0000
0000
0300
0100
0001
1000
,
0010
1000
0002
0000
0000
0000
0103
0010
0100
0001
0000
1000
0010
1000
0100
0010
,
0002
0000
0000
2003
0000
0000
3002
0000
0000
0000
0023
0000
0000
0000
0031
0100
,
0010
1000
0002
0000
0000
0000
0000
0000
1003
0100
0010
0001
0010
0100
1000
0001
,
0200
0000
0000
0320
0000
0000
1030
0100
0000
1000
0010
0100
0000
0010
1000
0200
,
0000
0000
0000
0000
0000
0000
0000
0000
1300
0001
0010
0100
1000
0100
0010
0001
,
2000
0000
0000
3200
0000
0000
2300
0000
0000
0000
0000
0000
0000
0000
3001
0100
,
0010
1000
0002
0000
0000
0013
0001
1000
0100
0010
0200
0000
0000
0000
1300
0010
,
0200
0000
0000
0302
0000
0000
2003
0000
0000
0000
0000
0000
0000
3100
0010
0001
,
0100
0010
0200
0000
0000
0000
0301
0010
0100
1000
0000
0100
0010
0001
1000
0010
,
0200
0000
0000
0302
0000
0000
2003
0000
0000
0000
3020
0000
0000
0000
1030
0001
,
0010
0100
0020
0000
0000
0000
0000
0000
0031
1000
0100
1000
0010
0100
0001
1000
,
0002
0000
0000
0023
0000
0000
0230
0000
0000
0000
0000
0000
0300
1000
0100
0020
,
0000
0000
0000
0000
0000
0000
0000
0000
0031
0010
0100
1000
0010
0100
0001
1000
,
0001
0000
0000
0000
0100
0000
0000
0000
0001
0000
1000
0000
0100
0000
0010
0001
,
0000
0010
0100
0000
1000
0000
0000
0000
0001
0000
0000
1000
0001
1000
0001
0100
,
0010
0000
0000
1000
0000
0000
0001
0000
1000
0000
0010
0000
1000
0000
0100
0010
,
0000
0001
0010
0000
0001
0000
1000
0001
0000
0100
0001
1000
0000
0100
1000
0001
,
1000
0000
0000
0000
0001
0000
0000
0000
1000
0000
0010
0000
0100
0000
0001
0010
,
0000
0001
1000
0000
0001
0000
0100
0000
0010
0000
1000
0001
0100
0001
1000
0100
,
1000
0000
0000
0010
0000
0000
0100
0000
0001
0000
1000
0000
0010
0000
0100
0001
,
0000
0100
0010
0000
1000
0000
0010
1000
0001
0010
0001
1000
0000
0010
1000
0001
,
0010
0000
0001
0000
1000
0000
0001
0000
0100
0000
0010
0000
1000
0000
0001
0100
,
0000
0001
0010
0000
0100
0000
1000
0010
0000
0100
0010
1000
0000
0100
0010
0001
,
1000
0000
0001
0000
0010
0000
0100
0000
0010
0000
0001
0000
1000
0000
0001
1000
,
0000
0100
0010
0000
0001
0000
1000
0001
0010
0001
1000
0001
0000
1000
0001
0100
,
0001
0000
1000
0000
0001
0000
0010
0000
0001
0000
0100
0000
0010
0000
1000
0010
,
0000
0100
0010
0000
1000
0000
0001
1000
0001
0010
0001
1000
0000
0001
1000
0100
,
0010
0000
0001
0000
1000
0000
0010
0000
0100
0000
0100
0000
0001
0000
0010
0100
,
0000
1000
0100
0000
1000
0000
0001
0100
0010
1000
0001
1000
0000
0001
0010
0100
,
1000
0100
1000
0000
0001
0100
0001
0000
1000
0100
1000
0000
0001
0100
0001
0000
,
1000
0010
1000
0000
0001
0010
0001
0000
1000
0010
1000
0000
0001
0010
0001
0000
,
1000
0100
1000
0000
0001
0010
0001
0000
1000
0100
1000
0000
0001
0010
0001
0000
,
1000
0010
1000
0000
0001
0100
0001
0000
1000
0010
1000
0000
0001
0100
0001
0000
,
1000
0001
1000
0000
0001
0100
0001
0000
1000
0001
1000
0000
0001
0100
0001
0000
,
1000
0100
1000
0000
0001
1000
0001
0000
1000
0100
1000
0000
0001
1000
0001
0000
,
1000
0010
1000
0000
0001
1000
0001
0000
1000
0010
1000
0000
0001
1000
0001
0000
,
0010
0001
0010
0000
0100
0010
0100
0000
0010
0001
0010
0000
0001
0010
0100
1000
,
0100
1000
0001
0100
0001
1000
0010
1000
0001
1000
0001
0010
0001
1000
0001
0100
,
0001
1000
0100
0010
0001
1000
0100
1000
0001
0010
0001
1000
0100
1000
0010
0100
,
0001
1000
0100
0010
0001
1000
0010
0100
0001
0010
0001
1000
0010
1000
0001
0010
,
0100
1000
0001
0010
0001
1000
0010
0100
0001
1000
0100
1000
0001
0010
0100
1000
,
0001
0010
0001
1000
0001
0100
0010
1000
0010
0100
0001
0010
0001
1000
0100
0010
,
0001
0010
0100
1000
0001
0100
0001
1000
0010
1000
0001
1000
0100
1000
0010
0100
,
0001
0010
0100
1000
0001
0100
0010
1000
0001
0010
0100
1000
0001
0010
0100
1000
,
0010
0000
0000
0000
0100
0000
0000
0000
0010
1000
0100
0010
0001
1000
0010
0100
,
0001
0000
0010
0100
1000
0000
0001
0000
0100
0000
0001
0000
0010
0000
0001
1000
,
0100
1000
0010
0000
1000
0000
0010
0100
0001
0010
0100
0000
1000
0000
0001
0100
,
0010
0000
1000
0001
0100
0000
0010
0000
1000
0000
0001
0000
0010
0001
1000
0010
,
1000
0100
1000
0000
0001
0000
1000
0100
0010
0001
0000
1000
0010
0100
0001
0010
,
0100
0000
0010
0001
1000
0000
0001
0000
0100
0000
0010
0000
0100
0000
0001
1000
,
0010
0100
0001
0000
1000
0000
0010
0000
1000
0100
0010
0001
1000
0010
0100
0001
,
0100
0000
0010
1000
0001
0000
1000
0100
0000
0010
0001
1000
0000
0010
1000
0001
,
0100
0001
0100
0001
0100
0000
0000
0000
0001
0010
0100
1000
0100
0010
0001
1000
,
0010
0000
1000
0001
0100
0000
0001
1000
0100
0000
0010
0000
0001
0000
1000
0010
,
0100
0010
1000
0000
0001
0000
0010
0100
0010
0001
1000
0000
0001
0000
0100
0010
,
1000
0000
0001
0010
0100
0000
1000
0010
0100
0000
0001
0000
0010
0000
0100
0010
,
0100
1000
0001
0000
1000
0000
0010
0100
0001
0100
0000
0001
0010
0100
1000
0010
,
1000
0000
0001
1000
0100
0000
1000
0001
0100
0000
0010
0000
1000
0000
0100
0010
,
0001
0100
0001
0000
1000
0000
0001
0000
1000
0100
1000
0001
0100
0010
1000
0010
,
0100
0000
0001
0100
0010
0000
1000
0100
0010
0000
0001
0000
0010
0001
0100
0010
,
1000
0001
1000
0001
1000
0000
0000
0000
0001
0010
0100
1000
0100
0010
0001
1000
,
0001
0000
0000
0000
1000
0000
0010
0000
0100
0000
0001
0000
0010
0000
0100
1000
,
0000
0010
1000
0000
0001
0000
0010
0000
0100
0000
0000
1000
0010
1000
0010
0100
,
0001
0000
0010
0000
0100
0000
0010
0000
0001
0000
0001
0000
1000
0000
0010
0100
,
0000
0001
1000
0000
0001
0000
1000
0100
1000
0001
0100
0001
0000
1000
0010
1000
,
0001
0000
0010
0000
0100
0000
1000
0000
0001
0000
0100
0000
0010
0000
1000
0010
,
0000
0100
0001
0000
1000
0000
0100
0000
0010
0000
0000
0001
1000
0001
0100
0001
,
1000
0000
0100
0000
1000
0000
0001
0000
0001
0000
0010
0000
0001
0000
0100
0001
,
0000
1000
0100
0000
1000
0000
0001
1000
0100
1000
0001
0100
0010
1000
0010
1000
,
0001
0000
0000
0000
1000
0000
0000
0000
0100
0000
0010
0000
0001
0000
1000
0010
,
0000
0000
1000
0000
0001
0000
1000
0100
1000
0010
1000
0001
0000
1000
0001
1000
,
0100
0010
0100
0010
0100
0000
1000
0001
1000
0001
1000
0000
0001
0000
0100
0010
,
0000
1000
0001
0000
1000
0000
0001
0100
0001
1000
0100
0010
0000
0100
0010
0001
,
2000
0000
0000
0000
3020
0000
0000
0000
0130
0000
0001
0000
1000
0000
0001
0010
,
0000
0001
0010
0000
0000
0000
0001
1000
0100
1000
0001
1000
0000
0001
0100
0001
,
1000
0000
0000
0010
0000
0000
1000
0000
0100
0000
0010
0000
0001
0000
1000
0010
,
0000
1000
0001
0000
0000
0000
1000
0010
1000
0001
1000
0100
0000
1000
0001
0100
,
0001
1000
0000
0000
0001
0000
0000
0000
1000
0001
0000
0000
1000
0000
0000
0000
,
0001
0100
0000
0000
0001
0000
0000
0100
0000
0000
0100
0000
0001
0000
0000
0000
,
1000
0100
0000
0000
1000
0000
0000
0000
0100
1000
0000
0000
0001
0000
0000
0000
,
0010
0001
0000
0000
1000
0000
0000
0001
0000
0000
0001
0000
1000
0100
1000
0100
,
1000
0001
0000
0000
1000
0000
0000
0000
0001
1000
0000
0000
0001
0000
0000
0000
,
0100
0001
0000
0000
0100
0000
0000
0010
0000
0000
0010
0000
0100
0000
0000
0000
,
0001
0010
0000
0000
0001
0000
0000
0000
0010
0001
0000
0000
1000
0000
0000
0000
,
0010
1000
0000
0000
0010
0000
0000
1000
0000
0000
1000
0000
0001
0100
0001
0010
,
0200
0000
0000
0320
0000
0000
0032
0000
0000
0000
0000
0000
0000
0000
1003
0001
,
1000
0010
0200
0000
0000
0310
1000
0001
0010
0100
2000
0000
0000
0000
3001
1000
,
0020
0000
0000
0230
0000
0000
0302
0000
0000
0000
0000
0000
0000
0000
1003
0100
,
0010
0001
0020
0000
0000
0000
0000
0031
0100
0010
0000
1000
0010
1000
0100
0010
,
0002
0000
0000
0023
0000
0000
0230
0000
0000
0000
0320
0000
0000
0000
0031
1000
,
0001
0010
0200
0000
0000
0000
0000
0000
0310
0001
0100
0001
1000
0010
0100
0001
,
2000
0000
0000
3020
0000
0000
0130
0001
0000
1000
0100
0010
0000
0010
0001
0200
,
0000
0000
0000
0000
0000
0000
0000
0000
0301
0010
0100
1000
0100
0010
0001
1000
,
0010
0100
0010
1000
0001
0100
0001
1000
0001
0010
0001
1000
0001
0010
0100
0010
,
0001
1000
0100
1000
0001
0010
0001
1000
0001
1000
0100
1000
0001
1000
0010
1000
,
0001
0010
0100
1000
0001
1000
0010
0100
0001
0010
0001
1000
0001
1000
0100
0010
,
0001
1000
0100
1000
0001
1000
0010
1000
0001
0100
0001
1000
0010
0100
0010
1000
,
0001
0010
0001
1000
0001
0010
0100
1000
0001
0010
0001
1000
0001
0010
0100
0010
,
0001
1000
0100
1000
0100
0010
0001
1000
0001
0010
0001
1000
0100
1000
0001
1000
,
0001
0100
0010
1000
0001
0010
0100
1000
0001
0100
0010
1000
0001
0010
0100
1000
,
0001
0001
1000
1001
,
0021
0000
0031
0000
2001
0000
3010
0100
,
0101
1002
0023
0130
,
2100
0000
0000
0000
0000
0000
3001
0000
0000
0000
0000
0000
1000
0000
0000
0001
0100
0010
1000
0000
0000
0020
0000
0000
,
1000
0030
1010
0000
1010
0000
0102
0100
,
1003
0000
1100
0000
0210
0010
1300
0002
,
0010
0000
1003
0000
1020
0100
1030
0010
,
2001
0000
0000
0000
0000
0000
3001
0000
0000
0000
0000
0000
1000
0100
0010
0001
1000
0100
0010
0001
1000
0200
0000
0000
,
1000
0000
0300
0000
1100
0000
0000
0000
0110
0000
0010
0000
0001
0010
0001
0010
,
0002
0000
1003
0000
2010
0000
3001
0200
,
0010
0000
0300
0000
0001
0000
0000
0000
0102
0000
0000
1003
0100
1000
0001
0100
,
0020
0000
0000
0000
0000
0000
1030
0000
0000
0000
0000
0000
1010
0000
0000
0001
0010
0100
1000
0000
0000
0200
0000
0000
,
1000
0300
1100
0000
1100
0000
0110
0010
,
0002
0000
0103
0000
2010
0010
3001
0200
,
0001
0000
0000
0000
0310
0000
0000
0000
2010
0000
0000
3001
0100
0010
1000
0010
,
0200
0000
0000
0000
0000
0000
0301
0000
0000
0000
0000
0000
1000
0001
0010
0100
1000
0001
0010
0100
1000
0002
0000
0000
,
1000
0000
0003
0000
2000
0000
0000
0000
3001
0010
0100
1000
0100
0010
0001
1000
,
0200
0000
0000
2300
0000
0000
3002
0000
0000
0000
0000
0000
0003
0000
0100
0010
,
1000
0001
2000
0000
0000
3001
1000
0100
1000
0001
0200
0000
0000
0000
0301
0010
,
0200
0000
0000
2300
0000
0000
3002
0000
0000
0000
0000
0000
0003
0100
0001
1000
,
0010
1000
0002
0000
0000
0000
0013
0100
0010
0001
0000
1000
0010
1000
0100
0010
,
0002
0000
0000
2003
0000
0000
3002
0000
0000
0000
0023
0000
0000
0000
0031
0100
,
0010
1000
0002
0000
0000
0000
0000
0000
1003
0100
0010
0001
0010
0100
1000
0001
,
0200
0000
0000
0320
0000
0000
1030
0100
0000
1000
0010
0100
0000
0010
1000
0200
,
0000
0000
0000
0000
0000
0000
0000
0000
1300
0001
0010
0100
1000
0100
0010
0001
,
2000
0000
0000
3020
0000
0000
0230
0000
0000
0000
0000
0000
0000
0000
0000
0000
,
0000
0000
0000
0000
,
0000
0000
0000
0000
,
0000
0000
0000
0000
0000
0000
0000
0301
0010
0001
0000
1000
0100
0010
0001
1000
,
0002
0000
0000
0023
0000
0000
0230
0000
0000
0000
0000
0000
0000
0000
0000
0000
,
0000
0000
0000
0000
,
0000
0000
0000
0000
,
1300
0000
0000
0000
0001
0000
0000
0000
1000
0000
0000
0000
0001
1000
0001
1000
,
0001
0010
0000
0001
0010
0000
0100
1000
0001
0010
0000
0001
0010
0000
0100
1000
,
0001
1000
0000
0001
0010
0000
0001
1000
0000
0001
1000
0000
0100
0000
0010
0001
,
1000
0001
0000
1000
0010
0000
1000
0010
1000
0001
0000
1000
0001
0000
0100
0010
,
0100
0001
0000
1000
0010
0000
0100
0001
0000
0100
0001
0000
1000
0010
1000
0010
,
1000
0001
0000
1000
0100
0000
1000
0001
0100
0001
0000
0100
0010
0000
1000
0001
,
1000
0100
0000
1000
0001
0000
1000
0100
0000
1000
0100
0000
1000
0000
0010
0100
,
0001
1000
0000
0001
0010
0000
0001
0010
0100
0010
0000
0001
1000
0000
0100
0010
,
0001
1000
0000
0100
0010
0001
1000
0001
0000
1000
0010
0100
0001
1000
0001
1000
,
0001
0010
0000
0100
1000
0000
0001
1000
0001
0100
0000
0001
0010
0000
0001
0010
,
0001
1000
0000
0100
1000
0000
0001
0010
0000
0001
0010
0000
0100
1000
0001
1000
,
0010
0100
0000
0001
1000
0000
0100
1000
0001
0010
0000
0001
1000
0000
0001
0100
,
0001
1000
0000
0100
1000
0000
0010
1000
0000
0010
1000
0000
0001
0100
0001
0100
,
0001
1000
0000
0100
1000
0000
0001
0100
0010
1000
0000
0001
0100
0000
0001
1000
,
0010
1000
0000
0001
0010
0000
0100
1000
0000
0100
1000
0000
0001
0010
0001
0010
,
0001
1000
0100
0010
0001
1000
0100
0010
0100
1000
0001
1000
0010
0100
0001
1000
,
0100
0010
0001
1000
0100
0010
0001
1000
0100
0010
0001
1000
0010
0100
0010
0100
,
0010
1000
0000
0000
0001
0000
0100
0001
1000
0001
0000
0000
1000
0000
0001
0100
,
0001
1000
0000
0000
0001
0000
1000
0100
1000
0000
0001
0000
0100
0000
0010
0000
,
1000
0001
0000
0000
1000
0000
0001
0010
0001
1000
0000
0000
0001
0000
1000
0100
,
1000
0001
0000
0000
0100
0000
0001
1000
0001
0000
0010
0000
0001
0010
0001
0010
,
0001
1000
0000
0000
0001
0000
1000
0001
1000
0010
0000
0000
1000
0000
0010
1000
,
0001
0100
0000
0000
0001
0000
0010
0001
0010
0000
0100
0000
1000
0000
0001
0000
,
0100
0010
0000
0000
0100
0000
0010
1000
0010
0100
0000
0000
0001
0000
1000
0100
,
1000
0001
0000
0000
1000
0000
0001
0100
0001
0000
1000
0000
0100
1000
0100
1000
,
0100
0010
0000
0000
0100
0000
1000
0000
0001
0100
0000
0000
0001
0000
1000
0000
,
0001
0100
0000
0000
0010
0000
1000
0001
1000
0000
0100
0000
0010
0000
0001
0000
,
1000
0100
0000
0000
1000
0000
0001
0000
0100
0001
0000
0000
1000
0000
0010
0000
,
1000
0001
0000
0000
1000
0000
0100
1000
0100
0000
1000
0000
0001
0100
0001
0100
,
0001
1000
0000
0000
0001
0000
1000
0000
0001
1000
0000
0000
0100
0000
0000
0000
,
0010
0001
0000
0000
1000
0000
0000
0001
0000
0000
0100
0000
0001
0000
0000
0000
,
1000
0100
0000
0000
1000
0000
0000
0000
0001
0010
0000
0000
0001
0000
0000
0000
,
1000
0100
0000
0000
0010
0100
0010
0100
0000
0000
1000
0000
0001
1000
0001
1000
,
0000
0000
0000
0000
,
0000
0000
0000
0000
,
00M0
0000
0000
0000
;
