#TITLE:Desire (Audiophetamine Edit);
#SUBTITLE:;
#ARTIST:Audiofreq;
#TITLETRANSLIT:;
#SUBTITLETRANSLIT:;
#ARTISTTRANSLIT:;
#GENRE:;
#CREDIT:z-axis;
#MUSIC:Desire (Audiophetamine Edit).ogg;
#BANNER:bn.png;
#BACKGROUND:bg.jpg;
#CDTITLE:;
#SAMPLESTART:101.701;
#SAMPLELENGTH:22.588;
#SELECTABLE:YES;
#OFFSET:-0.054;
#BPMS:0.000=170.000;
#STOPS:;
#DISPLAYBPM:170.000;
#BGCHANGES:;
#FGCHANGES:;

//--------------- dance-single - ----------------
#NOTES:
     dance-single:
     :
     Challenge:
     17:
     0,0,0,0,0:
0000
0000
0000
0000
,
0000
0000
0000
0000
,
0000
0000
0000
0000
,
0000
0000
0000
0000
,
0000
0000
0000
0000
,
0000
0000
0000
0000
,
0000
0000
0000
0000
,
0000
0000
0000
0000
,
0001
0001
0010
0010
,
0100
1000
0100
0010
0000
0010
0001
1000
,
0001
0000
0100
0010
0000
0010
1000
0000
0100
0000
0010
0000
0001
0000
0010
0000
,
0001
0000
1000
0100
0000
1000
0010
0000
0100
0000
0010
0000
1000
0000
0001
0000
,
0010
0000
0000
0100
1000
0000
1000
0000
0001
0000
0100
0000
0010
0000
1000
0000
,
0010
0000
1000
0100
1000
0000
0001
0000
0000
0000
0001
0000
1000
0000
1000
0000
,
0010
0000
0100
0001
0000
0001
0010
0000
0100
0000
1000
0000
0001
0000
1000
0000
,
0100
0000
0010
0001
0000
1000
0100
0000
0010
0000
0001
0000
1000
0001
1000
0000
,
0001
0000
0000
0001
1000
0000
0010
0000
0100
0000
0001
0000
1000
0000
0010
0000
,
0100
0000
0001
0100
0001
0000
1000
0000
0001
0000
0010
0000
0001
0010
0001
0000
,
0100
0000
0010
1000
0000
0010
0100
0000
0001
0000
1000
0000
0001
0000
0010
0000
,
0100
0000
1000
0100
0000
0100
0010
0000
0010
0001
0100
0000
0020
0030
0000
0000
,
1000
0001
0100
0000
0010
1000
0001
0000
0010
0100
1000
0000
0001
0100
0010
0000
,
1000
0000
0000
0010
0000
0000
0100
0000
0000
0000
0000
0000
0001
0000
0000
0010
0000
0000
0100
0000
0000
0000
0000
0000
1000
0000
0000
0010
0000
0000
0100
0000
0000
0000
0000
0000
0001
0000
1000
0000
0001
0000
1000
0000
0000
0000
0000
0000
,
0001
0010
0100
1000
0100
0010
0001
0010
0100
0010
0001
1000
0001
0100
0001
1000
,
0100
0010
0100
0010
0100
0010
0100
0010
0400
0000
0000
0000
0000
0000
0000
0300
,
0010
0000
0001
0000
0011
0000
0010
0000
1100
0000
0000
0100
1000
0000
0010
0000
,
0100
0100
0100
0001
1000
0000
1100
1001
,
1000
0000
0010
0000
1010
0000
1000
0000
1010
0000
0000
0010
0100
0010
1000
0000
,
1001
0001
1001
1000
0100
0002
0203
0310
,
0001
0000
0001
0000
0101
0000
0100
0000
0101
0000
0000
0100
0010
0000
1000
0000
,
1100
0000
0100
0000
1100
0000
0000
0000
0110
0000
0000
0010
0001
1000
0001
0000
,
0120
0000
0030
0000
0012
0000
0003
0000
2100
0000
0000
3001
0000
0000
0001
0000
,
0010
0100
0000
0100
1000
0000
0001
0100
0000
0100
0010
0100
0001
0000
1000
0000
,
1001
0000
0001
1000
0100
0000
0100
0000
0110
0000
0000
0010
0001
0000
0010
0000
,
0110
0000
0000
0100
0000
0000
1100
0000
0000
1000
0000
0000
0001
0000
0000
0100
0000
0000
0010
1000
0010
1000
0000
0000
,
0110
0000
0110
0000
0101
0000
0100
0000
1001
0000
0000
0001
0010
0000
0100
1000
,
0010
0000
0000
0000
0000
0000
0100
0000
0000
0000
0000
0000
0100
0000
0000
0001
0000
0000
1000
0000
0000
0000
0000
0000
0001
0000
0000
0000
0000
0000
0000
0000
0000
0020
0000
0000
0031
0000
1000
0000
0001
0000
1000
0000
0000
0000
0000
0000
,
0020
0000
0000
0000
0000
0000
0030
0000
0010
0100
0010
1000
0010
0100
0001
1000
,
0001
0100
0010
1000
0010
0100
0010
1000
0001
1000
0100
1000
0001
0000
0001
0000
,
1000
0100
1000
0100
0000
0100
0010
0000
0001
0000
0001
0000
0001
0000
1000
0001
,
1000
0000
0100
0010
0000
0001
0100
0000
0010
0000
1000
0100
1000
0000
0001
0000
,
1001
0001
0010
0010
,
0100
0010
0001
0010
0000
0010
0000
0100
,
0000
1000
0000
0001
0000
0100
0000
0010
,
0000
1000
0000
0001
0000
0001
0000
0001
,
1000
1000
0001
0010
,
0100
1000
0010
1000
0000
0100
0000
1000
,
0000
0010
0000
0100
0001
0010
0000
0100
,
0000
1000
0000
0010
0100
0001
0010
0001
,
1001
0001
1000
1000
,
0001
0100
0001
0010
0000
0010
0000
0200
,
2300
0001
0000
3002
0100
0103
0000
0010
,
2000
0010
0000
3020
0130
0010
1000
0001
,
1000
1000
0001
0010
,
0010
0001
0100
0010
0000
0010
1000
0100
,
2000
0010
0000
0000
0010
0001
0000
0000
,
0000
0000
0001
0000
3000
0000
1000
0000
0010
0000
0010
0200
0000
0000
0310
0000
,
1010
1010
1001
1001
,
0010
0011
0001
0000
0001
1001
1000
0001
,
1000
1010
0010
0000
1010
1001
0001
1000
,
0001
0011
0010
0000
0110
1100
1000
0100
,
1010
1010
1001
1001
,
0001
0011
0010
0000
0110
1100
1000
0010
,
0100
0000
0001
0100
0001
0100
0001
0000
0101
0000
1001
0000
1000
0100
0010
0000
,
0001
0000
0000
0000
0000
0000
200M
0000
0000
0000
0000
0000
3000
0000
0000
0000
0000
0000
0100
0000
0000
1000
0000
0000
001M
0000
0000
0000
0000
0000
0100
0000
0000
2000
000M
0000
0000
0000
0000
3000
0000
0000
020M
0000
0000
0000
0000
0000
,
0301
0000
0010
0001
0010
0000
0100
0000
0010
0000
0001
0000
0010
0000
0100
0000
,
1000
0000
0010
1000
0010
0000
0100
0000
0010
0000
1000
0000
0010
1000
0001
0000
,
1000
0000
0100
1000
0100
0000
1000
0000
0100
0000
0010
0000
0100
0000
1000
0000
,
0001
0000
0100
0001
0100
0000
0010
0000
0100
0000
0001
0010
0200
0000
2300
0000
,
3001
1000
0001
1000
0001
0100
0001
0100
0001
0010
0001
1000
0001
1000
0100
1000
,
0100
1000
0010
1000
0010
0100
0001
0100
0001
1000
0100
1000
0200
0000
0000
0000
,
1300
0000
0001
0000
1000
0000
0001
0000
0000
1000
0000
0000
0001
0000
1000
0000
0001
0000
1000
0000
0000
0001
0000
0000
1000
0000
0001
0000
1000
0000
0001
0000
0000
1000
0000
0000
0001
0000
1000
0000
0001
0000
1000
0000
0000
0001
0000
0000
,
0000
0000
0000
0000
0000
0000
0001
0000
1000
0100
0040
0000
0004
0000
0033
0000
,
0001
0010
0001
0000
1000
0100
1000
0010
0100
0000
0010
1000
0001
0000
1000
0100
,
0010
0000
0001
0000
0010
0000
0100
0000
0100
0000
0100
0010
0001
0000
0010
0001
,
1000
0000
0010
0000
0100
0000
0010
0000
1000
0000
1000
0000
1000
0000
0001
0100
,
0010
0000
0100
0000
0100
0000
0001
0100
0010
0000
1010
0000
1001
0000
0101
0000
,
0100
0010
0100
0000
0010
1000
0010
0100
0001
0000
0010
0100
1000
0000
0100
0010
,
0001
0000
1000
0010
0100
0000
0001
0000
1000
0000
0100
0000
0100
0000
0100
0010
,
0001
0000
1000
0010
0100
0000
0001
1000
0100
0000
0010
0000
0010
0000
0001
0000
,
0012
0000
0000
0000
0000
0000
20M3
0000
0000
0000
0000
0000
3002
0000
0000
0000
0000
0000
M203
0000
0000
0000
0000
0000
032M
0000
0000
0030
0000
0000
002M
0000
0000
0030
0000
0000
1000
0000
0000
0000
0000
0000
0001
0000
1000
0000
0001
0000
,
1000
0010
1000
0000
0001
0010
0100
0010
0001
0000
1000
0100
0010
0000
0001
0100
,
0010
0000
1000
0000
0010
0000
0100
0000
0100
0000
0100
0010
1000
0000
1010
0000
,
0110
0000
0010
0000
0100
0000
0010
0000
1000
0000
1000
0000
1000
0000
0100
0010
,
0001
0000
0100
0000
0001
0000
0001
0100
0010
1000
0000
1000
0001
0100
0010
0100
,
0001
1000
0100
0000
0010
0001
0010
0100
1000
0000
0010
1000
0001
0000
0100
0001
,
1000
0000
0001
0000
0010
0000
0100
0000
1000
0000
0100
0000
0100
0000
0100
0010
,
0001
0000
1000
0010
0100
0000
0001
1000
0100
0010
0001
0010
0100
0010
0001
1000
,
0100
1000
0100
1000
0100
1000
0100
0000
4000
3000
0400
0300
0040
0030
0004
0003
,
1001
0000
0000
1000
0100
0000
0010
0001
0100
0000
0010
1000
0100
0000
1000
0100
,
0010
0001
0010
0100
1000
0000
0100
1000
0010
0000
0100
0010
1000
0100
0010
0100
,
1000
0000
0001
0100
0010
0000
0010
1000
0001
0000
1000
0100
0010
0000
0100
0010
,
0001
0000
1000
0001
0100
0000
0010
0100
0001
0000
0011
0000
1001
0000
1100
0000
,
0110
0000
0010
0001
1000
0000
1000
0010
0100
0000
0001
0010
0100
1000
0010
1000
,
0100
0000
0010
0001
1000
0000
0010
0100
0001
0000
0001
0000
0001
0000
0100
0001
,
0010
0000
0001
0010
0100
0000
1000
0001
0100
0000
0010
0000
0010
0000
0010
0000
,
1000
0001
0000
0001
0100
0000
0110
0000
0001
0000
0010
0100
0020
0000
0130
0000
,
1001
0000
1000
0010
0100
0000
0100
0001
0010
0000
0001
1000
0100
0000
0010
0001
,
1000
0010
0100
0001
0100
0010
1000
0000
1000
0000
0010
0000
0010
0000
1010
0000
,
1001
0000
0001
0010
0100
0000
1000
0010
0100
0000
0001
0000
0001
0000
0001
1000
,
0100
0000
0100
0010
0001
0000
1000
0100
0010
0000
0110
0000
0011
0000
1001
0000
,
0002
0000
0000
0000
0000
0000
0000
0000
1003
0010
1000
0001
1000
0100
1000
0001
,
0010
0001
1000
0001
1000
0100
1000
0001
0100
0001
1000
0001
0010
0001
0100
0000
,
0010
0000
1000
0100
0000
0010
0001
0000
0100
0000
0100
0000
0100
0000
0100
0000
,
0002
0000
0013
0100
2000
0000
3020
0000
0130
0000
0200
0000
0320
0000
1030
0000
,
1001
0000
0000
0000
;
