#TITLE:Daydreamer;
#SUBTITLE:;
#ARTIST:meganeko;
#TITLETRANSLIT:;
#SUBTITLETRANSLIT:;
#ARTISTTRANSLIT:;
#GENRE:;
#CREDIT:z-axis;
#MUSIC:Daydreamer.ogg;
#BANNER:bn.png;
#BACKGROUND:bg.png;
#CDTITLE:;
#SAMPLESTART:118.015;
#SAMPLELENGTH:28.000;
#SELECTABLE:YES;
#OFFSET:-0.237;
#BPMS:0.000=135.000;
#STOPS:;
#BGCHANGES:;
#FGCHANGES:;

//--------------- dance-single - ----------------
#NOTES:
     dance-single:
     :
     Challenge:
     17:
     0,0,0,0,0:
0000
0000
0000
0000
,
0000
0000
0000
0000
,
0000
0000
0000
0000
,
0000
0000
0000
0000
,
0000
0000
0000
0000
,
0000
0000
0000
0000
,
0000
0000
0000
0000
,
0000
0000
0000
0000
,
0000
0000
0000
0000
,
1000
0100
1000
0001
0000
0001
0010
0100
0020
0000
0000
0000
0230
0000
0000
0000
,
1300
0000
0001
0000
0100
0001
0000
0010
0000
0001
0000
0100
0001
0000
0010
0000
,
1001
0000
0100
0000
1000
0010
0000
1000
0000
0100
0000
1000
0001
0000
0100
0000
,
1001
0000
0010
0000
0001
0010
0000
0100
0000
1000
0000
0010
0100
0000
0010
0000
,
1001
0000
0000
1000
0000
0000
0001
0100
0010
1000
0000
0000
0001
0000
0000
0010
0000
0000
0100
0000
0000
1000
0000
0000
,
0020
0000
0000
0230
0000
0000
0301
0000
1001
0000
0001
0000
0100
0000
0010
0000
,
1000
0000
0000
0000
0010
1000
0010
0000
1000
0000
0000
0000
0200
0000
0000
0000
0000
0000
0000
0000
0310
0000
0000
0000
0001
0000
0000
0000
1000
0000
0000
0000
,
0010
0000
0100
0001
0000
0100
0001
0000
1000
0000
0001
0000
0110
0000
0001
0000
,
1002
0000
0000
0000
1003
0000
0000
0100
0000
0010
0001
1000
0100
1000
0010
0200
,
0000
0300
0000
0000
1001
0000
0001
0000
0010
0000
0001
1000
0000
0001
1000
0100
,
0010
0100
0000
0010
0100
0000
0010
0000
0001
0000
0001
0010
0000
0001
0010
0100
,
0010
0001
1000
0000
0100
0010
0001
0010
0000
0100
0000
1000
0000
0001
0000
0010
,
0100
0001
0100
1000
0200
0000
1300
0000
0010
0100
0001
0010
0000
1100
0000
1001
,
0000
1000
0000
0100
1000
0000
0001
0000
0010
0000
0001
0010
0000
0001
0010
0001
,
1000
0010
0000
0010
1000
0000
0001
0000
1000
0000
0100
1000
0000
1000
0100
0010
,
0001
0100
0001
0000
1000
0100
0010
0001
0000
0001
0000
0010
0000
0100
0000
1000
,
0010
0100
1000
0100
0020
0000
1030
0001
0010
0100
0010
0001
0000
1001
0000
1100
,
0000
0100
0010
0001
0100
0000
0010
0000
1000
0000
0100
1000
0000
0100
1000
0100
,
0010
0001
1000
0000
0100
0000
0010
0000
0001
0000
0001
0010
0000
0010
0001
0100
,
0010
1000
0010
0000
1000
0010
0100
0001
0000
0010
0000
0100
0000
1000
0000
0001
,
0010
0000
0000
0000
0000
0000
0001
0000
0000
1000
0000
0000
0100
0000
0000
0000
0000
0000
0010
0000
0000
0000
0000
0000
0010
0000
0001
0000
0010
0000
0001
0000
0010
0000
0001
0000
1000
0000
0001
0000
1000
0000
0002
0000
0000
0000
0000
0000
,
1003
0000
0000
0000
1001
0000
1000
0000
0010
0000
0100
0010
0000
1000
0010
1000
,
0100
1000
0000
0001
0010
0000
0001
0000
1000
0000
0100
0010
0000
0001
0010
0000
,
0001
0010
0100
1000
0001
0010
0100
0010
0001
1000
0100
0010
0001
1000
0100
1000
,
0010
0100
0001
0100
0010
1000
0001
1000
0010
0100
0001
1000
0100
0010
0000
0010
,
0001
0000
0100
0000
0001
1000
0000
1100
0000
0110
0000
0010
0001
0000
1000
0000
,
1001
0000
0001
0000
1000
0010
0000
0110
0000
1010
0000
1000
0001
0000
0100
0000
,
1001
0000
1000
0000
0001
0010
0000
0011
0000
1001
0000
0010
1000
0000
0100
0000
,
1001
0000
0000
0001
0000
0000
1000
0100
0010
0001
0000
0000
1000
0000
0000
0010
0000
0000
0100
0000
0000
0001
0000
0000
,
0020
0000
0000
0230
0000
0000
1300
0000
1001
0000
0001
0000
0100
0000
0010
0000
,
1000
0000
0000
0000
0001
0100
0001
0000
0100
0000
0000
0000
0020
0000
0000
0000
0000
0000
0000
0000
1030
0000
0000
0000
0001
0000
0000
0000
1000
0000
0000
0000
,
0100
0000
0010
0001
0000
0010
0001
0000
1000
0000
0001
0000
0110
0000
1000
0000
,
2001
0000
0000
0000
0000
0000
0000
0000
3010
0000
0000
0000
0000
0000
1000
0010
1000
0000
0010
0000
0100
0000
0000
0000
0001
0000
1000
0000
0000
0000
0001
0000
,
1001
0000
1000
0000
0100
0010
0000
1100
0000
1001
0000
1000
0001
0000
0010
0000
,
0110
0000
1000
0000
0100
1000
0000
1100
0000
1010
0000
1000
0010
0000
0100
0000
,
1001
0000
0001
0000
0100
0010
0000
0110
0000
0101
0000
0001
0010
0000
0001
0000
,
1000
0000
0000
0100
0000
0000
0010
0001
1000
0100
0000
0000
0010
0000
0000
0001
0000
0000
0100
0000
0000
0010
0000
0000
,
2000
0000
0000
3020
0000
0000
0230
0000
0000
0000
0301
0000
1001
0000
1000
0000
,
0001
0000
0000
0000
0010
0001
0010
0000
0100
0000
0000
0000
2000
0000
0000
0000
0000
0000
0000
0000
3001
0000
0000
0000
0100
0000
0000
0000
0010
0000
0000
0000
,
1000
0000
0001
0100
0000
1000
0100
0000
0001
0000
0010
0000
0011
0000
0100
0000
,
2100
0000
0000
0000
3002
0000
0000
0103
0000
0010
1000
0100
0010
1000
0010
0001
,
2000
0000
0000
0000
3010
0000
1010
0000
1000
0010
0000
1000
1010
0000
0100
0000
,
2001
0000
0000
0000
3001
0000
0011
0000
0001
0010
0000
0001
0011
0000
0011
0000
,
0010
0000
0100
0000
1000
0010
0000
0100
0001
0000
0001
0000
0010
0100
0000
1000
,
0100
0000
0000
0000
0000
0000
0100
0000
0000
0000
0000
0000
1000
0000
0000
0010
0000
0000
0000
0000
0000
0100
0000
0000
0000
0000
0000
0001
0000
0000
0000
0000
0000
0000
0000
0000
1000
0000
0100
0000
0010
0000
0001
0000
0010
0000
0100
0000
,
1000
0000
0000
0000
0001
0000
0101
0000
0001
0100
0000
0001
0101
0000
0010
0000
,
1002
0000
0000
0000
1003
0000
1100
0000
1000
0100
0000
1000
1100
0000
0110
0000
,
0100
0000
0010
0000
0001
0100
0000
0010
1000
0000
1000
0000
0100
0010
0000
0001
,
0010
0000
0010
0000
0001
0100
0000
0010
0000
1000
0000
0000
2002
0000
0000
0000
,
0000
0000
3003
0000
0010
0000
0110
0000
0100
0110
0000
0010
0110
0000
0100
0000
,
2001
0000
0000
0000
3001
0000
1001
0000
1000
1001
0000
0001
1001
0000
1100
0000
,
1000
0000
0010
0000
0100
0001
0000
0001
0010
0000
0010
0000
0001
0100
0000
0001
,
0100
0000
0000
0000
0000
0000
0100
0000
0000
0000
0000
0000
0010
0000
0000
0100
0000
0000
0000
0000
0000
0001
0000
0000
0000
0000
0000
0010
0000
0000
0000
0000
0000
0000
0000
0000
0100
0000
1000
0000
0100
0000
0010
0000
0100
0000
0010
0000
,
0001
0000
1000
0000
0010
1000
0000
0100
0010
0000
0001
0000
0010
0001
0000
0100
,
0010
0000
1000
0000
0010
1000
0000
0001
1000
0000
0001
0000
1000
0001
0000
0002
,
2000
0000
0000
0000
,
0000
0000
0000
0000
0000
0000
0000
0000
0000
0000
0000
0000
0000
0000
0000
3003
,
0001
0010
0100
1000
0001
0000
1000
0000
0100
0000
1000
0001
0000
1000
0001
1000
,
0100
0010
0000
0100
0010
0000
0001
0000
1000
0000
1000
0100
0000
1000
0100
0010
,
0100
1000
0001
0000
0010
0100
1000
0100
0000
0010
0000
0001
0000
1000
0000
0100
,
0010
1000
0010
0001
0020
0000
0031
1000
0100
0010
0100
1000
0000
1100
0000
1001
,
0000
0001
0000
0010
0001
0000
1000
0000
0100
0000
1000
0100
0000
1000
0100
1000
,
0001
0100
0000
0100
0001
0000
1000
0000
0001
0000
0100
0001
0000
0010
0001
0000
,
0010
0100
0010
0000
0001
0010
0100
1000
0000
1000
0000
0100
0000
0010
0000
0001
,
0100
0010
0001
0010
0200
0000
0301
1000
0100
0010
0100
1000
0000
1001
0000
0011
,
0000
0000
0100
1000
0010
0000
0100
0000
0001
0000
0010
0001
0000
0001
0010
0001
,
1000
0100
0010
0000
0010
0000
0001
0000
0100
0000
0010
1000
0000
0010
1000
0010
,
0100
0001
0100
0000
0001
0100
0010
1000
0000
0100
0000
0010
0000
0001
0000
0001
,
0100
0000
0000
0000
0000
0000
0001
0000
0000
0010
0000
0000
0100
0000
0000
0000
0000
0000
1000
0000
0000
0000
0000
0000
0100
0000
1000
0000
0100
0000
1000
0000
0100
0000
1000
0000
0001
0000
1000
0000
0001
0000
2000
0000
0000
0000
0000
0000
,
3001
0000
0000
0000
1001
0000
0001
0000
0100
0000
0001
1000
0100
0000
1000
0001
,
1000
0100
1000
0010
0100
0000
0001
0000
0010
0000
0100
1000
0000
1000
0100
0000
,
1000
0100
0010
0001
1000
0100
0010
0100
1000
0001
0010
0100
1000
0001
0010
0001
,
0100
0010
1000
0010
0100
0001
1000
0001
0100
0010
1000
0001
0010
0100
0000
0100
,
1000
0000
0001
0000
0100
0010
0000
0100
0000
0001
0000
1000
0000
0000
0001
0000
,
0000
0000
0000
0000
0100
0000
0000
0000
0001
1000
0001
0000
0000
0000
0010
0000
0000
0000
0100
0000
0000
0000
1000
0000
0000
0000
0000
0000
0100
0000
0000
0000
,
0000
0000
0010
0000
0001
0010
0000
0001
0000
1000
0000
1000
0000
0000
0010
0000
,
0100
0000
0000
0001
0000
0000
0010
0100
1000
0001
0000
0000
0010
0000
0000
0100
0000
0000
1000
0000
0000
0001
0000
0000
,
0200
0000
0000
0320
0000
0000
2030
0000
0000
0000
0000
0000
3000
0000
0001
0000
,
1000
0000
0100
0010
0100
0000
1000
0000
0000
0000
0000
0000
0020
0000
0000
0000
0000
0000
0030
0000
0010
0000
0000
0000
0100
0000
0000
0000
0001
0000
0000
0000
,
1000
0100
0010
0001
0010
0100
1000
0100
0010
0001
0010
0100
1000
0100
0010
0001
0010
0100
1000
0100
0010
0001
0010
0100
,
1000
0001
0100
0010
1000
0100
1000
0010
0100
0001
0010
0100
1000
0010
1000
0100
,
1000
0000
0000
0001
0000
0000
1000
0000
0000
0010
0000
0000
0000
0000
0000
0100
0000
0000
0001
0000
0000
0010
0000
0000
0001
0000
0100
0000
0010
0000
1000
0000
0010
0000
1000
0000
0001
0000
0100
0000
0001
0000
0100
0000
0010
0000
1000
0000
,
0001
0000
1000
0000
0010
1000
0000
1010
0000
0110
0000
0100
0001
0000
1000
0000
,
1001
0000
0001
0000
1000
0010
0000
1010
0000
1001
0000
1000
0001
0000
1000
0000
,
1100
0000
0100
0000
0010
0001
0000
0101
0000
0011
0000
0010
0100
0000
0100
0000
,
1001
0000
0000
0000
0000
0000
0001
0000
0000
0000
0000
0000
1000
0000
0100
0000
0010
0000
0001
0000
0000
0000
0000
0000
1000
0000
0000
0010
0000
0000
0000
0000
0000
0010
0000
0000
0000
0000
0000
0010
0000
0000
0000
0000
0000
0100
0000
0000
,
0020
0000
0000
0230
0000
0000
0301
0000
1001
0000
1000
0000
0010
0000
1000
0000
,
0100
0000
0000
0000
1000
0100
1000
0000
0010
0000
0000
0000
0020
0000
0000
0000
0000
0000
0000
0000
1030
0000
0000
0000
1000
0000
0000
0000
0010
0000
0000
0000
,
0100
0000
0001
0100
0000
1000
0100
0000
0001
0000
1000
0000
1100
0000
0100
0000
,
0012
0000
0000
0000
0000
0000
0000
0000
0000
0000
0000
0000
0013
0000
0000
0000
0000
0000
0000
0000
0000
0001
0000
0000
0000
0000
1000
0000
0010
0000
1000
0000
0001
0000
1000
0000
0100
0000
1000
0000
0100
0000
0010
0000
0001
0000
1000
0000
,
0000
0000
1000
0000
0010
0100
0000
0101
0000
1001
0000
0001
1000
0000
0010
0000
,
0110
0000
0000
0000
0001
0000
0000
0000
0100
0000
0001
0000
0000
0000
0101
0000
0000
0000
0011
0000
0000
0000
0001
0000
0010
0000
0100
0010
0100
0000
0000
0000
,
1100
0000
1000
0000
0100
0010
0000
0110
0000
1100
0000
1000
0010
0000
1000
0000
,
0001
0000
0000
0000
0000
0000
0100
0000
0000
0000
0000
0000
0010
0000
1000
0000
0001
0000
0100
0000
0000
0000
0000
0000
0010
0000
0000
1000
0000
0000
0000
0000
0000
1000
0000
0000
0000
0000
0000
1000
0000
0000
0000
0000
0000
1000
0000
0000
,
0002
0000
0000
0023
0000
0000
0230
0000
0000
0000
1300
0000
1001
0000
0001
0000
,
1000
0000
0010
1000
0010
0000
0100
0000
0000
0000
0000
0000
0002
0000
0000
0000
0000
0000
0000
0000
1003
0000
0000
0000
0010
0000
0000
0000
0100
0000
0000
0000
,
0002
0000
1000
2003
0000
0001
3002
0000
0000
0000
1003
0000
0100
0000
0010
0000
,
0002
0000
0000
0000
0000
0000
1003
0000
0000
0001
0010
0100
1000
0001
0010
0100
1000
0001
0010
0100
1000
0001
0010
0100
,
1000
0000
0000
0000
1010
0000
0000
0010
0000
0100
0000
0010
1000
0000
0100
0000
,
0010
0000
0000
0000
0011
0000
0000
0001
0000
0010
0000
0001
1000
0000
0100
0000
,
1010
0000
0000
0000
1010
0000
0000
0010
0000
1000
0000
0010
0100
0000
0010
0000
,
1010
0000
0000
1001
0000
0000
0011
0000
1001
0000
0000
1100
0000
0000
0110
0000
,
1002
0000
0000
2003
0000
0000
3200
0000
0000
0000
0000
0000
0010
0000
0000
0300
,
0010
0000
0001
1000
0001
0000
0010
0000
0000
0000
0000
0000
0200
0000
0000
0000
0000
0000
0000
0000
0310
0000
0000
0000
0001
0000
0000
0000
1000
0000
0000
0000
,
1100
0000
0000
0110
0000
0000
1001
0000
0000
0000
0001
0000
0010
0000
0100
0000
,
1100
0000
0000
0000
0101
0000
0000
0010
0000
0010
1000
0100
0010
0001
0010
0100
,
1000
0000
0001
0000
0010
0001
0000
0001
0010
0001
0000
0001
0000
1000
0010
1000
,
0100
0000
1000
0000
0010
1000
0000
1000
0010
1000
0000
1000
0000
0001
0010
0001
,
0100
0000
0010
0000
1000
0010
0000
0000
0010
1000
0000
0001
0000
0100
0010
1000
,
0100
0000
0010
0000
0100
1000
0000
0000
1000
0010
0000
0100
0000
0001
0010
0100
,
1000
0000
1100
0000
1001
0000
0001
0000
1000
0000
0101
0000
1000
0100
1100
0000
,
1001
0000
0001
0000
0101
0000
0100
0001
0100
0001
0010
0000
0100
1000
0100
0000
,
0010
0000
0001
0000
0011
0000
0100
0000
1100
0000
1001
0000
0001
0010
0001
0010
,
0001
1000
0100
0010
0001
0010
0100
1000
0010
0100
0010
1000
0100
0010
0001
0010
0100
1000
0001
0000
0000
1000
0000
0000
,
2001
0000
0000
0000
0000
0000
3000
0000
0001
0000
0001
0000
0000
0000
1000
0000
1000
0000
0010
0000
0000
0100
0000
0000
,
0201
0000
0000
0000
0000
0000
0300
0000
0001
0000
0001
0000
0000
0000
1000
0000
1000
0000
1001
0000
0000
0001
0000
0000
,
0010
0000
0001
0000
0100
0001
0000
0010
0000
0000
0100
0000
0010
0001
0000
0100
,
0000
0000
0010
0000
0100
0010
0000
0100
0000
0001
0000
0000
0020
0000
0000
0000
,
0031
0000
0000
0000
0000
0000
1000
0000
0001
0000
0001
0000
0010
0000
0100
0000
0100
0000
1000
0000
0000
0010
0000
0000
,
1010
0000
0000
0010
1000
1000
0010
0100
0100
0002
0000
0003
,
0100
0000
0001
0000
0100
0001
0000
0010
0000
0000
0100
0000
0010
0001
0000
0100
,
0000
0000
0010
0000
0100
0010
0000
0100
0000
0001
0000
0000
0020
0000
0000
0000
,
0000
0000
0000
0000
0000
0000
0031
0000
0001
0000
0001
0000
0100
0000
1000
0000
1000
0000
0100
0000
0000
0001
0000
0000
,
0011
0000
0000
0000
0000
0000
0001
0000
1000
0100
1000
0000
0010
0000
0100
0000
0100
0000
1001
0000
0000
0000
0000
0000
,
0001
0000
1000
0000
0100
0001
0000
0100
0010
0000
0001
0000
1000
0010
0000
0001
,
0010
0000
1000
0000
0010
0100
0000
1000
0100
0000
0001
0000
1000
0001
0000
0100
,
0010
0000
1000
0000
1000
0100
0000
0001
0100
0000
0010
0000
0001
1000
0000
0010
,
0100
0000
0010
0000
1000
0010
0000
1000
0001
0000
0010
0000
0100
1000
0100
0010
,
0001
0100
0010
1000
0100
0010
0001
0100
0001
0010
0100
1000
0001
1000
0010
0100
,
0001
0010
0001
1000
0010
0100
0001
1000
0100
0010
0001
1000
0100
0000
0100
0010
,
0001
0000
0000
0000
1001
0001
1000
0000
0010
0000
0100
0010
1000
0000
1000
0100
,
0010
0001
0110
0100
1000
1000
0110
0020
,
0000
0031
1001
0001
0010
0001
1001
0001
,
0010
0000
0010
0000
0110
0000
0100
0000
1000
0000
0000
0010
1000
0000
0020
0000
,
0000
0000
0030
0000
0110
0010
0200
0000
0300
0000
0100
0001
0010
0000
0010
0100
,
1000
0001
0110
0100
1000
0010
0110
0001
,
1000
0100
0010
0001
0010
0100
0010
0001
1000
0100
1000
0001
1000
0100
0010
0100
,
0010
0000
0000
0001
0000
0000
1000
0000
0000
0001
0000
0000
0100
0000
0000
0010
0000
0000
1000
0000
0000
0010
0000
0000
0100
0000
0000
0001
0000
0000
0010
0000
0000
0100
0000
0000
1000
0000
0000
0000
1001
0000
0000
0000
1001
0000
0000
0000
,
0100
0000
0000
0010
0001
0010
0100
0000
0000
1000
0000
0000
0100
0010
0001
0010
0000
0000
0100
0000
0000
1000
0100
0010
,
0100
0000
0000
1000
0000
0000
0100
0010
0001
0010
0000
0000
0100
0000
1000
0000
0010
0000
0100
0000
0001
0000
0010
0000
,
0200
0000
0000
0320
0000
0000
0130
0000
2001
0000
0000
3002
0000
0000
0043
0000
,
0000
0000
0000
0000
0100
0000
0000
0032
,
0000
0000
2003
3200
1000
0320
0032
0203
,
0000
0310
1000
0001
1001
1000
0100
0010
,
0011
0000
0000
1001
0000
0000
1100
0000
1001
0000
0000
0110
0000
0000
0011
0000
,
2200
0000
0000
3300
0120
0000
0000
0030
,
2002
0000
0000
0000
,
0000
0000
0000
0000
,
0000
0000
0000
0000
,
0000
0000
0000
0000
,
0000
0000
0000
0000
,
0000
0000
0000
0000
,
3003
0000
0000
0000
;
