#TITLE:Coalesce Experiments;
#SUBTITLE:;
#ARTIST:A-zu-ra, DDRKirbyISQ;
#TITLETRANSLIT:;
#SUBTITLETRANSLIT:;
#ARTISTTRANSLIT:;
#GENRE:;
#CREDIT:z-axis;
#MUSIC:Coalesce Experiments.ogg;
#BANNER:;
#BACKGROUND:;
#CDTITLE:;
#SAMPLESTART:0.000;
#SAMPLELENGTH:0.000;
#SELECTABLE:YES;
#OFFSET:-0.288;
#BPMS:0.000=145.000
,492.000=120.250
;
#STOPS:;
#BGCHANGES:;
#FGCHANGES:;

//--------------- dance-single - ----------------
#NOTES:
     dance-single:
     :
     Hard:
     16:
     0,0,0,0,0:
0000
0000
0000
0000
,
0000
0000
0000
0000
,
0000
0000
0000
0000
,
0000
0000
0000
0000
,
0000
0000
0000
0000
,
0001
0010
0001
1000
0000
0000
0001
0000
0000
0000
1000
0000
0000
0000
0010
0000
,
0010
1000
0010
0100
0000
0000
0001
0000
0000
0000
1000
0000
0000
0100
1000
0000
,
0001
1000
0001
0010
0000
0000
0100
0000
0000
0000
0010
0000
0000
0000
0001
0000
,
0001
1000
0010
1000
0000
0000
0001
0000
0000
0000
1000
0000
1000
0001
0000
0000
,
0010
0001
0000
0100
0000
0010
0000
1000
,
0000
0100
0000
1000
0000
0001
0010
0001
,
1000
0010
0000
0100
0000
0001
0000
0010
,
0000
0000
0100
0000
0000
0000
0010
0000
0000
0000
0001
0010
0001
0000
0001
0000
,
0100
0010
0000
1000
0000
0001
0000
0010
,
0000
0100
0000
1000
0000
0100
0010
0001
,
0100
0010
0000
1000
0000
0100
0000
1000
,
0000
0000
0000
0001
0000
0000
0000
0000
0000
0010
0000
0000
0000
0000
0000
0100
0000
0000
1000
0000
0000
0001
1000
0001
,
1000
0001
0002
0100
,
0203
0000
0000
0000
0010
0000
0000
0000
0320
0000
0000
0000
1000
0000
0030
1000
,
0002
1000
1000
1000
,
0103
0000
0020
0000
2030
0000
3200
1000
,
2300
0001
3020
0100
,
0230
0001
0302
0100
,
2003
0000
0010
0000
0010
0000
3100
1000
,
0000
0001
0000
0010
0000
0100
1000
0001
,
0020
0100
0031
2000
0001
0000
0001
0000
,
3200
0000
0000
0000
1000
0000
0000
0000
0320
0000
0000
0000
0031
0000
0000
0001
,
0020
0100
0100
0100
,
0031
0002
0203
0320
,
2030
0100
3002
1000
,
0203
0010
0302
1000
,
0023
0000
0000
0000
0000
0130
1000
0010
,
2002
0000
0000
0000
0000
0000
0000
0000
0000
0000
3003
0000
1000
0001
1000
0001
,
0010
0000
0000
0000
0100
0000
1000
0000
0001
0000
0001
0000
0010
0100
0000
0000
,
2000
0000
0000
0000
3100
0000
1000
0000
0001
0010
0001
0010
0100
1000
0010
0100
,
0020
0000
0000
0000
1030
0100
0010
0001
1000
0100
0010
0001
1000
0100
0010
0001
,
0100
0000
0010
0000
1000
0010
0000
1000
0001
0010
0001
0000
1000
0010
0100
0001
,
1000
0000
0100
0000
0100
0010
0000
0000
0001
0000
0001
0000
1000
0000
0010
0000
,
1010
0000
1000
0000
0100
0000
0010
0000
0001
0100
0001
0100
0010
0000
0010
0000
,
1000
0000
0000
0000
0001
0000
1000
0000
0010
0000
0010
0000
1000
0000
0100
0010
,
0001
0000
0010
0100
1000
0001
1000
0001
0010
0000
0100
1000
0001
0100
0010
0000
,
1000
0000
0010
1000
0001
0001
0010
0100
,
1100
0000
1000
0001
0010
0000
0001
0100
0010
0100
0010
0100
0010
0000
0010
0000
,
1000
0000
0100
0010
0001
0001
0100
0001
,
0010
0000
0100
1000
0000
0001
0010
0000
0100
0000
1000
0000
0010
0100
0001
1000
,
0010
0000
1000
0010
1000
0001
0000
0001
0100
0000
0001
0100
0000
0001
1000
0010
,
0100
0000
0001
1000
0000
0001
0000
0100
0010
1000
0010
1000
0010
0000
0010
0000
,
0100
0000
0001
1000
0010
0000
1000
0000
0001
0000
0001
0000
0101
0000
1000
0010
,
0100
0000
0001
0010
0000
0100
1000
0010
2000
0000
0000
0000
3000
0000
0000
0000
,
1002
0000
0023
0000
,
0230
0000
0000
0000
0000
0000
0000
0000
2300
0000
0000
0000
3010
0100
0001
0010
,
0100
0000
0000
1000
0100
0000
1000
0100
0010
0000
0000
0001
0010
0000
0001
0100
,
0010
0000
0000
0010
0100
0001
1000
0100
0010
0000
0000
0100
0010
0000
0100
1000
,
0001
0000
0100
0010
1000
0000
0100
0000
1000
0000
1000
0000
0100
0000
0010
0000
,
0100
0010
0001
0100
0010
1000
0100
0010
0000
0010
0001
0000
0000
0010
0100
1000
,
0001
0000
0000
1000
0010
0000
0100
0000
0000
0010
0100
0001
0010
0100
1000
0001
,
0100
0010
1000
0100
1000
0001
1000
0010
0000
0010
0100
0001
0100
0010
1000
0100
,
0010
0000
0001
0010
0100
0000
0100
0000
0000
0000
1000
0001
0010
0000
0002
0000
,
0000
0000
0203
0000
0320
0000
2030
0000
3002
0000
0023
0000
0130
1000
0001
0010
,
0100
0000
0000
1000
0010
0000
1000
0010
0100
0000
0000
0001
0100
0000
0001
0010
,
0100
0000
0000
1000
0010
1000
0001
0010
0100
0000
0000
0010
0100
0000
0010
0001
,
1000
0000
0010
0100
0001
0000
0010
0000
0001
0000
0001
0000
0010
0000
0100
0000
,
0010
0100
1000
0010
0100
0001
0010
0100
0000
0100
1000
0000
0000
0100
0010
0001
,
1000
0000
0000
0001
1000
0000
0010
0000
0000
0100
0010
1000
0100
0010
0001
1000
,
0010
0100
0001
0010
0100
1000
0001
0100
0000
0100
0010
1000
0010
0100
0001
0010
,
0100
0000
1000
0100
0010
0000
0001
0000
0000
0000
0001
1000
0100
0000
4000
0000
,
3001
0000
0000
1000
0000
0000
0010
0000
,
0100
0110
0000
0000
0001
0000
0100
0000
,
1001
0001
0000
1000
0000
0000
0100
0000
,
1000
1100
0000
0000
0001
0000
1000
0001
,
0011
0010
0000
0001
0000
0000
0100
0000
,
0010
1010
0000
0000
1000
0000
0001
0000
,
0011
0010
0000
0001
0000
0000
0100
0000
,
0010
0000
0110
0000
0000
0000
0000
0000
0100
0000
0001
0000
1000
0100
1000
0000
,
2100
0000
0001
0000
3020
0100
0100
0000
,
2030
0000
0000
0000
0001
0000
0000
0000
3000
0000
0001
0000
0001
1000
0000
0000
,
0100
0000
1000
0100
0000
0100
0010
0000
,
0001
0000
0100
0000
0001
0000
0001
1000
0000
0000
0100
0000
1000
0000
1000
0010
,
0200
0000
0301
0020
0000
0130
2000
0000
,
0001
0000
0000
0000
0100
0000
0000
0000
0000
0000
0100
0000
3100
1000
0002
0000
,
0023
0000
0130
1000
0001
0000
0020
0000
0000
0000
0031
0000
0020
0000
0230
0000
,
1000
0300
0010
0001
0200
0000
0000
0000
,
0301
0000
1000
0001
0000
1000
0100
0010
0000
0100
1000
0001
0010
0100
0010
0001
,
1000
0001
0100
0000
0001
1000
0000
0001
0010
0000
0100
1000
0000
0001
0010
0001
,
0100
0000
0010
1000
0000
0010
0100
0001
0000
1000
0001
0100
0010
0100
0001
0100
,
0010
0000
0010
0000
0100
0010
0000
1000
0100
0000
1000
0001
0000
0010
0100
1000
,
0001
0000
1000
0100
0000
1000
0010
0100
0000
0010
1000
0001
0100
0001
0010
0100
,
0000
1000
0100
0000
0010
0001
0000
0001
0100
0000
0100
0010
0000
0010
0100
0001
,
1000
0000
0100
1000
0000
0100
0010
0001
0000
1000
0001
0100
0010
1000
0001
0010
,
0100
0000
0100
0000
0010
0100
0000
1000
0010
0000
1000
0001
0000
1000
0010
1000
,
0002
0000
0000
0000
0103
0000
0100
0010
2000
0000
0001
0000
3200
0000
0000
0000
,
0320
0000
0001
0000
0031
0000
1000
0010
0100
0000
0001
0010
0000
0000
0100
0000
,
2000
0000
0001
0000
3010
0100
0001
1000
,
0100
0010
0001
1000
0100
0010
0001
1000
0010
0100
0010
1000
0001
0000
0001
0010
,
0200
0000
0000
0000
1300
0000
0001
1000
0010
0000
0100
0000
0001
0000
0010
0000
,
0100
0000
0010
0001
0000
1000
0100
1000
0001
0010
0001
1000
0100
0010
0001
0000
,
0010
0100
0010
0100
1000
0100
1000
0100
0010
0001
0010
0001
0100
0001
0100
0001
,
1000
0010
0100
0001
0010
0100
1000
0100
0020
0000
0000
0000
0000
0000
0000
0000
,
0031
0000
0010
0100
1000
0100
0010
0000
0001
0100
0001
1000
0010
0100
0001
0000
,
1000
0000
0100
0010
0000
0100
1000
0001
0010
0100
0000
1000
0100
0010
0100
0010
,
0001
0000
0001
0100
0000
0100
0010
1000
0001
0010
0100
1000
0001
0100
0010
0000
,
1000
0010
1000
0001
0000
1000
0100
0000
0010
0001
0000
1000
0001
0000
1000
0001
,
1000
0000
0010
0100
0001
0000
0011
0000
0001
0010
0000
0001
0010
0000
0100
1000
,
0001
0000
1000
0010
0000
0100
0001
0000
0001
1000
0000
1000
0100
0010
0001
1000
,
0001
0000
1000
0100
0000
0100
0010
0000
0010
0001
0000
0001
0100
0001
0010
0100
,
1000
0100
0000
1000
0000
0001
0100
0000
0010
1000
0000
0001
4000
0000
3002
0000
,
1003
0000
0001
0010
0110
0000
1000
0000
,
1100
0000
0000
0110
0000
0000
0001
1000
0010
0000
0100
0000
0002
0000
0000
0000
,
0103
0001
0100
0010
0000
0010
1000
0000
1010
0000
0000
0000
0001
0000
0001
0000
,
0011
0000
0000
0110
0000
0000
0011
0000
2000
0000
0000
3002
0000
0000
2003
0000
,
3010
0100
0010
1000
0000
0001
0100
0010
1000
0010
0000
1000
0001
0000
1000
0000
,
1010
0000
0000
0110
0000
0000
1000
0001
0100
0000
0001
0000
2000
0000
0000
0000
,
3010
1000
0010
0100
0000
0000
0100
0010
1000
0001
0000
1000
0001
0100
0001
0100
,
0010
0000
0000
1010
0000
0000
1001
0000
1000
0000
0000
0000
0004
0000
0000
0000
,
0023
0000
0000
0000
0130
0000
1000
0000
1100
0000
1000
0100
1000
0000
0010
0000
,
1010
0000
0000
0110
0000
0000
2001
0000
0001
0000
0000
0000
3020
0000
0000
0000
,
0130
0001
0100
0010
0100
0001
1000
0010
0100
0010
1000
0100
1000
0010
0100
0001
,
0010
0000
0001
0000
1000
0100
0000
0100
0010
0000
0000
0000
0001
0010
0100
1000
,
0020
0000
0000
0000
0130
0000
0001
0000
0101
0000
0001
0100
0001
0000
0010
0000
,
0011
0000
0000
0110
0000
0000
1002
0000
1000
0000
0023
0000
0230
0000
2300
0000
,
3010
0000
1000
0100
0000
0010
0001
1000
0001
1000
0000
0001
1000
0000
0010
0100
,
0001
0000
0000
0101
0000
0000
1001
0000
1010
0000
0001
0000
1010
0000
0001
0000
,
2002
0000
0000
0000
,
3003
0000
0000
0000
0000
0000
0000
0000
0000
0000
0000
0000
0001
0010
0100
1000
,
0001
0000
0000
0100
0000
0100
0010
1000
0001
0000
0000
0010
0001
0000
0010
0001
,
0100
0000
0000
0100
0001
0010
0001
0010
0100
0000
0000
0010
0100
0000
1000
0001
,
1000
0000
0010
0100
0002
0000
2003
0000
3001
0000
0001
0000
0100
0000
0010
0000
,
1000
0100
0010
0001
0100
0010
1000
0100
0000
0010
0002
0000
0000
0103
0001
0010
,
0100
0000
0000
0100
2000
0000
3002
0000
0000
0013
0100
1000
0001
0010
0100
1000
,
0010
0100
0010
1000
0010
0100
0001
0100
0000
0001
0100
0001
1000
0001
0010
0100
,
1000
0000
0001
0010
0100
0000
0020
0000
0000
0000
0130
1000
0001
0000
0200
0000
,
0000
0000
0320
0000
0230
0000
0302
0000
2003
0000
3200
0000
0310
0001
0100
0010
,
1000
0000
0000
0010
0000
0010
0100
0001
1000
0000
0000
0100
1000
0000
0100
0010
,
0001
0000
0000
0001
1000
0100
1000
0100
0010
0000
0000
0100
0010
0000
0001
1000
,
0001
0000
0100
0010
2000
0000
3002
0000
1003
0000
1000
0000
0010
0000
0100
0000
,
0001
0010
0100
1000
0010
0100
0001
0010
0000
0010
0001
0000
0000
0010
0001
0100
,
0010
0000
0000
1000
0010
0000
0100
0000
0000
0100
0010
1000
0001
0100
0010
1000
,
0100
0010
0100
1000
0100
0010
0001
0010
0000
0001
0010
0001
1000
0001
0100
0010
,
1000
0000
0001
0010
0100
0000
0020
0000
0000
0000
0230
0000
2300
0000
3002
0000
,
0203
0000
0000
0000
0000
0000
0000
0000
0000
0000
0000
0000
0301
0100
0010
1000
,
0100
0000
0100
0010
0000
0010
0001
0100
0000
0010
0100
0001
1000
0010
0100
0001
,
0010
0000
0000
0001
0010
0001
0010
0100
1000
0100
0010
0001
0100
0010
1000
0100
,
0010
0000
0001
0000
0010
0000
0100
0000
0000
0000
1000
0000
0010
0000
0100
0000
0000
0000
0001
0000
0010
0000
0100
0000
1000
0000
0000
0010
0100
0000
0001
0000
,
0100
0000
0010
0000
1000
0000
0010
0000
0100
0000
0001
0000
0010
0000
0100
0000
0010
0000
0001
0000
0100
0000
0010
0000
1000
0001
0000
0000
1000
0000
0001
0000
,
0000
1000
0100
0010
0100
1000
0010
1000
0100
0010
0100
1000
0010
0100
0001
0010
,
0100
0010
0001
0100
0001
0010
0001
0100
0000
0010
1000
0100
1000
0001
0010
0100
,
1000
0000
0100
0010
0001
0000
0100
0001
0000
0100
0010
1000
0100
0010
0001
0010
,
0000
0001
1000
0010
1000
0100
1000
0010
0200
0000
0000
0000
0320
0000
0000
0000
,
2030
0000
0000
0000
0000
0000
0000
0000
0000
0000
0000
0000
0000
0000
3010
1000
,
0100
0000
0020
0000
0031
0100
0010
0100
0010
0000
0010
1000
0001
1000
0100
0010
,
0200
0000
2300
0000
3001
0010
0100
0000
1000
0010
1000
0001
0010
0001
0100
0010
,
0000
1000
1000
0010
0100
0001
0010
0100
0000
0100
1000
0010
0000
1000
0001
0100
,
0020
0000
0000
0000
1030
0100
0010
0100
0010
0001
0100
0010
1000
0100
0010
0100
,
1000
0010
1000
0001
1000
0010
0100
0001
1000
0001
0010
0100
1000
0010
1000
0010
,
0100
0000
0001
0100
0001
0000
0200
0000
0000
0000
0320
0000
1030
0000
2000
0000
,
0000
0000
3002
0000
0000
0000
0000
0000
0000
0000
0000
0000
1003
0010
0100
0001
,
0010
0000
0010
0100
0000
0100
1000
0010
0000
0010
1000
0001
0100
0010
1000
0100
,
1000
0000
0000
0100
1000
0100
0010
0001
0010
0100
1000
0010
0100
0001
0010
0100
,
1000
0000
0100
0000
0010
0000
0001
0000
0000
0000
0001
0000
0100
0000
0010
0000
0000
0000
1000
0000
0100
0000
0010
0000
0001
0000
0000
0100
0010
0000
1000
0000
,
0010
0000
0100
0000
0001
0000
0100
0000
0010
0000
1000
0000
0100
0000
0010
0000
0100
0000
1000
0000
0010
0000
0100
0000
0001
1000
0000
0000
0001
0000
1000
0000
,
0000
0001
0010
0100
0010
0001
0100
0001
0010
0100
0010
0001
0100
0010
1000
0100
,
0010
0100
1000
0010
1000
0100
1000
0010
0000
0100
0001
0010
0001
1000
0100
0010
,
0001
0000
0010
0100
1000
0000
0010
1000
0000
0010
0100
0001
0010
0100
1000
0100
,
0000
1000
0001
0100
0001
0010
0001
0100
0020
0000
0000
0000
0230
0000
0000
0000
,
0302
0000
0000
0000
0000
0000
0000
0000
0000
0000
0000
0000
0000
0000
0103
0001
,
0010
0000
0200
0000
1300
0010
0100
0010
0100
0000
0100
0001
1000
0001
0010
0100
,
0020
0000
0032
0000
1003
0100
0010
0000
0001
0100
0001
1000
0100
1000
0010
0100
,
0000
0001
0001
0100
0010
1000
0100
0010
0000
0010
0001
0100
0000
0001
1000
0010
,
0200
0000
0000
0000
0301
0010
0100
0010
0100
1000
0010
0100
0001
0010
0100
0010
,
0001
0100
0001
1000
0001
0100
0010
1000
0001
1000
0100
0010
0001
0100
0001
0100
,
0010
0000
1000
0010
1000
0000
0020
0000
0000
0000
0230
0000
0301
0000
0002
0000
,
0000
2003
0000
0000
0000
0000
3000
0000
,
2001
0000
3020
0000
,
0230
0000
0000
0000
0000
0000
0000
0000
0000
0000
0000
0000
0000
0000
0000
0000
0302
0000
0000
0000
0000
0000
0000
0000
0000
0000
0000
0000
0003
0000
1000
0001
,
2000
0000
0000
0000
,
3000
0020
0230
0302
,
2003
0000
3200
0000
,
0320
0000
0032
0000
,
0203
0000
0000
0000
0000
0000
0320
0230
,
0300
0000
0000
0000
0000
0000
0020
0000
0000
0000
0000
0000
0030
0000
0000
0000
0000
0000
2000
0000
0000
0000
0000
0000
3000
0000
0000
0000
0000
0000
0001
0000
0000
0000
0000
0000
0001
0200
0000
0000
0000
0000
0302
0000
0000
0000
0000
0000
,
2003
0000
3200
0320
0000
0000
0000
0000
,
0230
0000
0000
0000
0000
0000
0000
0000
0000
0000
0000
0000
0000
0000
0000
0000
2300
0000
0000
0000
0000
0000
0000
0000
0000
0000
0000
0000
3000
0000
0001
1000
,
0002
0000
0000
0000
,
0003
0020
0230
2300
,
3002
0000
0203
0000
,
0320
0000
0230
0000
,
0302
0000
0000
0000
0000
0000
0000
0000
0000
0000
0000
0023
0000
0000
0230
0000
,
0000
2300
0000
0000
0000
0000
0000
0000
0000
0000
0000
0000
0000
0000
0000
0000
,
0000
0000
3000
0000
;

//--------------- dance-single - ----------------
#NOTES:
     dance-single:
     :
     Challenge:
     18:
     0,0,0,0,0:
0000
0000
0000
0000
,
0000
0000
0000
0000
,
0000
0000
0000
0000
,
0000
0000
0000
0000
,
0000
0000
0000
0000
,
1000
0100
1000
0001
0000
0000
1000
0000
0000
0000
0001
0000
0000
0000
0100
0000
,
0100
0001
0100
0010
0000
0000
1000
0000
0000
0000
0001
0000
0000
0010
0001
0000
,
1000
0001
1000
0100
0000
0000
0010
0000
0000
0000
0100
0000
0000
0000
1000
0000
,
1000
0001
0100
0001
0000
0000
1000
0000
0000
0000
0001
0000
0001
1000
0000
0000
,
0100
1000
0000
0010
0000
0100
0000
0001
,
0000
0010
0000
0001
0000
1000
0100
1000
,
0001
0100
0000
0010
0000
1000
0000
0100
,
0000
0000
0000
0000
0010
0000
0000
0000
0000
0000
0000
0000
0100
0000
0000
0000
0000
0000
0000
0000
1000
0100
1000
0000
0001
0000
0000
0000
1000
0000
0000
0000
,
0010
0100
0000
0001
0000
1000
0000
0100
,
0000
0010
0000
0001
0000
0010
0100
1000
,
0010
0100
0000
0001
0000
0010
0000
0001
,
0000
0000
0000
1000
0000
0000
0000
0000
0000
0100
0000
0000
0000
0000
0000
0010
0000
0000
0001
0000
0000
1000
0001
1000
,
0001
1000
2000
0010
,
3020
0000
0000
0000
0000
0000
0100
0000
0000
0000
0000
0000
0230
0000
0000
0000
0000
0000
0001
0000
0000
0300
0010
0100
,
2000
0001
0001
0001
,
3010
0000
0200
0000
0302
0000
0023
0001
,
0032
1000
0203
0010
,
0320
1000
2030
0010
,
3002
0000
0100
0000
0100
0000
0013
0001
,
0000
1000
0000
0100
0000
0010
0001
1000
,
0200
0010
1300
0002
1000
0000
1000
0000
,
0023
0000
0000
0000
0000
0000
0001
0000
0000
0000
0000
0000
0230
0000
0000
0000
0000
0000
1300
0000
0000
0000
1000
0001
,
0200
0001
0001
0001
,
0310
2000
3020
0230
,
0302
0010
2003
0001
,
3020
0100
2030
0001
,
3200
0000
0000
0000
0000
0310
0001
0100
,
2002
0000
0000
0000
0000
0000
0000
0000
0000
0000
3003
0000
0001
1000
0001
1000
,
0100
0000
0000
0000
0010
0000
0001
0000
1000
0000
1000
0000
0100
0010
0000
0000
,
0002
0000
0000
0000
0000
0000
0000
0000
0013
0000
0000
0000
0001
0000
0000
0000
1000
0000
0100
0000
1000
0000
0100
0000
0010
0001
0010
0000
0001
0000
0010
0000
,
0200
0000
0000
0000
1300
0010
0100
0001
1000
0010
0100
0001
1000
0010
0100
0001
,
0010
0000
0100
0000
1000
0100
0000
1000
0001
0100
0001
0000
1000
0100
0010
0001
,
1000
0000
0010
0000
0010
0100
0000
0000
0001
0000
0001
0000
1000
0000
0100
0000
,
1100
0000
1000
0000
0010
0000
0100
0000
0001
0010
0001
0010
0100
0000
0100
0000
,
1000
0000
0000
0000
0001
0000
1000
0000
0100
0000
0100
0000
1000
0000
0010
0100
,
0001
0000
0100
0010
1000
0001
1000
0001
0100
0000
0010
1000
0001
0010
0100
0000
,
1000
0000
0100
1000
0001
0001
0100
0010
,
1010
0000
1000
0001
0100
0000
0001
0010
0100
0010
0100
0010
0100
0000
0100
0000
,
1000
0000
0010
0100
0001
0001
0010
0001
,
0100
0000
0010
1000
0000
0001
0100
0000
0010
0000
1000
0000
0100
0010
0001
1000
,
0100
0000
1000
0100
1000
0001
0000
0001
0010
0000
0001
0010
0000
0001
1000
0100
,
0010
0000
0001
1000
0000
0001
0000
0010
0100
1000
0100
1000
0100
0000
0100
0000
,
0010
0000
0001
1000
0100
0000
1000
0000
0001
0000
0001
0000
0011
0000
1000
0100
,
0010
0000
0001
0100
0000
0010
1000
0100
2000
0000
0000
0000
3000
0000
0000
0000
,
1002
0000
0000
0000
0000
0000
0000
0000
1003
0010
1000
0010
1000
0010
1000
0010
,
0100
0000
0000
0001
0000
0000
0100
0000
0000
0001
0000
0000
0100
0000
0000
0001
0000
0000
0100
0000
0000
0001
0000
0000
1000
0000
0001
0000
1000
0000
0001
0000
0000
1000
0000
0000
0100
0000
0000
0010
0000
0000
0001
0000
0000
0100
0000
0000
,
0010
0000
0000
0000
0000
0000
1000
0000
0010
0000
0000
0000
1000
0000
0010
0000
0100
0000
0000
0000
0000
0000
0001
0000
0100
0000
0000
0000
0001
0010
0001
0000
,
0010
0000
0000
0001
0010
0001
1000
0010
0100
0000
0000
0010
0100
0000
0010
1000
,
0001
0000
0010
0100
1000
0000
0010
0000
1000
0000
1000
0000
0010
0000
0100
0000
,
0010
0100
0001
0010
0100
1000
0010
0100
0000
0100
0001
0000
0000
0100
0010
1000
,
0001
0000
0000
0000
0000
0000
1000
0100
1000
0000
0000
0000
0001
0000
0000
0000
0000
0000
0100
0000
0010
0000
1000
0000
0100
0000
0010
0000
0001
0000
1000
0000
,
0010
0100
0001
0010
0001
1000
0001
0100
0000
0100
0010
1000
0010
0100
0001
0010
,
0100
0000
0000
0000
1000
0100
1000
0000
0100
0000
0000
0000
0010
0000
0000
0000
0000
0000
0000
0000
0001
0000
1000
0000
0100
0000
0000
0000
2000
0000
0000
0000
,
0000
0000
3020
0000
0230
0000
0302
0000
2003
0000
3200
0000
0310
0001
1000
0100
,
0010
0000
0000
0000
0000
0000
0001
0000
0100
0000
0000
0000
0001
0000
0100
0000
0010
0000
0000
0000
0000
0000
1000
0000
0010
0000
0000
0000
1000
0100
1000
0000
,
0100
0000
0000
1000
0100
1000
0001
0100
0010
0000
0000
0100
0010
0000
0100
0001
,
1000
0000
0100
0010
0001
0000
0100
0000
0001
0000
0001
0000
0100
0000
0010
0000
,
0100
0010
1000
0100
0010
0001
0100
0010
0000
0010
1000
0000
0000
0010
0100
0001
,
1000
0000
0000
0000
0000
0000
0001
1000
0001
0000
0000
0000
0100
0000
0000
0000
0000
0000
0010
0000
0100
0000
0001
0000
0010
0000
0100
0000
1000
0000
0001
0000
,
0100
0010
1000
0100
0010
0001
1000
0010
0000
0010
0100
0001
0100
0010
1000
0100
,
0010
0000
0000
0000
0001
0010
0001
0000
0010
0000
0000
0000
0100
0000
0000
0000
0000
0000
0000
0000
1000
0000
0001
0000
0010
0000
0000
0000
0004
0000
0000
0000
,
1003
0000
0000
0001
0000
0000
0100
0000
,
0010
0110
0000
0000
1000
0000
0010
0000
,
1001
1000
0000
0001
0000
0000
0010
0000
,
0001
0011
0000
0000
1000
0000
0001
1000
,
1100
0100
0000
1000
0000
0000
0010
0000
,
0100
0101
0000
0000
0001
0000
1000
0000
,
1100
0100
0000
1000
0000
0000
0010
0000
,
0100
0000
0110
0000
0000
0000
0000
0000
0010
0000
1000
0000
0001
0010
0001
0000
,
0012
0000
1000
0000
0203
0010
0010
0000
,
0302
0000
0000
0000
1000
0000
0000
0000
0003
0000
1000
0000
1000
0001
0000
0000
,
0010
0000
0001
0010
0000
0010
0100
0000
,
1000
0000
0010
0000
1000
0000
1000
0001
0000
0000
0010
0000
0001
0000
0001
0100
,
0020
0000
1030
0200
0000
0310
0002
0000
,
1000
0000
0000
0000
0010
0000
0000
0000
0000
0000
0010
0000
0013
0001
2000
0000
,
3200
0000
0310
0001
1000
0000
0200
0000
0000
0000
1300
0000
0200
0000
0320
0000
,
0001
0030
0100
1000
0020
0000
0000
0000
,
1030
0000
0001
1000
0000
0001
0010
0100
0000
0010
0001
1000
0100
0010
0100
1000
,
0001
1000
0010
0000
1000
0001
0000
1000
0100
0000
0010
0001
0000
1000
0100
1000
,
0010
0000
0100
0001
0000
0100
0010
1000
0000
0001
1000
0010
0100
0010
1000
0010
,
0100
0000
0100
0000
0010
0100
0000
0001
0010
0000
0001
1000
0000
0100
0010
0001
,
1000
0000
0001
0010
0000
0001
0100
0010
0000
0100
0001
1000
0010
1000
0100
0010
,
0000
0001
0010
0000
0100
1000
0000
1000
0010
0000
0010
0100
0000
0100
0010
1000
,
0001
0000
0010
0001
0000
0010
0100
1000
0000
0001
1000
0010
0100
0001
1000
0100
,
0010
0000
0010
0000
0100
0010
0000
0001
0100
0000
0001
1000
0000
0001
0100
0001
,
2000
0000
0000
0000
3010
0000
0010
0100
0002
0000
1000
0000
0023
0000
0000
0000
,
0230
0000
1000
0000
1300
0000
0001
0100
0010
0000
1000
0100
0000
0000
0010
0000
,
0002
0000
1000
0000
0103
0010
1000
0001
,
0010
0100
1000
0001
0010
0100
1000
0001
0100
0010
0100
0001
1000
0000
1000
0100
,
0020
0000
0000
0000
0031
0000
1000
0001
0100
0000
0010
0000
1000
0000
0100
0000
,
0010
0000
0100
1000
0000
0001
0010
0001
1000
0100
1000
0001
0010
0100
1000
0000
,
0100
0010
0100
0010
0001
0010
0001
0010
0100
1000
0100
1000
0010
1000
0010
1000
,
0001
0000
0000
0100
0000
0000
0010
0000
0000
1000
0000
0000
0100
0000
0000
0010
0000
0000
0001
0000
0000
0010
0000
0000
0100
0000
1000
0000
0100
0000
0010
0000
0001
0000
1000
0000
0100
0000
0010
0000
0100
0000
1000
0000
0010
0000
0100
0000
,
0001
0000
0100
0010
1000
0010
0100
0000
0001
0010
0001
1000
0100
0010
0001
0000
,
1000
0000
0010
0100
0000
0010
1000
0001
0100
0010
1000
0001
0010
0100
1000
0100
,
0010
0000
0001
0010
0000
0010
0100
1000
0001
0100
0010
1000
0001
0010
0100
0000
,
1000
0100
1000
0001
0000
1000
0010
0000
0100
0001
0000
1000
0001
0000
1000
0001
,
1000
0000
0100
0010
0001
0000
0101
0000
0001
0100
0000
0001
0100
0000
0010
1000
,
0001
0000
1000
0100
0000
0010
0001
0000
0001
1000
0010
1000
0010
0100
0001
1000
,
0001
0000
1000
0010
0000
0010
0100
0000
0100
0001
0000
0001
0010
0001
0100
0010
,
1000
0010
0000
1000
0000
0001
0010
0000
0100
1000
0000
0001
4000
0000
3002
0000
,
1003
0000
0001
0100
0110
0000
1000
0000
,
1010
0000
0000
0110
0000
0000
0001
1000
0100
0000
0010
0000
0002
0000
0000
0000
,
0013
0001
0010
0100
0000
0100
1000
0000
1100
0000
0000
0000
0001
0000
0001
0000
,
0101
0000
0000
0110
0000
0000
0101
0000
2000
0000
0000
3002
0000
0000
2003
0000
,
3100
0010
0100
1000
0000
0001
0010
0100
1000
0100
0000
1000
0001
0000
1000
0000
,
1100
0000
0000
0110
0000
0000
1000
0001
0010
0000
0001
0000
2000
0000
0000
0000
,
3100
1000
0100
0010
0000
0000
0010
0100
1000
0001
0000
1000
0001
0010
0001
0010
,
0100
0000
0000
1100
0000
0000
1001
0000
1000
0000
0000
0000
0004
0000
0000
0000
,
0203
0000
0000
0000
0310
0000
1000
0000
1010
0000
1000
0010
1000
0000
0100
0000
,
1100
0000
0000
0110
0000
0000
2001
0000
0001
0000
0000
0000
3200
0000
0000
0000
,
0310
0001
0010
0100
0010
0001
1000
0100
0010
0100
1000
0010
1000
0100
0010
0001
,
0100
0000
0001
0000
1000
0010
0000
0010
0100
0000
0000
0000
0001
0100
0010
1000
,
0200
0000
0000
0000
0310
0000
0001
0000
0011
0000
0001
0010
0001
0000
0100
0000
,
0101
0000
0000
0110
0000
0000
1002
0000
1000
0000
0203
0000
0320
0000
2030
0000
,
3100
0000
1000
0010
0000
0100
0001
1000
0001
1000
0000
0001
1000
0000
0100
0010
,
0001
0000
0000
0011
0000
0000
1001
0000
1100
0000
0001
0000
1100
0000
0001
0000
,
2002
0000
0000
0000
,
3003
0000
0000
0000
0000
0000
0000
0000
0000
0000
0000
0000
1000
0100
0010
0001
,
1000
0000
0000
0000
0000
0000
0010
0000
0000
0000
0010
0000
0100
0000
0001
0000
1000
0000
0000
0000
0000
0000
0100
0000
1000
0000
0000
0000
0100
1000
0100
0000
,
0010
0000
0000
0000
0000
0000
0000
0000
0000
0001
0000
0000
1000
0000
0000
0100
0000
0000
1000
0001
0000
0100
0000
0000
0001
0000
0000
0000
0000
0000
0000
0000
0000
0100
0000
0000
0010
0000
0000
0000
0000
0000
1000
0000
0000
0001
0000
0000
,
1000
0000
0100
0010
0002
0000
2003
0000
3001
0000
0001
0000
0010
0000
0100
0000
,
1000
0010
0100
0001
0010
1000
0010
0001
0000
0001
0200
0000
0000
0310
1000
0100
,
0010
0000
0000
0000
0000
0000
0001
0010
0002
0000
0000
0000
2003
0000
0000
0000
0000
0000
3100
0000
0010
0000
0001
0000
1000
0000
0100
0000
0010
0000
0001
0000
,
0100
0010
0100
0001
0100
0010
1000
0010
0000
1000
0010
1000
0001
1000
0100
0010
,
0001
0000
0000
0000
1000
0100
1000
0000
0001
0000
0000
0000
0200
0000
0000
0000
0000
0000
0000
0000
0310
0000
1000
0000
0001
0000
0000
0000
0020
0000
0000
0000
,
0000
0000
0230
0000
0320
0000
0032
0000
2003
0000
3020
0000
0130
0001
0010
0100
,
1000
0000
0000
0000
0000
0000
0100
0000
0000
0000
0100
0000
0010
0000
0001
0000
1000
0000
0000
0000
0000
0000
0010
0000
1000
0000
0000
0000
0010
1000
0010
0000
,
0100
0000
0000
0000
0000
0000
0000
0000
0000
0001
0000
0000
1000
0000
0000
0010
0000
0000
1000
0001
0000
0010
0000
0000
0001
0000
0000
0000
0000
0000
0000
0000
0000
0010
0000
0000
0100
0000
0000
0000
0000
0000
1000
0000
0000
0001
0000
0000
,
1000
0000
0010
0100
0002
0000
2003
0000
3001
0000
0001
0000
0100
0000
0010
0000
,
1000
0100
0010
0001
0100
1000
0100
0001
0000
0001
0010
0000
0000
0100
1000
0010
,
0100
0000
0000
0000
0000
0000
0001
0100
0001
0000
0000
0000
1000
0000
0000
0000
0000
0000
0010
0000
0100
0000
0001
0000
1000
0000
0010
0000
0100
0000
0001
0000
,
0010
0100
0010
0001
0010
0100
1000
0100
0000
1000
0100
1000
0001
1000
0010
0100
,
0001
0000
0000
0000
1000
0010
1000
0000
0001
0000
0000
0000
0020
0000
0000
0000
0000
0000
0000
0000
0230
0000
0000
0000
2300
0000
0000
0000
3002
0000
0000
0000
,
0203
0000
0000
0000
0000
0000
0000
0000
0000
0000
0000
0000
0301
0100
0010
1000
,
0100
0000
0000
0000
0100
0000
0010
0000
0000
0000
0100
0000
0001
0000
0100
0000
1000
0000
0000
0000
0001
0000
0100
0000
0010
0000
1000
0100
1000
0000
0001
0000
,
0010
0000
0100
1000
0010
0001
0010
1000
0010
0100
1000
0001
0010
1000
0100
0010
,
0001
0000
0000
0100
0000
0000
1000
0000
0000
0100
0000
0000
0000
0000
0000
0010
0000
0000
1000
0000
0000
0001
1000
0000
0000
0000
0000
0001
0000
0000
0010
0001
0000
1000
0000
0000
0100
0000
0000
0000
1000
0001
1000
0000
0000
0001
0000
0000
,
0100
0000
0000
1000
0000
0000
0001
0000
0000
0010
0000
0000
1000
0000
0000
0001
0000
0000
0010
0000
0000
1000
0000
0000
0010
0000
0000
0001
0000
0000
0100
0000
0000
1000
0000
0000
0100
0001
0100
0001
0000
0000
1000
0000
0000
0100
0000
0000
,
0000
0000
0100
0000
0001
0000
0100
0001
0100
0000
1000
0000
0100
0010
0100
0000
1000
0000
0010
0000
0100
0001
0100
0000
0001
0000
0100
1000
0100
0000
0001
0000
,
1000
0100
1000
0000
0100
0000
0010
0001
0010
0000
0100
0000
1000
0000
0010
0000
0000
0000
0010
0000
0100
0000
1000
0000
0001
0000
0010
0000
1000
0000
0100
0000
,
0010
0000
0000
0000
0001
0010
0001
0000
0010
0000
0000
0000
0100
0000
1000
0000
0010
0000
0100
0000
1000
0000
0001
0000
0010
0000
1000
0000
0100
0000
0010
0000
,
0000
0000
0000
1000
0000
0000
0010
0000
0000
0001
0000
0000
0010
0000
0000
1000
0000
0000
0010
0000
0000
0001
0000
0000
0100
0000
0010
0000
1000
0000
0100
0000
0010
0000
0001
0000
0010
0000
1000
0000
0001
0000
0100
0000
1000
0000
0001
0000
,
0200
0000
0000
0000
0000
0000
0000
0000
0000
0000
0000
0000
0000
0000
0310
1000
,
0100
0000
0020
0000
0031
0100
1000
0100
0010
0000
1000
0100
0000
0100
0001
0100
,
0020
0000
0000
0000
0032
0000
0000
0000
0103
0010
0100
0000
1000
0000
0000
0000
0100
0000
0010
0000
0001
0000
1000
0000
0100
0000
0010
0000
1000
0000
0100
0000
,
0000
0001
0M01
0010
0100
01M0
1000
0100
0000
0100
0001
0010
0000
0001
1000
0100
,
0020
0000
0000
0000
0031
0100
1000
0100
0010
1000
0100
0001
1000
0010
0001
0100
,
0010
1000
0010
0000
0100
0000
1000
0000
0001
0000
0010
0000
1000
0000
0100
0000
0001
0000
1000
0000
0010
0000
0001
0000
1000
0000
0010
0000
0001
0000
0010
0000
,
1000
0000
0000
0000
0001
0100
0001
0000
1000
0000
0000
0000
0200
0000
0000
0000
0000
0000
0000
0000
0320
0000
0000
0000
0031
0000
0000
0000
0002
0000
0000
0000
,
0000
0000
2003
0000
0000
0000
0000
0000
0000
0000
0000
0000
3001
0100
1000
0001
,
0010
0000
0000
0000
0000
0000
0010
0000
0000
0000
1000
0000
0100
0000
0001
0000
0000
0000
0001
0000
0100
0000
1000
0000
0010
0000
0100
0001
0100
0000
0010
0000
,
1000
0000
0000
0000
0000
0000
0000
0000
0000
0100
0000
0000
0010
0000
0000
0001
0000
0000
0100
0010
0000
1000
0000
0000
0010
0000
0000
1000
0000
0000
0100
0000
0000
0001
0000
0000
1000
0000
0000
0010
0000
0000
0001
0000
0000
0100
0000
0000
,
0010
0000
0000
0100
0000
0000
0001
0000
0000
0010
0000
0000
0000
0000
0000
0010
0000
0000
0001
0000
0000
0100
0001
0000
0000
0000
0000
0100
0000
0000
0010
0000
0000
1000
0000
0000
0001
0000
0000
0000
1000
0001
1000
0000
0000
0100
0000
0000
,
0010
0000
0000
1000
0000
0000
0010
0000
0000
0001
0000
0000
0100
0000
0000
1000
0000
0000
0001
0000
0000
0010
0000
0000
1000
0000
0000
0100
0000
0000
0010
0000
0000
1000
0000
0000
0010
0100
0010
0100
0000
0000
1000
0000
0000
0010
0000
0000
,
0100
0000
1000
0000
0100
0000
0001
0100
0001
0000
1000
0000
0100
1000
0100
0000
0010
0000
1000
0000
0010
0001
0010
0000
0001
0000
0100
0000
0010
0000
1000
0000
,
0010
1000
0010
0000
0100
0000
0001
0000
0010
0000
1000
0000
0010
0000
0100
0000
0000
0000
0100
0000
1000
0000
0010
0000
0001
0000
0010
0000
1000
0000
0100
0000
,
1000
0000
0001
0000
0000
0000
0000
0000
0000
0000
0000
0000
1000
0000
0000
0100
0000
0000
1000
0000
0000
0000
0000
0000
0100
0000
0000
0000
0000
0000
0000
0000
0000
0000
0000
0000
0010
0000
0000
0000
0000
0000
0001
0000
0000
0000
0000
0000
0000
0000
0000
0000
0000
0000
0001
0000
0000
0000
0000
0000
0100
0000
0000
0000
0000
0000
0010
0000
0000
0000
0000
0000
0100
0000
0000
0000
0000
0000
0001
0000
0000
0000
0000
0000
1000
0000
0000
0000
0000
0000
0100
0000
0000
0000
0000
0000
,
0000
0000
0000
0100
0000
0000
0010
0000
0000
0100
0000
0000
1000
0000
0000
0100
0000
0000
0001
0000
0000
0100
0000
0000
1000
0000
0010
0000
0001
0000
1000
0000
0100
0000
0001
0000
0100
0000
1000
0000
0001
0000
0010
0000
1000
0000
0100
0000
,
0020
0000
0000
0000
0000
0000
0000
0000
0000
0000
0000
0000
0000
0000
0031
1000
,
0100
1000
0000
0000
0000
0000
0020
0000
0000
0000
0000
0000
0130
0000
0000
0001
0000
0000
0010
0000
0000
1000
0000
0000
0010
0000
0000
0000
0000
0000
0010
0000
0000
0001
0000
0000
1000
0000
0000
0010
0000
0000
0100
0000
0000
0001
0000
0000
,
0020
0000
0000
0000
0032
0000
0000
0000
1003
0001
1000
0000
0100
0000
0000
0000
0010
0000
0100
0000
1000
0000
0010
0000
0100
0000
1000
0000
0001
0000
0010
0000
,
0000
1000
10M0
0010
0001
00M1
0010
1000
0000
0100
0001
1000
0000
0010
0001
0100
,
0020
0000
0000
0000
1030
0100
1000
0010
0001
1000
0100
0001
1000
0100
0001
1000
,
0010
0001
0010
0001
0000
0000
1000
0000
0000
0100
0000
0000
0001
0000
0000
1000
0000
0000
0010
0000
0000
0001
0000
0000
1000
0001
0000
0100
0000
0000
0010
0000
0000
1000
0000
0000
0100
0000
0000
0001
0000
0000
0100
0000
0000
0010
0000
0000
,
0002
0000
0000
0000
0103
0010
0100
0000
0001
0000
0000
0000
2000
0000
0000
0000
0000
0000
0000
0000
3100
0000
0000
0000
0010
0000
0000
0000
0020
0000
0000
0000
,
0000
0002
0000
0000
0000
0000
0033
0000
,
2001
0000
3200
0000
,
0320
0000
0000
0000
0000
0000
0000
0000
0000
0000
0000
0000
0000
0000
0000
0000
0032
0000
0000
0000
0000
0000
0000
0000
0000
0000
0000
0000
0003
0000
1000
0001
,
2000
0000
0000
0000
,
3000
0200
0320
0032
,
2003
0000
3020
0000
,
0230
0000
0302
0000
,
0023
0000
0000
0000
0000
0000
0230
0320
,
0030
0000
0000
0000
0000
0000
0200
0000
0000
0000
0000
0000
0300
0000
0000
0000
0000
0000
2000
0000
0000
0000
0000
0000
3000
0000
0000
0000
0000
0000
0001
0000
0000
0000
0000
0000
0001
0020
0000
0000
0000
0000
0032
0000
0000
0000
0000
0000
,
2003
0000
3020
0230
0000
0000
0000
0000
,
0320
0000
0000
0000
0000
0000
0000
0000
0000
0000
0000
0000
0000
0000
0000
0000
2030
0000
0000
0000
0000
0000
0000
0000
0000
0000
0000
0000
3000
0000
0001
1000
,
0002
0000
0000
0000
,
0003
0200
0320
2030
,
3002
0000
0023
0000
,
0230
0000
0320
0000
,
0032
0000
0000
0000
0000
0000
0000
0000
0000
0000
0000
0203
0000
0000
0320
0000
,
0000
2030
0000
0000
0000
0000
0000
0000
0000
0000
0000
0000
0000
0000
0000
0000
,
0000
0000
3000
0000
;
