#TITLE:Bass Like This;
#SUBTITLE:;
#ARTIST:Hatom & Mad Monk;
#TITLETRANSLIT:;
#SUBTITLETRANSLIT:;
#ARTISTTRANSLIT:;
#GENRE:;
#CREDIT:z-axis;
#MUSIC:Bass Like This.ogg;
#BANNER:;
#BACKGROUND:;
#CDTITLE:;
#SAMPLESTART:96.237;
#SAMPLELENGTH:12.387;
#SELECTABLE:YES;
#OFFSET:-0.237;
#BPMS:0.000=155.000
,456.000=157.000
,458.000=158.000
,460.000=160.000
,461.000=162.000
,462.000=163.000
,463.000=164.000
,464.000=165.000
,465.000=166.000
,466.000=170.000
,467.000=172.000
,468.000=175.000
,469.000=176.000
,470.000=178.000
,471.000=179.000
,472.000=180.000
,473.000=182.000
,474.000=185.000
,475.000=187.000
,476.000=190.000
,477.000=193.000
,478.000=195.000
,479.000=197.000
,480.000=200.000
;
#STOPS:;
#BGCHANGES:;
#FGCHANGES:;

//--------------- dance-single - ----------------
#NOTES:
     dance-single:
     :
     Challenge:
     12:
     0,0,0,0,0:
0000
0000
0000
0000
,
0000
0000
0000
0000
,
0000
0000
0000
0000
,
0000
0000
0000
0000
,
0000
0000
0000
0000
,
0000
0000
0000
0000
,
0000
0000
0000
0000
,
0000
0000
0000
0000
,
1010
0000
0000
0000
0101
0000
0000
0000
1000
0100
1000
0000
0001
0000
0000
0000
,
0100
0000
0000
0000
0000
0000
0000
0000
0000
0000
0000
0000
0010
0000
0000
0000
0000
0000
0000
0000
0000
0000
0000
0000
1000
0000
0000
0001
0000
0000
1000
0000
0100
0000
0010
0000
0001
0000
0000
0000
0000
0000
0100
0000
0000
0010
0000
0000
,
1100
0000
0000
0000
0011
0000
0000
0000
1000
0100
1000
0000
0001
0000
0010
0000
,
0100
0000
0000
0000
0010
0000
0001
0010
0100
1000
0001
0000
1001
0000
0000
0000
,
0001
0010
0100
1000
,
0010
0000
0100
0000
0001
0000
1000
0100
,
0010
0010
0101
0000
1000
1000
0012
0000
,
0003
MMMM
MMMM
MMMM
,
1010
0001
1100
0001
1010
0001
1100
0001
,
1010
0000
0001
0000
0001
0000
0000
0000
1000
0000
1000
0000
0001
0100
0000
0100
,
0011
1000
0101
1000
0011
1000
0101
0101
,
1000
0000
0010
0000
1001
0000
0000
0001
1000
0000
0100
0000
0110
0000
0000
0000
,
0101
1000
0011
1000
0101
1000
0011
1000
,
0101
1010
1010
0001
1100
0011
1100
0000
,
1100
0001
1010
0001
1100
0001
0001
0001
,
1000
0000
0001
0010
0001
0000
0000
1000
0010
0100
0010
0000
1000
0001
0100
0000
,
0020
1130
0002
1103
,
0010
0000
1000
0100
0020
0000
0000
0000
0130
0000
1000
0000
0001
0000
1000
0000
,
0002
0000
0003
0000
0002
0000
0003
0000
0001
0010
0001
1000
0100
1000
0010
0100
,
0000
0000
0010
0100
0010
0100
0001
0100
0001
1000
0001
0000
1000
0101
1010
0101
,
1010
0101
1010
0101
,
1010
0000
0001
0100
0010
0000
0000
0100
0011
0000
1100
0000
0011
0000
0014
0000
,
1103
0000
0000
0000
0011
0000
0000
0000
1100
0000
0010
1000
0101
0000
1010
0000
,
0101
0000
0000
0000
1010
0000
0000
0000
0001
1000
0100
1000
0011
1100
0011
1100
,
0011
0000
1100
0001
1010
0401
1310
0000
,
0101
0000
1000
0100
1010
0000
0000
0001
1100
0000
0011
0000
1100
0000
0001
1000
,
0100
0000
0000
0000
0100
0000
0000
0000
0100
0000
M100
0000
0100
0000
1000
0001
,
1000
0000
0000
0000
0100
0000
1000
0010
0100
0000
0001
0100
0010
0100
0001
0000
,
1010
0000
0000
0000
1010
0000
0000
1000
0010
0000
0100
0000
0002
0000
0000
0000
,
1013
0000
0000
0000
1010
0000
0000
1000
0010
0100
0000
0010
0000
1000
0000
0002
,
1100
0000
0000
0000
1103
0000
0000
0010
1000
0000
0001
0000
1000
0010
0100
0002
,
1010
0000
0000
0000
1013
0000
0000
1000
0001
0100
0000
010M
1000
0000
0000
0000
,
0011
0000
0000
0000
0011
0000
0000
1000
0001
0000
0100
0000
0020
0000
0000
0000
,
1130
0000
0000
0000
1100
0000
0000
0001
0100
0010
0000
1000
0000
0100
0000
2000
,
0101
0000
0000
0000
3101
0000
0000
0001
1000
0000
0100
0000
0010
0001
0010
0001
,
0000
0000
0000
0000
1000
0000
0001
0100
0010
1000
0100
0000
0010
0001
1000
0000
,
2002
0000
0000
0000
,
0000
0000
3003
0000
,
2000
0000
0000
0000
,
3200
0000
0320
0000
,
0032
0000
0000
0000
,
0200
0000
0000
0303
,
1000
0000
0000
0000
0100
0000
0000
0000
0000
1000
0001
0000
0010
0000
0000
0000
,
0001
0000
0000
0000
0100
0000
0000
0000
0000
0001
0100
0000
0010
0000
0000
0000
,
1000
0000
0000
0000
0001
0000
0000
0000
0000
1000
0001
0000
1000
0000
0000
0000
,
0100
0000
0000
0000
1000
0000
0000
0000
0010
0000
M010
0001
1000
0000
0001
0000
,
1001
0001
0100
0000
0010
0010
0100
0010
,
0110
0000
0000
0000
1010
0000
0000
0000
1001
0000
0001
1000
0100
0000
M100
0000
,
0001
1000
1000
0000
1000
1000
0001
1000
,
1001
0000
0000
0000
0000
0000
0000
0000
0000
0000
0000
0000
0011
0000
0000
0000
0000
0000
0000
0000
0000
0000
0000
0000
0010
0000
0000
0100
0000
0000
1000
0000
0001
0000
0100
0000
0010
0000
0000
0000
0000
0000
1000
0000
0000
0000
0000
0000
,
0101
1000
0001
0000
0010
0010
0001
0010
,
0011
0000
0000
0000
0110
0000
0000
0000
1001
0000
0000
0000
1000
0001
0100
0000
,
0000
0010
0010
0000
0100
0100
0010
0100
,
0010
0100
0010
0000
,
1101
0000
1101
0000
0002
2003
0000
3000
,
1101
0000
1101
0000
0002
0023
0000
0030
,
0111
0000
0111
0000
2000
3200
0000
0300
,
1110
0000
0000
0000
1110
0000
0000
0000
0010
0000
0001
0010
000M
0010
1000
0000
,
1101
0000
1101
0000
0002
2003
0000
3000
,
1101
0000
1101
0000
0002
0023
0000
0030
,
1011
0000
1011
0000
2000
3200
0000
0300
,
1010
0100
1000
0100
1010
0100
1000
0000
1000
0000
0001
0100
000M
0100
1000
0000
,
1011
0000
1011
0000
0010
1000
0101
0000
,
1101
0000
0000
0000
1101
0000
0000
0001
1000
0000
0100
0000
1010
0000
0000
0000
,
1110
0000
0000
0000
1110
0000
0000
1000
0001
0000
0100
0000
0011
0000
0000
0000
,
0111
0000
0000
0000
0111
0000
0000
0001
1000
0000
0001
0010
000M
0010
1000
0000
,
1011
0000
0000
0000
1011
0000
0000
1000
0010
0000
1000
0000
0101
0000
0000
0000
,
1101
0000
0000
0000
1101
0000
0000
0001
1000
0000
0100
0000
1010
0000
0000
0000
,
1110
0000
0000
0000
1110
0000
0000
1000
0001
0000
0100
0001
0010
0100
1000
0001
,
1000
0000
0000
0000
0001
0000
1000
0001
1000
0000
0001
0100
000M
0100
1000
0000
,
0011
0000
0000
0000
1100
0000
0001
0000
1000
0100
0010
0000
0100
0000
1000
0000
,
0001
0000
0000
0000
0000
0000
0000
0000
0000
0000
0000
0000
1000
0000
0000
0000
0000
0000
0000
0000
0000
0000
0000
0000
0001
0000
0000
1000
0000
0000
0001
0000
1000
0000
0001
0000
0010
0000
0000
0000
0000
0000
0100
0000
0000
0010
0000
0000
,
0101
0000
0000
0000
1010
0000
0000
0000
0001
0100
0010
0000
1000
0000
0010
0000
,
0100
0000
0001
0100
0001
0000
0010
0001
0010
0001
1000
0000
0101
0000
0000
0000
,
1020
0001
1000
0001
,
1000
0001
1000
0001
,
1000
0001
1000
0001
,
1030
0100
1000
0001
0100
0010
0100
0001
1000
0100
0010
0100
1000
0001
0100
0001
,
1000
0100
0010
0001
1000
0100
0010
0001
0010
0100
1000
0001
0010
0100
1000
0001
,
1000
0000
0100
0000
0010
0000
0001
0000
0000
1000
0000
0000
0001
0000
0010
0000
0100
0000
1000
0000
0000
0001
0000
0000
1000
0000
0010
0000
0100
0000
0001
0000
0000
1000
0000
0000
0001
0000
0000
0000
0000
0000
0100
0000
0000
0000
0000
0000
,
0000
0010
0010
0000
0100
0100
0010
0100
,
0010
0000
0000
0000
0100
0000
0000
0000
0020
0000
0000
0000
MM0M
0030
0000
0000
,
1111
MMMM
1111
MMMM
1111
MMMM
1111
MMMM
,
1111
0100
2111
0000
0011
0011
3011
001M
,
1111
MMMM
1111
MMMM
1111
MMMM
1111
MMMM
,
1111
0000
0000
0000
0001
0000
0000
0010
0100
0000
0010
0000
0110
0000
0000
0000
,
1111
MMMM
1111
MMMM
1111
MMMM
1111
MMMM
,
1111
1000
1111
0000
0101
0101
0102
1M03
,
1111
MMMM
1111
MMMM
1111
MMMM
1111
0000
,
0000
0000
1000
0001
1000
0001
1000
0001
0010
0100
1000
0000
0020
0000
0000
0000
,
1131
0000
0000
0000
1011
0000
0000
0000
1101
0000
0000
0000
0011
1000
0001
1000
,
0001
0000
1000
0100
0010
0000
0000
0001
0010
0000
0011
0000
1001
0000
1100
0000
,
1110
0000
0000
0000
0111
0000
0000
0000
1110
0000
1000
0100
1010
0000
0101
0000
,
2000
0000
0000
0000
3002
0000
0000
0000
1003
0010
0100
0001
1100
0011
1100
0011
,
2100
0000
0M00
0000
3101
0000
1000
0000
0011
0000
0004
0000
1103
0010
1000
0010
,
1100
0000
0001
0010
0101
0000
0000
0010
0101
0000
1010
0000
0101
0000
1000
0010
,
0200
0010
1001
0000
0302
2003
3012
2003
,
3100
0010
0100
MMMM
,
0011
1000
0101
1000
0011
1000
0101
1000
,
0011
1000
1001
0000
1001
1001
1100
0011
,
1100
0000
0001
0000
1010
0000
0001
0000
1100
0000
0001
0000
1010
0001
1000
0001
,
1020
0000
0000
0000
0032
0000
0000
0000
0103
0010
0100
0001
1000
0000
1000
0100
,
1010
0101
0000
0000
1010
0000
0101
0000
1010
0000
0001
0000
1100
0000
0001
0000
,
1010
0001
1100
0000
0001
0001
0001
0001
,
1200
0000
0000
0000
0000
0000
0301
1000
0100
0010
0100
1000
0001
0000
0001
0100
,
0020
0000
0030
0000
0020
0000
0030
0000
0000
1000
0000
0000
0001
0000
0000
0010
,
0201
0000
1000
0000
0001
1000
0000
0000
,
0001
0000
0001
0000
1000
0001
0000
0000
,
0010
0000
0010
0000
0010
0001
0000
0000
,
1000
0000
0000
0000
1000
0000
0000
0000
1000
0000
0001
1000
0000
1000
0001
0000
,
0010
0000
0010
0000
0001
1000
0001
1000
,
0001
1000
0001
1000
0001
1000
0001
1000
,
0300
1000
0001
0000
0010
0100
0010
0100
,
1010
0101
1010
MMMM
,
0001
0000
1000
1000
0010
0000
0100
0100
,
0001
0000
1000
0001
1000
0000
0001
0000
0200
0000
0020
0000
M33M
0000
0000
0000
,
1011
0000
1011
0000
1011
0001
0010
0100
,
1110
0000
1110
0000
1110
1000
0010
1100
,
0011
0000
1011
0000
1011
1000
0100
1010
,
0101
0000
0000
0000
1101
0000
0000
0000
1101
0000
0001
0100
0000
010M
1000
0000
,
1011
0000
1011
0000
1011
1000
0100
0010
,
0111
0000
0111
0000
0111
0001
0100
0011
,
1100
0000
1110
0000
1110
0001
0010
0100
,
0000
0000
1000
0010
0100
0000
0000
0001
1000
0001
1000
0100
0010
0000
0100
0000
,
111M
0000
111M
0000
111M
1000
0001
0100
,
111M
0000
111M
0000
0011
21M0
3101
1010
,
1M11
0000
1M11
0000
1M11
0002
1103
0011
,
11M1
0000
0000
0000
11M1
0000
0000
0000
11M1
0000
0001
1000
0001
0000
0010
0000
,
M111
0000
M111
0000
M111
0010
0100
1000
,
1M11
0000
1M11
0000
0011
11M0
0101
1010
,
0101
0000
0001
0000
1M11
0001
1000
0000
,
0000
0000
0001
0100
0010
0000
0000
1000
0001
1000
0001
0100
0010
0000
0100
0000
,
111M
0000
111M
0000
111M
1000
0100
0010
,
M111
0000
M111
0000
M111
0M01
1100
0011
,
11M1
0000
11M1
0000
11M1
0000
11M1
0010
,
M111
0000
0000
0000
M111
0000
0000
0000
M111
0000
0010
1000
0001
0000
1000
0000
,
11M1
0000
11M1
0000
11M1
0001
0100
0010
,
111M
0000
111M
0000
111M
1000
1011
0001
,
2111
0000
0000
0000
3001
0000
0010
0100
1000
0001
0100
0010
1000
0000
0001
1000
,
0002
0000
0003
0000
0002
0000
0003
0000
1000
0100
1000
0000
0100
0000
0010
0000
,
0000
0002
0000
0000
0000
0000
0000
0000
,
0000
0000
0000
0000
,
0003
0000
0000
0000
;
