#TITLE:Asteroider;
#SUBTITLE:;
#ARTIST:Sanaas ;
#TITLETRANSLIT:;
#SUBTITLETRANSLIT:;
#ARTISTTRANSLIT:;
#GENRE:;
#CREDIT:;
#MUSIC:Asteroider.ogg;
#BANNER:;
#BACKGROUND:;
#CDTITLE:;
#SAMPLESTART:295.870;
#SAMPLELENGTH:27.692;
#SELECTABLE:YES;
#OFFSET:-0.485;
#BPMS:0.000=130.000;
#STOPS:;
#BGCHANGES:;
#FGCHANGES:;

//--------------- dance-single - ----------------
#NOTES:
     dance-single:
     :
     Challenge:
     11:
     0,0,0,0,0:
0000
0000
0000
0000
,
0000
0000
0000
0000
,
0000
0000
0000
0000
,
0000
0000
0000
0000
,
1000
0000
0000
0001
0100
0000
0001
0000
1000
0000
0000
0100
1000
0000
0001
0000
,
0100
0000
0000
0001
0010
0000
0001
0000
1000
0000
0000
0010
1000
0000
0001
0000
,
1000
0000
0000
0100
0010
0000
0001
0000
1000
0000
0000
0010
1000
0000
0100
0000
,
0010
0000
0000
0001
1000
0000
0001
0000
1000
0000
0100
0000
M100
0000
0001
0000
,
1001
0000
0000
1000
0100
0000
0010
0000
0100
0000
0000
0010
0001
0000
1000
0000
,
0001
0000
0000
0100
0010
0000
0100
0000
0010
0000
0000
1000
0001
0000
1000
0000
,
0100
0000
0000
1000
0001
0000
0100
0000
0010
0000
0000
1000
0100
0000
0010
0000
,
0100
0000
0000
1000
0100
0000
1000
0000
0010
0000
0100
0000
01M0
0000
1000
0000
,
0001
0000
0000
1000
0010
0000
0100
0000
0010
0000
0000
0100
0001
0000
1000
0000
,
0001
0000
0000
0010
0100
0000
0010
0000
0100
0000
0000
1000
0001
0000
1000
0000
,
0010
0000
0000
1000
0001
0000
0010
0000
0100
0000
0000
1000
0010
0000
1000
0000
,
1001
0000
0000
0000
0000
0000
0000
0000
1000
0100
0010
0100
1000
0010
1000
0001
,
0100
0000
0010
0000
1000
0001
0000
1000
0000
0010
0000
1000
0001
0000
0001
0000
,
0100
0000
0001
0000
1000
0100
0000
1000
0000
1000
0000
0100
0000
0010
0001
0000
,
1000
0000
0010
0000
0100
0010
0000
0010
0000
1000
0000
0100
0010
0000
0001
0000
,
1000
0000
1000
0000
0100
1000
0000
0001
0000
0001
0000
1000
0000
0001
0100
0000
,
0010
0000
0100
0000
0001
1000
0000
0100
0000
0100
0000
0010
0001
0000
1000
0000
,
0001
0000
0100
0000
0010
1000
0000
0010
0000
0010
0000
1000
0000
0100
0010
0000
,
0001
0000
1000
0000
0010
1000
0000
0001
0000
0001
0000
1000
0010
0000
0100
0000
,
0001
0000
0010
0000
0100
1000
0000
0100
0000
0100
0000
1000
0000
0001
1000
0000
,
1001
0000
1000
0000
0100
0010
0000
0001
0000
1000
0100
0000
1000
0001
1000
0000
,
0001
0000
0100
0000
0010
1000
0000
0001
0000
0100
0001
0000
0100
0010
0100
0000
,
0001
0000
0010
0000
0100
1000
0000
0001
0000
0010
0001
0000
1000
0010
1000
0000
,
0001
0000
1000
0000
0100
1000
0000
0001
0000
0100
0001
0000
1000
0100
1000
0000
,
0010
0000
0100
0000
0010
0100
0000
0001
0000
1000
0100
0000
0010
0001
0010
0000
,
0100
0000
1000
0000
0010
1000
0000
0001
0000
0100
0010
0000
1000
0010
1000
0000
,
0001
0001
1000
1000
0100
0100
0010
0010
,
0001
0000
1000
0000
0000
0001
0000
1000
0001
1000
0100
0010
0001
1000
0001
0100
,
0010
0000
1000
0000
0001
0100
0000
010M
0000
0100
0001
0000
2000
0000
3100
0000
,
0010
0000
0100
1000
0001
0100
0000
010M
1000
0000
0010
0000
0200
0000
0301
0000
,
0010
0000
0001
0000
1000
0100
0000
M100
0000
0100
1000
0000
0002
0000
1003
0000
,
0100
0000
1000
0001
1000
0010
0000
0M10
0001
0000
1000
0000
2002
0000
3003
0000
,
1000
0000
0001
0000
1000
0010
0000
M010
0000
0010
1000
0000
0002
0000
0013
0000
,
0100
0000
0010
0001
1000
0010
0000
M010
0001
0000
0100
0000
0020
0000
1030
0000
,
0100
0000
1000
0000
0001
0010
0000
001M
0000
0010
0001
0000
2000
0000
3001
0000
,
0010
0000
0001
1000
0100
M100
0001
0100
0000
0100
0001
0010
0100
1000
0001
0100
,
0011
0000
1000
0000
1000
0100
0000
M100
0000
0100
1000
0000
0002
0000
0013
0000
,
0100
0000
1000
0001
1000
0100
0000
M100
0001
0000
0010
0000
0200
0000
1300
0000
,
0010
0000
0100
0000
0001
0100
0000
010M
0000
0100
0001
0000
2000
0000
3010
0000
,
0100
0000
0001
1000
0001
0010
000M
0010
1000
0000
0001
0000
2002
0000
3003
0000
,
0001
0000
1000
0000
0001
0010
0000
001M
0000
0010
0001
0000
2000
0000
3010
0000
,
0100
0000
0010
1000
0001
0010
0000
001M
1000
0000
0100
0000
0020
0000
0031
0000
,
0100
0000
0010
0000
1000
0010
0000
M010
0000
0010
1000
0000
0002
0000
0103
0000
,
0011
0000
0000
0000
1000
0000
0100
0000
0010
0000
0100
0000
1000
0000
0001
0000
0100
0000
0010
0000
0100
0000
0010
0000
1100
0000
0000
0000
0001
1000
0001
1000
,
0001
0000
0100
0000
0001
0100
0000
010M
0000
0100
0001
0000
2100
0000
3010
0000
,
1000
0000
0001
1000
0001
0100
0000
010M
1000
0000
0010
0000
1200
0000
0301
0000
,
0010
0000
0001
0000
1000
0100
0000
M100
0000
0100
1000
0000
0012
0000
0103
0000
,
0001
0000
0010
0001
1000
0010
0000
M010
0001
0000
1000
0000
2002
0000
3003
0000
,
1000
0000
0010
0000
1000
0010
0000
M010
0000
0010
1000
0000
0012
0000
0103
0000
,
0001
0000
1000
0001
1000
0010
0000
M010
0001
0000
0100
0000
0021
0000
1030
0000
,
0100
0000
1000
0000
0001
0010
0000
001M
0000
0010
0001
0000
2100
0000
3010
0000
,
1000
0000
0100
1000
0100
M100
0001
0100
0000
0100
0010
1000
0100
0010
0001
1000
,
0011
0000
1000
0001
1000
0100
0000
01M0
0000
0100
1000
0000
0012
0000
1003
0001
,
1000
0010
1000
0010
0100
0010
0000
0M10
0001
0010
0100
0000
1020
0000
0031
0100
,
0010
0000
1000
0001
1000
0100
0000
M100
0000
0100
1000
0000
0021
0000
1030
0001
,
1000
0001
0100
0001
0010
0100
0000
010M
0001
1000
0100
0000
0220
0000
0330
0000
,
0010
0000
0001
0000
1100
0010
0000
0M10
0000
0010
1000
0100
0010
0100
1000
0000
,
0101
0000
1000
0100
0010
0100
0000
01M0
0001
1000
0001
0000
2100
0000
3001
0000
,
1010
0000
0001
1000
0000
0001
0000
0100
0011
1000
0100
0000
1000
0000
0001
0000
,
1100
0000
0001
0000
0000
1000
0000
0001
0000
1000
0100
0010
0001
0010
0100
1000
,
0011
0000
1000
0100
0000
0010
0000
0001
0000
1000
0001
0000
1010
0100
1000
0000
,
0001
0000
0100
0010
0000
1000
0000
0001
0000
0010
0001
0000
1100
0010
0100
0000
,
0001
0000
0010
0001
0000
1000
0000
0010
0000
0100
0010
0000
1100
0001
1000
0000
,
0100
0000
0010
0001
0000
0010
0000
0100
0000
1000
0001
0000
1010
0001
1000
0000
,
0001
0000
0001
0010
0000
0100
0000
0010
0000
0001
0100
0000
0011
0100
0001
0000
,
1000
0000
0100
0010
0000
0001
0000
1000
0000
0010
1000
0000
0101
0010
0100
0000
,
1000
0000
0010
1000
0000
0001
0000
0010
0000
0100
0010
0000
0101
1000
0001
0000
,
0100
0000
0010
1000
0000
0010
0000
0100
0000
0001
1000
0000
0011
1000
0001
0000
,
0010
0000
0001
0100
0010
0100
0000
0001
0000
1000
0100
0000
1010
0001
1000
0001
,
0100
0000
0001
1000
0001
0010
0000
0100
0000
1000
0010
0000
1100
0001
0100
0010
,
1000
0000
0001
1000
0100
0010
0000
0001
0000
0010
0100
0000
1010
0001
0010
0001
,
1000
0000
0010
0100
0001
0100
0000
0010
0000
1000
0100
0000
1010
0001
1000
0010
,
1100
0000
0001
0100
0000
0001
0000
0001
0000
1000
0100
0000
1000
0010
0100
0001
,
1000
0000
0001
0010
0100
1000
0000
0100
0000
1000
0010
0000
0100
0001
0010
0100
,
1010
0000
0001
0100
0000
0010
0000
1000
0101
0010
0001
0000
1000
0000
0010
0000
,
1100
0000
0001
1000
0000
0001
0000
1000
0001
1000
0010
0100
0001
1000
0100
0010
,
0002
0000
0000
0000
,
2000
0000
0023
0000
,
3200
0000
0000
0000
0000
0000
0000
0330
,
0022
0000
0000
0000
,
2033
0000
0000
0000
,
0020
0000
3200
0000
,
0032
0000
0000
0000
,
2323
0000
0000
0000
,
3032
0000
0000
0000
,
2000
0000
0023
0000
,
3002
0000
0000
0000
,
2233
0000
0000
0000
,
3302
0000
0000
0000
,
0020
0000
0203
0000
,
2030
0000
0000
0000
,
3322
0000
0000
0000
0000
0000
0000
0033
,
0002
0000
0000
0000
1003
0200
0320
0230
,
2000
0000
0000
3000
1300
0002
0203
0320
,
2000
0000
0000
3000
0130
0002
2003
3020
,
2000
0000
0000
0000
3000
0230
0302
2003
,
3200
0000
0000
0000
0310
0002
2003
3200
,
0020
0000
0000
0030
0010
0320
0032
0203
,
0002
0000
0000
0000
0003
0302
2003
3002
,
0200
0000
0000
0000
0300
0203
0320
2030
,
3200
0000
0000
0000
1000
2300
3002
0203
,
0020
0000
0000
0030
0001
0302
0023
0230
,
2000
0000
0000
0000
0000
0000
0000
0000
0000
0000
0000
0000
0000
0000
0000
0000
0000
0000
0000
0000
0000
0000
0000
0000
0000
0000
0000
0000
0000
0000
0000
0000
3010
0000
0000
0000
0000
0000
0000
0000
0020
0300
0000
0000
0000
0000
0000
0000
0032
0000
0000
0000
0000
0000
0000
0000
2003
0000
0000
0000
0000
0000
0000
0000
,
0020
0000
0000
0000
3130
0200
0320
2030
,
3200
0000
0000
0000
0310
0020
0032
2003
,
0020
0000
0000
0030
3001
0002
0000
2003
,
0020
0000
0000
0030
3001
0200
0302
2003
,
0002
0000
0000
0000
0000
0000
0000
3003
,
1001
0000
1000
0000
0000
0001
0000
1000
0000
0001
1000
0000
0010
0000
0100
0000
,
0001
0000
0010
0000
0000
0100
0000
0010
0000
0100
0010
0000
0001
0000
1000
0000
,
0010
0000
0100
0000
0000
0001
0000
0100
0000
0001
0100
0000
0010
0000
1000
0000
,
0100
0000
1000
0100
0010
0100
0000
01M0
0001
0000
1000
0000
0010
0000
0100
0000
,
0001
0000
0010
0000
0100
1000
0000
0100
0000
0010
0001
0000
0100
0000
0010
0000
,
0100
0000
0001
0010
0000
0100
0000
1000
0001
0000
0100
0000
0020
0000
1030
0000
,
0010
0000
0100
0000
0010
1000
0000
0001
0000
0010
0100
0000
1000
0000
0001
0000
,
1000
0000
0010
0100
0001
1000
0100
0010
0100
0010
0001
0100
0010
0000
1000
0000
,
0001
0000
0100
0000
0001
0100
0000
0001
0000
0100
0001
0010
0100
0000
0100
0000
,
1000
0000
0010
0100
0001
0100
0000
010M
1000
0000
0100
0000
0020
0000
0031
0000
,
0100
0000
0010
0000
1000
0010
0000
0100
0000
0001
0010
0000
0010
0000
0100
0000
,
1000
0000
0001
0100
0010
1000
0000
0010
0000
1000
0100
0000
0010
0000
0001
0000
,
1000
0000
0010
0000
0100
0001
0000
0010
0000
0100
1000
0000
1000
0000
0100
0000
,
0110
0000
0010
0001
0100
0010
0000
1000
0010
0000
0100
0000
0001
0000
0010
0000
,
0100
0010
0001
1000
0010
1000
0100
0010
0001
0100
0001
1000
0010
0100
0001
1000
,
0001
0000
0001
0000
0100
0001
1000
0001
0100
0010
0100
0010
1100
0000
0000
0000
,
0001
0000
1000
0000
0001
0010
0000
001M
0000
0010
0001
0000
2000
0000
3010
0000
,
0100
0000
0010
1000
0001
0010
0000
001M
1000
0000
0100
0000
0020
0000
0031
0000
,
0100
0000
0001
0000
1000
0010
0000
M010
0000
0010
1000
0000
0002
0000
0013
0000
,
0100
0000
1000
0001
1000
0100
0000
01M0
0001
0000
1000
0000
2002
0000
3003
0000
,
1000
0000
0001
0000
1000
0100
0000
M100
0000
0100
1000
0000
0002
0000
0103
0000
,
0010
0000
0100
0001
1000
0100
0000
M100
0001
0000
0010
0000
0200
0000
1300
0000
,
0010
0000
1000
0000
0001
0100
0000
010M
0000
0100
0001
0000
2000
0000
3001
0000
,
0100
0000
0001
1000
0010
M010
0001
0010
0000
0010
0001
0100
0010
1000
0001
0010
,
0101
0000
1000
0000
1000
0010
0000
M010
0000
0010
1000
0000
0002
0000
0103
0000
,
0010
0000
1000
0001
1000
0010
0000
M010
0001
0000
0100
0000
0020
0000
1030
0000
,
0100
0000
0010
0000
0001
0010
0000
001M
0000
0010
0001
0000
2000
0000
3100
0000
,
0010
0000
0001
1000
0001
0100
000M
0100
1000
0000
0001
0000
2002
0000
3003
0000
,
0001
0000
1000
0000
0001
0100
0000
010M
0000
0100
0001
0000
2000
0000
3100
0000
,
0010
0000
0100
1000
0001
0100
0000
010M
1000
0000
0010
0000
0200
0000
0301
0000
,
0010
0000
0100
0000
1000
0100
0000
M100
0000
0100
1000
0000
0002
0000
0013
0000
,
0101
0000
0000
0000
1000
0000
0010
0000
0100
0000
0010
0000
1000
0000
0001
0000
0010
0000
0100
0000
0010
0000
0100
0000
1010
0000
0000
0000
0001
1000
0001
1000
,
0001
0000
0010
0000
0001
0010
0000
001M
0000
0010
0001
0000
2010
0000
3100
0000
,
1000
0000
0001
1000
0001
0010
0000
001M
1000
0000
0100
0000
1020
0000
0031
0000
,
0100
0000
0001
0000
1000
0010
0000
M010
0000
0010
1000
0000
0102
0000
0013
0000
,
0001
0000
0100
0001
1000
0100
0000
M100
0001
0000
1000
0000
2002
0000
3003
0000
,
1000
0000
0100
0000
1000
0100
0000
M100
0000
0100
1000
0000
0102
0000
0013
0000
,
0001
0000
1000
0001
1000
0100
0000
M100
0001
0000
0010
0000
0201
0000
1300
0000
,
0010
0000
1000
0000
0001
0100
0000
010M
0000
0100
0001
0000
2010
0000
3100
0000
,
1000
0000
0010
1000
0010
M010
0001
0010
0000
0010
0100
1000
0010
0100
0001
1000
,
0101
0000
1000
0001
1000
0010
0000
0M10
0000
0010
1000
0000
0102
0000
1003
0001
,
1000
0100
1000
0100
0010
0100
0000
01M0
0001
0100
0010
0000
1200
0000
0301
0010
,
0100
0000
1000
0001
1000
0010
0000
M010
0000
0010
1000
0000
0201
0000
1300
0001
,
1000
0001
0010
0001
0100
0010
0000
0M10
0001
1000
0010
0000
0220
0000
0330
0000
,
0100
0000
0001
0000
1010
0100
0000
01M0
0000
0100
1000
0010
0100
0010
1000
0000
,
0011
0000
1000
0010
0100
0010
0000
0M10
0001
1000
0001
0000
2010
0000
3001
0000
,
1100
0000
0001
1000
0000
0001
0000
0010
0101
1000
0010
0000
1000
0000
0001
0000
,
1100
0000
0001
0000
0000
1000
0000
0001
0000
1000
0010
0100
0001
0100
0010
1000
,
0101
0000
1000
0100
0000
010M
0000
0100
0000
1000
0100
0000
0010
0001
0100
0000
,
0011
0000
1000
0100
0000
01M0
0000
0100
0000
1000
0001
0000
0010
0100
1000
0000
,
0011
0000
1000
0010
0000
M010
0000
0010
0000
0100
0010
0000
1000
0100
0010
0000
,
0101
0000
1000
0010
0000
0M10
0000
0010
0000
0100
0001
0000
0010
0100
1000
0000
,
0011
0000
1000
0010
0000
0M10
0000
0010
0000
1000
0010
0000
0100
0001
0010
0000
,
0101
0000
1000
0010
0000
0M10
0000
0010
0000
0100
0001
0000
1000
0010
0100
0000
,
0011
0000
1000
0100
0000
01M0
0000
0100
0000
0010
0100
0000
1000
0001
0010
0000
,
0101
0000
0010
0100
0000
01M0
0000
0100
0000
1000
0001
0000
0100
0010
0100
0000
,
1100
0000
0001
0010
0000
0M10
0000
0010
0000
0001
0010
0000
0100
1000
0001
0000
,
1010
0000
0001
0010
0000
0M10
0000
0010
0000
0001
1000
0000
0100
0010
0001
0000
,
1100
0000
0001
0100
0000
01M0
0000
0100
0000
0010
0100
0000
0001
1000
0100
0000
,
1010
0000
0001
0100
0000
01M0
0000
0100
0000
0010
1000
0000
0100
0010
0001
0000
,
1100
0000
0010
0100
0000
01M0
0000
0100
0000
0001
0100
0000
0010
1000
0100
0000
,
1010
0000
0001
0100
0000
01M0
0000
0100
0000
0010
1000
0000
0001
1000
0100
0000
,
1010
0000
0001
0010
0000
0M10
0000
0010
0000
0001
1000
0000
0001
0100
0010
0000
,
2200
0000
0000
0000
0000
0000
0000
3300
,
0011
0000
M010
0000
0001
0100
000M
0100
1000
0000
0001
0000
1000
0010
0100
0000
,
0011
0000
M010
0000
0001
0010
000M
0010
1000
0000
0010
0000
1000
0100
0010
0000
,
0101
0000
M100
0000
0001
0100
000M
0100
1000
0000
0100
0000
1000
0100
0010
0000
,
0101
0000
01M0
0000
0001
0100
000M
0100
1000
0000
1000
0000
0010
0100
0001
0000
,
1010
0000
001M
0000
1000
0100
M000
0100
0001
0000
1000
0000
0001
0010
0100
0000
,
1010
0000
0M10
0000
1000
0010
M000
0010
0001
0000
0010
0000
0100
1000
0010
0000
,
1100
0000
01M0
0000
1000
0100
0000
M100
0001
0000
0001
0000
1000
0001
0010
0000
,
0101
0000
01M0
0000
0001
0010
000M
0010
1000
0000
0001
0000
0100
0000
0010
0000
,
1100
0000
010M
0000
1000
0010
M000
0010
0001
0000
1000
0000
0001
0100
0010
0000
,
1100
0000
010M
0000
1000
0100
M000
0100
0001
0000
0100
0000
0001
0010
0100
0000
,
1010
0000
001M
0000
1000
0010
M000
0010
0001
0000
0010
0000
0001
1000
0010
0000
,
1100
0000
010M
0000
1000
0100
M000
0100
0001
0000
0002
0000
2003
0000
3020
0000
,
0230
0000
0001
0000
0001
0302
0023
0230
,
1001
0000
1000
0000
1300
0200
0310
0002
,
1103
0000
0010
0000
1000
0000
0001
0000
1000
0010
0100
0001
0010
0100
1000
0010
,
1200
0000
0000
0000
,
0310
0000
0000
0000
,
0000
0000
000M
0000
;
