#TITLE:The Way You Love Me (Love To Infinity Remix);
#SUBTITLE:;
#ARTIST:Faith Hill;
#TITLETRANSLIT:;
#SUBTITLETRANSLIT:;
#ARTISTTRANSLIT:;
#GENRE:;
#CREDIT:;
#BANNER:The Way You Love Me (Love To Infinity Remix).png;
#BACKGROUND:The Way You Love Me (Love To Infinity Remix)-bg.png;
#LYRICSPATH:;
#CDTITLE:;
#MUSIC:The Way You Love Me (Love To Infinity Remix).ogg;
#OFFSET:-0.020;
#SAMPLESTART:33.480;
#SAMPLELENGTH:15.000;
#SELECTABLE:YES;
#DISPLAYBPM:122.000;
#BPMS:0.000=121.880
;
#STOPS:
;
#BGCHANGES:;
#KEYSOUNDS:;
#ATTACKS:;

//---------------dance-single - ----------------
#NOTES:
     dance-single:
     :
     Hard:
     9:
     0.356,0.391,0.280,0.056,0.257,231.000,30.000,6.000,0.000,0.000,0.000,0.356,0.391,0.280,0.056,0.257,231.000,30.000,6.000,0.000,0.000,0.000: // measure 0
0000
0000
0000
0000
,  // measure 1
0000
0000
0000
0000
,  // measure 2
0000
0000
0000
0000
,  // measure 3
0000
0000
0000
0000
,  // measure 4
0000
0000
0000
0000
,  // measure 5
0000
0000
0000
0000
,  // measure 6
0000
0000
0000
0000
,  // measure 7
0000
0000
0000
0000
,  // measure 8
0000
0000
0000
0000
0000
0000
0000
0001
,  // measure 9
1000
0001
1001
0000
,  // measure 10
0010
0000
0100
0000
0110
0000
0000
0001
,  // measure 11
1000
0000
0001
0010
0100
0000
0010
0000
,  // measure 12
0001
0100
1010
0000
,  // measure 13
0000
0000
0010
0000
0000
0100
0000
0000
0001
0000
0000
0010
0000
0000
0100
0000
,  // measure 14
0000
1001
0000
0000
0110
0000
0110
0000
,  // measure 15
0000
0000
0010
0000
0000
0100
0000
0000
1000
0000
0000
0100
0000
0000
0010
0000
,  // measure 16
0000
0110
0000
0000
0011
0000
0011
0000
,  // measure 17
0010
0000
0000
0000
1000
0000
0000
0000
0100
0000
0010
0200
0000
0000
0310
0000
,  // measure 18
0000
0000
0002
0000
0000
0000
1003
0100
0000
0000
0010
0000
0100
0000
1000
0000
,  // measure 19
0010
0000
0000
1000
0001
0000
0100
0000
1000
0000
0010
0000
1000
0000
0001
1000
,  // measure 20
0001
0000
0010
0100
0000
0000
0010
1000
0000
0000
0100
0010
0000
0100
0001
0000
,  // measure 21
0010
0000
0000
0000
1000
0000
0000
0000
0100
0000
0010
0100
0000
0000
0010
0000
,  // measure 22
0000
0000
0001
0000
1000
0000
0010
1000
0000
0000
0010
0100
0000
0000
0010
0000
,  // measure 23
0000
0000
0001
0000
1000
0000
0010
0100
0000
0000
0001
0100
0000
0000
0010
0000
,  // measure 24
0210
0000
0000
0000
0000
0000
0000
0000
0310
0000
0001
1000
0000
0000
0001
0000
,  // measure 25
1000
0010
0100
0001
,  // measure 26
1000
0000
0010
1000
0000
0100
0001
0000
0000
0000
0001
0010
0000
0000
1000
0000
,  // measure 27
0000
0100
0000
0000
0010
0000
0000
0000
0100
0000
0000
0000
1000
0000
0000
0000
,  // measure 28
0001
0010
0001
0010
0001
0010
0001
0010
0001
0010
0001
0010
0001
0000
0000
0000
,  // measure 29
0100
1000
1010
0000
,  // measure 30
0010
0100
0011
0000
,  // measure 31
0011
1100
0110
1001
,  // measure 32
0010
1000
1001
0000
,  // measure 33
0000
0000
0010
0000
0000
0001
0000
0000
1000
0000
0000
0001
0000
0000
0100
0000
,  // measure 34
0010
0000
0000
1000
0101
0000
0011
0000
,  // measure 35
0000
0000
0010
0000
0000
0100
0000
0000
1000
0000
0000
0010
0000
0000
0100
0000
,  // measure 36
0001
0000
0000
0010
1100
0000
0110
0000
,  // measure 37
0001
0000
0000
0000
1000
0000
0000
0000
0010
0000
1000
0001
0000
0000
0010
0000
,  // measure 38
0000
0000
0020
0000
0000
0000
1030
0100
0000
0000
0010
0000
0100
0000
1000
0000
,  // measure 39
0010
0000
0000
0100
0001
0000
0010
0000
0100
0000
1000
0000
0010
0000
1000
0001
,  // measure 40
1000
0000
0010
0001
0000
0000
1000
0010
0000
0000
0100
0010
0000
1000
0001
0000
,  // measure 41
0010
0000
0000
0000
0100
0000
0000
0000
0010
0000
0001
0100
0000
0000
0010
0000
,  // measure 42
0000
0000
0001
0000
0100
0000
1000
0100
0000
0000
0010
0100
0000
0000
0001
0000
,  // measure 43
0000
0000
0010
0000
0100
0000
1000
0010
0000
0000
0100
0001
0000
0000
0010
0000
,  // measure 44
1002
0000
0000
0000
0000
0000
0000
0000
0103
0000
1000
0010
0000
0000
0100
0000
,  // measure 45
0101
0011
1100
1001
,  // measure 46
0010
0000
1000
0010
0000
1000
0100
0000
0000
0000
0010
0200
0000
0000
0000
0000
,  // measure 47
0000
0310
0000
0000
0001
0000
0000
0000
1010
0000
0000
0000
0101
0000
0000
0000
,  // measure 48
0100
1000
0100
1000
0100
1000
0100
1000
0100
0000
0010
0100
0000
0000
0001
0000
,  // measure 49
0011
1100
0000
0000
;

//---------------dance-single - ----------------
#NOTES:
     dance-single:
     :
     Challenge:
     8:
     0.312,0.343,0.682,0.047,0.070,156.000,73.000,5.000,21.000,0.000,0.000,0.312,0.343,0.682,0.047,0.070,156.000,73.000,5.000,21.000,0.000,0.000:
0000
0000
0000
0000
,
0000
0000
0000
0000
,
0000
0000
0000
0000
,
0000
0000
0000
0000
,
0000
0000
0000
0000
,
0000
0000
0000
0000
,
0000
0000
0000
0000
,
0000
0000
0000
0000
,
0000
0000
0000
0000
0000
0000
0000
0001
,
1001
0101
0011
0000
,
1010
0000
0110
0000
1001
0000
0000
0010
,
0110
1001
0101
1010
,
0110
1010
0110
0000
,
0000
0000
0010
0000
0000
0001
0000
0000
1000
0000
0000
0000
0010
0000
0000
0000
,
2MMM
0000
3010
0010
,
0000
0000
0100
0000
0000
0010
0000
0000
1000
0000
0000
0000
0100
0000
0000
0000
,
MMM2
0000
0103
0100
,
1000
1001
0010
1001
,
0000
0100
0110
1001
,
0110
0001
0100
1000
,
0010
0000
1000
0100
0000
0000
0001
0100
0000
0000
0010
1000
0000
0001
1000
0000
,
0010
1001
0100
1010
,
0100
0011
0110
1001
,
0000
0101
0011
1001
,
0120
0000
0130
1000
,
0001
0100
0001
0100
,
1000
0000
0010
0001
0000
1000
0010
0000
0000
0000
MMMM
0000
0100
0000
0000
0000
,
0010
0100
0010
0100
,
0001
0MM0
0000
M00M
,
1100
0110
0011
0000
,
0011
0110
1010
0000
,
0110
0011
1010
0110
,
0011
1001
0110
0000
,
0000
1010
0110
1001
,
0101
0M0M
1010
1001
,
0000
0011
1010
0110
,
1001
MMM0
0101
0011
,
0010
1001
0001
0110
,
1000
0101
0001
1001
,
0010
1010
0110
1001
,
0001
0000
1000
0001
0000
0000
0010
1000
0000
0000
0010
0100
0000
0001
0100
0000
,
0010
1001
0100
0110
,
1000
1010
0101
0011
,
0000
0011
0110
1010
,
1002
0000
0103
0010
,
1000
0100
0010
0001
,
1000
0000
0100
0010
0000
0100
0001
0000
0000
0000
0010
0200
0000
0000
0000
0000
,
0300
0010
0001
M00M
,
0110
0110
0110
0110
,
0110
0000
0000
0000
;

//---------------dance-single - ----------------
#NOTES:
     dance-single:
     :
     Medium:
     6:
     0.266,0.275,0.271,0.196,0.000,149.000,29.000,21.000,0.000,0.000,0.000,0.266,0.275,0.271,0.196,0.000,149.000,29.000,21.000,0.000,0.000,0.000:
0000
0000
0000
0000
,
0000
0000
0000
0000
,
0000
0000
0000
0000
,
0000
0000
0000
0000
,
0000
0000
0000
0000
,
0000
0000
0000
0000
,
0000
0000
0000
0000
,
0000
0000
0000
0000
,
0000
0000
0000
0000
0000
0000
0000
0010
,
1000
0101
0011
0000
,
0010
0000
1001
0000
0101
0000
0000
0010
,
0100
1001
0001
1001
,
0010
1100
0101
0000
,
0000
0001
1000
0010
,
0100
0000
1001
1001
,
0000
1000
1010
0100
,
0011
0000
1010
0110
,
0002
1000
1000
1003
,
0000
2000
0010
3010
,
0100
1002
0100
1003
,
1002
0100
2003
0010
,
3100
0001
0100
1000
,
0000
0020
0100
1030
,
0000
1001
0110
1001
,
1002
0000
0103
1000
,
0010
0010
1000
0100
,
1000
0010
1000
0100
,
1001
1001
0010
0010
,
0100
0010
0100
0010
0100
0010
0100
0000
,
0001
0110
1100
0000
,
0010
1001
0101
0000
,
1000
0010
0100
0001
,
1000
1001
0101
0000
,
0000
0010
0100
1000
,
0010
0000
0001
1000
,
0000
0002
1000
0103
,
1000
0000
0010
0100
,
2000
0001
3001
0100
,
0000
0002
1000
0103
,
2000
0010
3200
0310
,
0002
1000
1000
1003
,
0020
0100
2030
0001
,
3200
0010
0301
1000
,
0000
0002
1000
0103
,
2001
0000
3001
0010
,
0002
1000
0103
1000
,
0020
0100
1030
0001
,
2000
0001
3100
0010
,
1000
0001
1000
0001
1000
0001
1000
0001
,
1000
0000
0000
0000
;

//---------------dance-single - ----------------
#NOTES:
     dance-single:
     :
     Easy:
     5:
     0.242,0.298,0.402,0.000,0.000,138.000,43.000,0.000,0.000,0.000,0.000,0.242,0.298,0.402,0.000,0.000,138.000,43.000,0.000,0.000,0.000,0.000:
0000
0000
0000
0000
,
0000
0000
0000
0000
,
0000
0000
0000
0000
,
0000
0000
0000
0000
,
0000
0000
0000
0000
,
0000
0000
0000
0000
,
0000
0000
0000
0000
,
0000
0000
0000
0000
,
0000
0000
0000
0000
,
1000
0100
1001
0000
,
0010
0100
0110
0000
,
0001
1000
0001
1000
,
0010
0100
0110
0000
,
0000
0001
1000
0010
,
0110
0000
1001
1001
,
0000
0010
0100
1000
,
0110
0110
1001
1001
,
0010
1000
0100
1000
,
0000
0010
0100
0110
,
0000
0001
1000
0010
,
0110
1001
0110
1001
,
0001
1000
0010
0110
,
0000
0001
1000
1001
,
0000
0010
0100
0010
,
0110
0000
0010
0100
,
1001
1001
0010
0010
,
0100
1000
0010
1000
,
1001
1001
0010
0010
,
0100
0100
0100
0001
,
1000
0010
1001
0000
,
0100
0010
0110
0000
,
0001
1000
0010
1000
,
0100
0001
1001
0000
,
0000
0010
0100
1000
,
0110
0000
1001
1001
,
0000
0010
0100
0010
,
0110
0000
1001
1001
,
1000
0001
0100
1000
,
0000
0010
0100
0010
,
0000
0100
0001
1000
,
0010
0100
0001
1000
,
0001
1000
0001
1001
,
0000
0010
0100
0110
,
0000
0001
1000
0010
,
1001
0000
0110
0110
,
0110
0110
0001
0001
,
1000
0010
0100
0010
,
0110
0110
1000
0001
,
1001
0001
1001
0010
,
0110
0000
0000
0000
;

//---------------dance-single - ----------------
#NOTES:
     dance-single:
     :
     Beginner:
     3:
     0.141,0.252,0.084,0.000,0.000,97.000,9.000,0.000,0.000,0.000,0.000,0.141,0.252,0.084,0.000,0.000,97.000,9.000,0.000,0.000,0.000,0.000:
0000
0000
0000
0000
,
0000
0000
0000
0000
,
0000
0000
0000
0000
,
0000
0000
0000
0000
,
0000
0000
0000
0000
,
0000
0000
0000
0000
,
0000
0000
0000
0000
,
0000
0000
0000
0000
,
0000
0000
0000
0000
,
1000
1000
1000
0000
,
0001
0001
0001
0000
,
0010
0010
0010
0000
,
0100
0100
0100
0000
,
0000
0001
0000
1000
,
0000
0010
0010
0010
,
0000
0100
0000
0001
,
0000
0010
0010
0010
,
0100
0000
0001
0000
,
0000
0010
0000
0100
,
0100
0000
0001
0000
,
1001
1001
1001
1001
,
1001
0000
0001
0000
,
0000
1000
1000
1000
,
0000
0001
0001
0000
,
0010
0000
0000
0000
,
0100
0100
0000
0000
,
0010
0000
0000
0000
,
0001
0001
0000
0000
,
0000
0000
0000
0000
,
0010
0010
0010
0000
,
0100
0100
0100
0000
,
0001
0001
0001
0000
,
1000
1000
1000
0000
,
0000
0010
0000
0100
,
0000
0001
0001
0001
,
0000
0010
0000
0100
,
0000
1000
1000
0001
,
0010
0000
0100
0000
,
0000
1000
1000
1000
,
0000
0010
0010
0010
,
0100
0000
0000
0000
,
0000
0010
0000
0001
,
0000
0010
0000
0100
,
0000
1000
1000
1000
,
1000
0000
1001
1001
,
1001
1001
0000
0000
,
0001
0000
0001
0000
,
0000
1000
1000
0000
,
0010
0010
0010
0010
,
0010
0000
0000
0000
;
