#VERSION:0.81;
#TITLE:Ronald Rocks Out;
#SUBTITLE:;
#ARTIST:Ronald McDonald;
#TITLETRANSLIT:;
#SUBTITLETRANSLIT:;
#ARTISTTRANSLIT:;
#GENRE:;
#ORIGIN:;
#CREDIT:;
#BANNER:Ronald Rocks Out.png;
#BACKGROUND:Ronald Rocks Out-bg.png;
#PREVIEWVID:;
#JACKET:Ronald Rocks Out-jacket.PNG;
#CDIMAGE:;
#DISCIMAGE:;
#LYRICSPATH:;
#CDTITLE:;
#MUSIC:Ronald Rocks Out.ogg;
#OFFSET:-0.060;
#SAMPLESTART:28.516;
#SAMPLELENGTH:15.000;
#SELECTABLE:YES;
#DISPLAYBPM:159.000;
#BPMS:0.000=159.000;
#STOPS:;
#DELAYS:;
#WARPS:;
#TIMESIGNATURES:0.000=4=4;
#TICKCOUNTS:0.000=4;
#COMBOS:0.000=1;
#SPEEDS:0.000=1.000=0.000=0;
#SCROLLS:0.000=1.000;
#FAKES:;
#LABELS:0.000=Song Start;
#BGCHANGES:0.000=Ronald Rocks Out.avi=1.000=0=0=1=====,
158.000=Ronald Rocks Out-bg.PNG=1.000=0=0=1=====,
99999=-nosongbg-=1.000=0=0=0 // don't automatically add -songbackground-
;
#KEYSOUNDS:;
#ATTACKS:
;

//---------------dance-single - ----------------
#NOTEDATA:;
#CHARTNAME:;
#STEPSTYPE:dance-single;
#DESCRIPTION:;
#CHARTSTYLE:;
#DIFFICULTY:Challenge;
#METER:14;
#RADARVALUES:0.685,0.559,0.318,0.352,0.000,246.000,19.000,21.000,0.000,0.000,0.000,0.000,0.000,0.685,0.559,0.318,0.352,0.000,246.000,19.000,21.000,0.000,0.000,0.000,0.000,0.000;
#CREDIT:;
#DISPLAYBPM:159.000;
#NOTES:
2000
0000
3001
0100
1000
0010
0000
0000
,
0010
1000
0000
0001
0000
1000
0000
2002
,
0000
3003
0001
0000
1000
0000
0001
0000
,
1000
0010
0000
2002
3003
0001
0100
1000
,
0010
1000
0100
0010
0001
1000
0100
0022
,
0000
0033
1000
0100
0001
0100
0010
1000
,
0001
0010
0100
1000
0010
1000
0100
1000
,
0010
0100
1000
0100
0001
0010
0000
0010
,
0100
1000
0010
0002
0000
0103
1000
0010
,
1000
0001
0011
0000
0010
0100
1000
0100
,
0001
1000
0000
0001
0000
0001
1010
0000
,
1000
0100
0010
0000
0000
0001
0101
0000
,
0001
0100
1000
0000
0010
0000
0100
1001
,
0000
0000
0010
0100
1000
0100
0010
0001
,
0100
1000
0100
0001
0010
0100
1000
0100
,
0010
0001
0100
0011
0000
1001
0000
0000
,
0010
0100
1000
1001
0000
0101
0000
0000
,
0000
0000
1000
0001
0101
0000
0011
0000
,
1001
0000
0010
1000
0100
1000
0010
1000
,
0001
0100
0010
2000
0000
3001
0010
0100
,
1000
0100
0001
0020
0000
0130
1000
0100
,
1000
0010
1000
0002
0000
0103
1000
0010
,
1000
0100
1000
0010
0000
0001
0100
0001
,
1000
0010
0000
0100
0000
1000
0000
0001
,
0100
0000
0001
2000
0000
3010
0000
1000
,
0010
0000
1000
0002
0000
0103
1000
0000
,
1010
0000
0101
0000
0011
0000
0001
0100
,
1000
0010
1000
0100
1000
0010
1000
0100
,
1000
0010
0100
0001
0010
0100
0000
1000
,
0010
0100
0001
2000
0000
3010
0000
0000
,
0000
0010
0100
1000
0100
0001
0011
0000
,
1001
0000
0001
0100
1000
0100
0001
0010
,
0100
1000
0100
2000
0000
3010
0100
0001
,
0010
0100
1000
0020
0000
0130
1000
0100
,
0001
0010
0100
0002
0000
0013
0100
1000
,
0010
0001
1000
0200
0000
0310
0001
1000
,
0100
0001
0010
2000
0000
3001
0100
1000
,
0010
1000
0100
0020
0000
0130
0001
1000
,
0100
0010
1000
0002
0000
1003
0100
1000
,
0010
1000
0001
0000
0000
0000
0000
0000
;

//---------------dance-single - ----------------
#NOTEDATA:;
#CHARTNAME:;
#STEPSTYPE:dance-single;
#DESCRIPTION:;
#CHARTSTYLE:;
#DIFFICULTY:Hard;
#METER:13;
#RADARVALUES:0.646,0.592,0.318,0.369,0.000,229.000,19.000,22.000,0.000,0.000,0.000,0.000,0.000,0.646,0.592,0.318,0.369,0.000,229.000,19.000,22.000,0.000,0.000,0.000,0.000,0.000;
#CREDIT:;
#DISPLAYBPM:159.000;
#NOTES:
// measure 0
2001
0000
3002
0000
1003
0100
0000
0000
,  // measure 1
0010
0100
0000
0001
0000
1000
0000
2002
,  // measure 2
0000
3003
0100
0000
0010
0000
1000
0000
,  // measure 3
0001
1000
0000
0010
0000
1000
0100
0010
,  // measure 4
0001
1000
0100
0010
0002
0000
1003
0010
,  // measure 5
0000
0000
0110
0000
0110
0000
0001
1000
,  // measure 6
0002
0000
0003
0100
0000
0010
1000
0001
,  // measure 7
1000
0010
1000
0100
1000
0010
0000
0100
,  // measure 8
0001
0010
1000
2002
3003
0001
0100
1000
,  // measure 9
0010
1000
0101
0000
1010
0000
0010
1000
,  // measure 10
0001
1000
0000
0001
0000
1000
0010
0000
,  // measure 11
1000
0100
0010
0000
0000
0001
0010
0000
,  // measure 12
1000
0100
1000
0000
0002
0000
0103
1000
,  // measure 13
0000
0000
0110
0000
1001
0000
1000
0100
,  // measure 14
0020
0000
0030
0100
0000
0001
1000
0100
,  // measure 15
1000
0001
0100
0010
0000
1000
0000
0000
,  // measure 16
0001
0100
1000
0010
0000
1000
0000
0000
,  // measure 17
0000
0000
0010
1000
1001
0000
0101
0000
,  // measure 18
0011
0000
0000
1000
0010
0100
1000
0100
,  // measure 19
0001
0010
0100
2000
0000
3100
0010
0001
,  // measure 20
1000
0100
1000
0002
0000
0103
1000
0010
,  // measure 21
1000
0100
1000
0002
0000
0103
1000
0010
,  // measure 22
1000
0100
1000
0010
0000
0100
1000
0010
,  // measure 23
1000
0001
0000
0010
0000
0100
0000
0010
,  // measure 24
1000
0000
0100
1200
0000
0301
0000
0010
,  // measure 25
0001
0000
0100
1200
0000
0301
0010
0000
,  // measure 26
1001
0000
0101
0000
0011
0000
1000
0001
,  // measure 27
0100
0000
0000
0010
0000
1000
0100
0010
,  // measure 28
0001
1000
0100
1000
0010
1000
0000
0100
,  // measure 29
0001
0010
0100
1000
0000
1010
0000
0000
,  // measure 30
0000
0001
0100
1000
0100
0001
0010
0000
,  // measure 31
1001
0000
0001
0100
1000
0010
1000
0001
,  // measure 32
1000
0010
1000
0200
0000
0301
0010
1000
,  // measure 33
0100
0010
0001
2000
0000
3010
0100
0001
,  // measure 34
0010
0100
1000
0002
0000
0103
1000
0010
,  // measure 35
1000
0100
0010
0002
0000
1003
0100
1000
,  // measure 36
0010
1000
0100
0002
0000
1003
0100
1000
,  // measure 37
0010
1000
0100
0002
0000
1003
0100
1000
,  // measure 38
0010
1000
0100
0002
0000
1003
0100
1000
,  // measure 39
0010
1000
0001
0000
0000
0000
0000
0000
;

//---------------dance-single - ----------------
#NOTEDATA:;
#CHARTNAME:;
#STEPSTYPE:dance-single;
#DESCRIPTION:;
#CHARTSTYLE:;
#DIFFICULTY:Beginner;
#METER:3;
#RADARVALUES:0.196,0.197,0.168,0.000,0.000,72.000,10.000,0.000,0.000,0.000,0.000,0.000,0.000,0.196,0.197,0.168,0.000,0.000,72.000,10.000,0.000,0.000,0.000,0.000,0.000,0.000;
#CREDIT:;
#DISPLAYBPM:159.000;
#NOTES:
0010
0000
0000
0000
,
0100
0000
0000
0000
,
0000
0010
0010
0010
,
0010
0000
0000
0000
,
0100
0000
0010
0000
,
1001
0000
0000
0000
,
0010
0000
0000
0000
,
0000
1001
1001
0000
,
1000
0000
0001
0000
,
1001
0000
0000
0000
,
0000
0000
0000
0110
,
0110
0000
0000
0000
,
0001
0000
1000
0000
,
1001
0000
0000
0000
,
0010
0000
0000
0000
,
0100
0010
0010
0000
,
0010
0100
0100
0000
,
0000
0010
0010
0010
,
0010
0000
0000
0000
,
0001
0000
0001
0000
,
0001
0001
0000
0000
,
1000
0000
1000
0000
,
1000
0100
0000
0000
,
1001
0000
0000
0000
,
0010
0000
0010
0000
,
0100
0000
0100
0000
,
0010
0010
0100
0000
,
0010
0000
0000
0000
,
0000
1001
1001
0000
,
0010
0000
0010
0000
,
0000
0100
0100
0100
,
0100
0000
0000
0000
,
0010
0000
0100
0000
,
0010
0010
0000
0000
,
0100
0000
0010
0000
,
0100
0100
0000
0000
,
0010
0000
0100
0000
,
0001
0001
0000
0000
,
1000
0000
0001
0000
,
1000
0001
0000
0000
;

//---------------dance-single - ----------------
#NOTEDATA:;
#CHARTNAME:;
#STEPSTYPE:dance-single;
#DESCRIPTION:;
#CHARTSTYLE:;
#DIFFICULTY:Easy;
#METER:7;
#RADARVALUES:0.242,0.296,0.402,0.000,0.000,77.000,24.000,0.000,0.000,0.000,0.000,0.000,0.000,0.242,0.296,0.402,0.000,0.000,77.000,24.000,0.000,0.000,0.000,0.000,0.000,0.000;
#CREDIT:;
#DISPLAYBPM:159.000;
#NOTES:
0010
0000
0000
0000
,
0100
0000
0000
0000
,
0000
0010
0010
0010
,
0100
0000
0000
0000
,
0011
0000
0110
0000
,
1100
0000
0000
0000
,
1100
0000
0110
0000
,
0000
0001
0001
0000
,
1000
0000
0010
0000
,
0100
0100
0000
0000
,
0000
0000
0000
0001
,
1000
0010
0000
0010
,
1000
0100
1000
0000
,
1001
0000
0000
0000
,
0110
0000
1001
0000
,
0001
0000
0100
0000
,
1010
0000
0100
0000
,
0000
1001
1001
1001
,
1001
0000
0000
0000
,
0010
0000
1000
0000
,
1001
1001
0000
0000
,
0001
0000
0100
0000
,
1010
1010
0000
0000
,
0100
0000
0000
0000
,
0010
0000
0001
0000
,
1000
0000
0010
0000
,
1001
1001
1001
0000
,
0010
0000
0100
0000
,
0000
1000
0010
0000
,
0100
0000
0001
0000
,
0000
0110
0110
0110
,
0110
0000
0000
0000
,
1000
0000
0001
0000
,
1000
0010
0000
0000
,
0100
0000
0001
0000
,
0010
0100
0000
0000
,
1000
0000
0010
0000
,
1000
0100
0000
0000
,
0010
0000
0100
0000
,
0001
1000
0000
0000
;

//---------------dance-single - ----------------
#NOTEDATA:;
#CHARTNAME:;
#STEPSTYPE:dance-single;
#DESCRIPTION:;
#CHARTSTYLE:;
#DIFFICULTY:Medium;
#METER:9;
#RADARVALUES:0.376,0.362,0.519,0.101,0.000,120.000,31.000,6.000,0.000,0.000,0.000,0.000,0.000,0.376,0.362,0.519,0.101,0.000,120.000,31.000,6.000,0.000,0.000,0.000,0.000,0.000;
#CREDIT:;
#DISPLAYBPM:159.000;
#NOTES:
0010
0000
0000
0000
,
0100
0000
0000
0010
0000
0010
0000
0100
,
0000
0010
0001
1000
,
0010
0000
0000
1000
0000
0000
0001
0000
,
0100
0000
1000
0000
0010
0000
1000
0001
,
0000
1001
1001
0000
,
0110
1001
0110
1000
,
1000
0100
0011
0000
,
0010
0000
0001
1000
0000
0001
1000
0000
,
1001
0101
0000
0000
,
0010
0000
0000
0100
0000
1000
0010
0000
,
1100
0101
0000
0001
,
1010
0000
0110
0000
0011
0000
0001
1000
,
0000
0010
1000
0000
,
1001
0110
0011
0110
,
1000
0000
0000
0100
0000
0001
0000
0000
,
1000
0000
0000
0010
0000
1000
0000
0000
,
0000
0011
0110
1010
,
1001
0000
0000
0000
,
0001
0000
1000
0002
0000
0003
0001
0000
,
1000
0010
0000
0000
,
0010
0000
1000
0002
0000
0003
1000
0000
,
0100
1000
0000
0000
,
1000
0000
0000
0001
0000
0001
0000
0010
,
0100
0000
0010
0000
,
0100
0000
1000
0010
,
1001
1001
1001
0000
,
0010
0000
0011
0000
,
0000
1010
0110
0000
,
0001
0000
0010
0100
0000
1000
0000
0000
,
0000
0011
0110
1010
,
1001
0000
0000
0000
,
0001
0000
1000
0002
0000
0000
1003
0000
,
0010
0100
0000
0000
,
0010
0000
1000
0002
0000
0000
0103
0000
,
1000
0010
0000
0000
,
1000
0000
0001
0200
0000
0000
0301
0000
,
0010
1000
0000
0000
,
0001
0000
1000
0002
0000
0000
0103
0000
,
1000
0010
0000
0000
;
