#TITLE:Pop;
#SUBTITLE:;
#ARTIST:Houseboyz;
#TITLETRANSLIT:;
#SUBTITLETRANSLIT:;
#ARTISTTRANSLIT:;
#GENRE:;
#CREDIT:;
#BANNER:Pop.png;
#BACKGROUND:Pop-bg.png;
#LYRICSPATH:;
#CDTITLE:;
#MUSIC:Pop.ogg;
#OFFSET:-0.100;
#SAMPLESTART:59.618;
#SAMPLELENGTH:15.000;
#SELECTABLE:YES;
#DISPLAYBPM:132.000;
#BPMS:0.000=132.000
;
#STOPS:
;
#BGCHANGES:;
#KEYSOUNDS:;
#ATTACKS:;

//---------------dance-single - ----------------
#NOTES:
     dance-single:
     :
     Beginner:
     2:
     0.147,0.162,0.088,0.000,0.000,85.000,8.000,0.000,0.000,0.000,0.000,0.147,0.162,0.088,0.000,0.000,85.000,8.000,0.000,0.000,0.000,0.000:
0000
0000
0000
0000
,
0000
0000
0000
0000
,
0000
0000
0000
0000
,
0000
0000
0000
0000
,
0000
0000
0000
0000
,
0001
0000
0001
0000
,
0000
0000
1000
0000
,
0010
0000
0010
0000
,
0001
0000
0000
0000
,
1000
0000
1000
0000
,
0010
0000
0001
0000
,
1000
0000
1000
0000
,
0010
0000
0001
0000
,
1000
0000
0001
0000
,
0010
0000
0010
0000
,
1000
0000
0001
0000
,
1001
0000
0000
0000
,
1000
0000
0000
0000
,
0001
0000
0001
0000
,
0010
0000
0000
0000
,
0100
0000
0100
0000
,
0001
0000
1000
0000
,
0010
0000
0010
0000
,
1000
0000
0100
0000
,
0001
0001
0001
0000
,
1001
0000
0000
0000
,
0010
0000
0100
0000
,
1001
0000
0000
0000
,
0100
0000
0010
0000
,
1001
0000
0000
0000
,
0010
0000
0100
0000
,
1001
0000
0000
0000
,
0010
0010
0010
0000
,
1000
0000
0100
0000
,
0001
0000
0100
0000
,
1000
0000
0100
0000
,
0001
0001
0001
0000
,
1000
0000
0010
0000
,
0001
0000
0010
0000
,
1000
0000
0010
0000
,
0001
0001
0001
0000
,
1001
0000
1000
0000
,
1000
0000
1000
0000
,
0001
0000
0010
0000
,
0100
0100
0100
0000
,
1001
0000
0001
0000
,
0001
0000
0001
0000
,
1000
0000
0010
0000
,
0100
0100
0000
0110
;

//---------------dance-single - ----------------
#NOTES:
     dance-single:
     :
     Easy:
     4:
     0.185,0.189,0.099,0.044,0.000,104.000,9.000,4.000,0.000,0.000,0.000,0.185,0.189,0.099,0.044,0.000,104.000,9.000,4.000,0.000,0.000,0.000:
0000
0000
0000
0000
,
0000
0000
0000
0000
,
0000
0000
0000
0000
,
0000
0000
0000
0000
,
0000
0000
0000
0000
,
0010
0010
0010
0000
,
0000
0000
0001
1000
,
0100
0100
0100
0000
,
0020
0000
0000
0130
,
0001
0001
0001
0000
,
0000
0000
1000
0001
,
1000
1000
1000
0000
,
0020
0000
0000
0130
,
0001
0100
1000
0000
,
0010
0000
1000
0001
,
1000
0100
0001
0000
,
0010
0000
0100
0000
,
1001
0000
0000
0000
,
0110
0000
1000
0000
,
1001
0000
0000
0000
,
0110
0000
0001
0000
,
0100
1000
0100
1000
,
0100
0001
0200
0300
,
0010
0000
1000
0000
,
0001
0001
0001
0000
,
1000
0000
0100
0000
,
0010
0000
0001
0100
,
0010
0000
1000
0000
,
0001
0000
0100
1000
,
0001
0000
0100
0000
,
0010
0000
1000
0100
,
1000
0000
0010
0000
,
0100
0100
0100
0000
,
0010
0000
1001
0000
,
0100
0000
0010
0000
,
1000
0000
0001
0000
,
0100
0100
0100
0100
,
0010
0000
1001
0000
,
0100
0000
1000
0000
,
0010
0000
0001
0000
,
0110
0000
0000
1001
,
1000
0000
0001
0000
,
0100
0000
0001
0000
,
0010
0000
0001
0000
,
0100
0100
0100
0000
,
0010
0000
1000
0000
,
0100
0000
1000
0000
,
0010
0000
0100
0000
,
0020
0000
0030
1001
;

//---------------dance-single - ----------------
#NOTES:
     dance-single:
     :
     Medium:
     6:
     0.310,0.350,0.088,0.188,0.028,171.000,8.000,17.000,0.000,0.000,0.000,0.310,0.350,0.088,0.188,0.028,171.000,8.000,17.000,0.000,0.000,0.000:
0000
0000
0000
0000
,
0000
0000
0000
0000
,
0000
0000
0000
0000
,
0000
0000
0000
0000
,
0000
0000
0000
0000
,
0001
0100
1000
0000
,
0010
0000
1000
1000
,
0001
0100
1000
0000
,
0020
0000
0031
1001
,
0010
1000
0010
0000
,
0001
0000
0100
1000
,
0010
0100
0010
0000
,
0002
0000
1003
0110
,
0001
0100
1000
0000
,
0010
1000
0010
0100
,
0001
0010
1000
0000
,
0002
0023
0230
2300
,
3010
0000
0200
0002
0000
0000
0303
0000
,
1000
0000
0000
0100
0000
0000
0001
0000
0002
0000
0000
0000
0003
0000
0000
0000
,
0220
0330
0000
0000
,
1000
0000
0000
0010
0000
0000
0200
0000
0000
0000
0000
0000
0300
0000
0000
0000
,
0001
0000
0020
2000
0000
0000
3030
0000
,
0100
0000
0000
1000
0000
0000
0010
0000
0020
0000
0000
0000
0030
0000
0000
0000
,
0001
0000
1000
0000
0010
0100
0010
0000
,
0001
0000
0000
1000
0000
0000
0001
0000
1000
0000
0000
0000
0010
0000
0100
0000
,
0001
0100
1000
0100
,
0001
0000
0100
0000
1000
0000
0010
1000
,
0100
0001
0100
1000
,
0100
0000
0001
0000
0100
0000
0010
1000
,
0100
0001
0100
1000
,
0100
0000
0001
0000
0100
0000
1000
0010
,
0100
0001
0100
1000
,
0100
0100
0100
0100
0100
0000
1001
0000
,
0010
0000
1000
0100
1000
0000
0000
0000
,
0010
0001
1000
0000
0100
0000
0000
0000
,
0010
0000
0001
0100
0001
0000
0000
0000
,
1010
0001
1010
0001
,
0100
0000
0010
1000
0010
0000
0000
0000
,
0010
0001
1000
0000
0100
0000
0000
0000
,
0010
0000
0001
0100
0001
0000
0000
0000
,
0010
0000
0000
0010
0000
0000
0010
0000
0000
0000
0000
0000
1001
0000
0000
0000
,
0010
0000
1000
0000
0100
0001
0100
0000
,
1000
0010
1000
0000
0101
0000
0000
0000
,
0010
0000
0100
0000
0001
0100
0001
0000
,
2000
0000
0000
3001
,
0010
0000
1000
0000
0100
0001
0100
0000
,
1000
0010
0100
0001
0010
0000
0000
0000
,
0001
0000
0100
0000
1000
0010
1000
0000
,
0100
0010
0002
1003
;

//---------------dance-single - ----------------
#NOTES:
     dance-single:
     :
     Hard:
     9:
     0.434,0.431,0.254,0.243,0.111,230.000,23.000,22.000,0.000,0.000,0.000,0.434,0.431,0.254,0.243,0.111,230.000,23.000,22.000,0.000,0.000,0.000: // measure 0
0000
0000
0000
0000
,  // measure 1
0010
0000
0000
0010
0000
0000
0020
0000
0000
0000
0000
0000
0000
0000
0000
0000
,  // measure 2
0000
0000
0000
0000
0030
0000
0000
0000
0001
0000
0000
1000
0000
0000
0000
0000
,  // measure 3
0010
0000
0000
0010
0000
0000
0020
0000
0000
0000
0000
0000
0030
0000
0000
0000
,  // measure 4
2002
0000
3003
0100
,  // measure 5
0010
0000
0000
0010
0000
0000
1000
0000
0000
0000
0000
0000
0001
0000
0000
0000
,  // measure 6
0100
0000
0000
0000
1000
0000
0000
0000
1000
0000
0000
0001
0000
0000
0000
0000
,  // measure 7
0010
0000
0000
0010
0000
0000
0001
0000
0000
0000
0000
0000
1000
0000
0000
0000
,  // measure 8
0200
0010
0001
0310
,  // measure 9
1000
0000
0000
0100
0000
0000
1000
0000
0010
0000
0000
0000
1001
0000
0000
0000
,  // measure 10
0010
0000
0000
0000
1000
0000
0000
0000
0010
0000
0000
0100
0000
0000
0000
0000
,  // measure 11
0001
0000
0000
0010
0000
0000
0001
0000
0100
0000
0000
0000
1001
0000
0000
0000
,  // measure 12
0020
0100
1000
0130
,  // measure 13
0001
0000
0000
0100
0000
0000
0001
0000
1000
0000
0000
0000
0110
0000
0000
0000
,  // measure 14
0001
0000
0000
0000
0100
0000
0000
0000
1000
0000
0000
0010
0000
0000
0000
0000
,  // measure 15
1000
0000
0000
0100
0000
0000
1000
0000
0001
0000
0000
0000
0110
0000
0000
0000
,  // measure 16
0002
0010
1000
0013
,  // measure 17
1000
0100
0100
0000
0001
0100
1000
0000
,  // measure 18
0010
1000
1020
0130
,  // measure 19
0001
0001
0100
0000
1000
0100
0001
0000
,  // measure 20
0010
0001
0021
0130
,  // measure 21
0001
0100
1000
0000
0010
0100
1000
0000
,  // measure 22
0001
1000
0210
0301
,  // measure 23
1000
0010
0100
0000
0001
0010
0100
0000
,  // measure 24
2002
0000
0000
3003
,  // measure 25
0010
0000
1000
0000
0010
0100
0010
0000
,  // measure 26
1000
0100
0010
0001
0100
0000
1001
0000
,  // measure 27
0010
0000
0001
0000
0100
0010
0100
0000
,  // measure 28
1000
0010
0100
0001
0010
0000
1100
0000
,  // measure 29
0010
0000
1000
0000
0010
0100
0010
0000
,  // measure 30
0001
0010
0100
1000
0010
0000
0101
0000
,  // measure 31
0010
0000
0001
0000
0010
0100
0010
0000
,  // measure 32
0001
0100
1000
0010
0001
0000
0110
0000
,  // measure 33
1000
0000
0100
0000
0001
1000
0002
0000
,  // measure 34
1003
0000
0010
1000
1000
0000
0001
0001
,  // measure 35
0200
0310
1000
0100
,  // measure 36
0012
1003
2010
3001
,  // measure 37
0010
1000
0200
0000
0310
0001
0200
0000
,  // measure 38
0301
0001
0010
0000
1000
1000
0010
0000
,  // measure 39
1000
0001
0020
0000
0031
0100
1000
0000
,  // measure 40
0001
0000
0000
0100
0000
0000
2002
0000
3003
0000
0000
0000
0110
0000
0000
0000
,  // measure 41
0001
0000
0000
0000
0100
0000
0000
0000
1000
0000
0010
1000
0000
0000
0000
0000
,  // measure 42
0100
0010
0000
0100
0010
0000
0001
0000
0100
0000
0000
0000
1001
0000
0000
0000
,  // measure 43
0100
1000
0010
0000
0100
0001
0010
0000
,  // measure 44
1100
0000
0000
0110
0000
0000
0011
0000
0000
0000
0000
0000
1001
0000
0000
0000
,  // measure 45
0010
0000
1000
0000
0001
0000
0000
0000
0100
0000
0001
0100
0000
0000
0000
0000
,  // measure 46
0010
1000
0000
0010
1000
0000
0100
0000
0010
0000
0000
0000
1001
0000
0000
0000
,  // measure 47
0010
0001
0100
0000
0010
1000
0100
0000
,  // measure 48
0001
0010
0100
2000
0000
0000
3001
0000
;
