#VERSION:0.81;
#TITLE:Nobody's Supposed To Be Here (Hex Hector Dance Remix);
#SUBTITLE:;
#ARTIST:Deborah Cox;
#TITLETRANSLIT:;
#SUBTITLETRANSLIT:;
#ARTISTTRANSLIT:;
#GENRE:;
#ORIGIN:;
#CREDIT:;
#BANNER:Nobody's Supposed To Be Here (Hex Hector Dance Remix).png;
#BACKGROUND:Nobody's Supposed To Be Here (Hex Hector Dance Remix)-bg.png;
#PREVIEWVID:;
#JACKET:Nobody's Supposed To Be Here (Hex Hector Dance Remix)-jacket.PNG;
#CDIMAGE:;
#DISCIMAGE:;
#LYRICSPATH:;
#CDTITLE:;
#MUSIC:Nobody's Supposed To Be Here (Hex Hector Dance Remix).ogg;
#OFFSET:-0.040;
#SAMPLESTART:102.240;
#SAMPLELENGTH:15.000;
#SELECTABLE:YES;
#DISPLAYBPM:128.000;
#BPMS:0.000=128.000;
#STOPS:;
#DELAYS:;
#WARPS:;
#TIMESIGNATURES:0.000=4=4;
#TICKCOUNTS:0.000=4;
#COMBOS:0.000=1;
#SPEEDS:0.000=1.000=0.000=0;
#SCROLLS:0.000=1.000;
#FAKES:;
#LABELS:0.000=Song Start;
#BGCHANGES:;
#KEYSOUNDS:;
#ATTACKS:
;

//---------------dance-single - ----------------
#NOTEDATA:;
#CHARTNAME:;
#STEPSTYPE:dance-single;
#DESCRIPTION:;
#CHARTSTYLE:;
#DIFFICULTY:Hard;
#METER:10;
#RADARVALUES:0.495,0.529,0.656,0.346,0.096,334.000,89.000,47.000,0.000,0.000,0.000,0.000,0.000,0.495,0.529,0.656,0.346,0.096,334.000,89.000,47.000,0.000,0.000,0.000,0.000,0.000;
#CREDIT:;
#DISPLAYBPM:128.000;
#NOTES:
// measure 0
0000
0000
0000
0000
,  // measure 1
0000
0000
0000
0000
,  // measure 2
0000
0000
0000
0000
,  // measure 3
0000
0000
0000
0000
,  // measure 4
1000
0000
0001
0000
0000
0000
0001
1000
0000
0000
0000
0000
0001
0000
0100
0000
,  // measure 5
1000
0000
0010
0000
0000
0000
0100
0001
0000
0000
0010
0000
0100
0000
1000
0000
,  // measure 6
0010
0000
0100
0000
0000
0000
0001
0100
0000
0000
0000
0000
0010
0000
0100
0000
,  // measure 7
1000
0000
0010
0000
0000
0000
0100
0001
0000
0000
0000
0000
0010
0000
0100
0000
,  // measure 8
1000
0000
0010
0000
0000
0000
0100
0001
0000
0000
0010
0000
1000
0000
0100
0000
,  // measure 9
1000
0000
0100
0000
0000
0000
0100
0001
0000
0000
0010
0000
1000
0000
0100
0000
,  // measure 10
1000
0000
0100
0000
0000
0000
0100
0010
0000
0000
0000
0000
0001
0000
0010
0000
,  // measure 11
0100
0000
1000
0000
0000
0000
0001
1000
0000
0000
0000
0000
1000
0000
0001
0000
,  // measure 12
0010
0000
0100
0000
0000
0000
1000
0100
0000
0000
0010
0000
1000
0000
0001
0000
,  // measure 13
1000
0000
0001
0000
0000
0000
1000
0001
0000
0000
0010
0000
1000
0000
0100
0000
,  // measure 14
1000
0000
0001
0000
0000
0000
1000
0001
0000
0000
0000
0000
0100
0000
0010
0000
,  // measure 15
1000
0000
0100
0000
0000
0000
0001
0010
0000
0000
0000
0000
1000
0000
0010
0000
,  // measure 16
2200
0000
3300
0101
0000
0022
0000
0000
,  // measure 17
0033
0000
0000
0000
0001
1001
0000
0101
,  // measure 18
0011
0000
1001
0202
0000
0000
0303
0000
,  // measure 19
1010
0000
0000
0000
0001
0100
1001
0000
,  // measure 20
1001
0000
0000
0000
0110
0000
0000
1001
0000
0000
0000
0000
0010
0000
0100
0000
,  // measure 21
1000
0001
1000
0000
0000
0000
0000
1000
,  // measure 22
0001
0000
1000
1001
0000
0000
0001
0100
,  // measure 23
1000
0010
0101
0000
0000
0010
1000
0001
,  // measure 24
1001
0000
0110
0022
0000
0000
0033
0000
,  // measure 25
2200
0000
0000
0000
3300
0000
0110
0000
1001
0000
0000
0101
0000
0000
0011
0000
,  // measure 26
1001
0000
0000
2020
0000
3030
2002
0000
,  // measure 27
3003
0000
0001
0100
1000
0010
1000
0001
,  // measure 28
1000
0000
0010
1000
0000
0001
0100
1000
,  // measure 29
0010
1000
1001
0000
0000
0000
0000
0100
,  // measure 30
0010
0000
0001
0100
0000
0000
0220
0000
,  // measure 31
0330
1001
0000
1001
0000
0001
0100
1000
,  // measure 32
0010
0000
1000
0010
0000
0000
0010
0100
,  // measure 33
1000
0010
1000
0000
0100
0001
0010
0100
,  // measure 34
1000
0000
0100
0001
0000
0000
1000
0100
,  // measure 35
0010
0001
1000
0000
0001
0010
0100
1000
,  // measure 36
0010
0000
0100
1001
0000
0000
0100
1000
,  // measure 37
0011
1001
0101
0022
,  // measure 38
0000
0033
2200
3300
,  // measure 39
0202
0303
0022
0033
,  // measure 40
1001
0000
0000
0000
0110
0000
0000
0000
1000
0000
0000
0100
0000
0000
1000
0000
,  // measure 41
0010
0000
0000
0000
0000
0000
0100
0000
0001
0010
0100
0000
1000
0000
0100
0000
,  // measure 42
1001
0000
0000
0000
0101
0000
0000
0000
1000
0000
0000
0100
0000
0000
1000
0000
,  // measure 43
0010
0000
0100
0010
1000
0001
1000
0000
,  // measure 44
0001
0100
1000
0100
0001
0010
0100
1000
,  // measure 45
0101
1001
0101
0022
,  // measure 46
0000
0033
2020
3030
,  // measure 47
0202
0303
0022
0033
,  // measure 48
1010
0000
0000
0000
0110
0000
0000
0000
0001
0000
0000
0010
0000
0000
0100
0000
,  // measure 49
0000
0000
0000
0000
0000
0000
0010
0000
0100
1000
0100
0000
0010
0000
0100
0000
,  // measure 50
1100
0000
0101
0100
1000
0010
0100
1000
,  // measure 51
1001
0000
0101
0000
1010
0000
0100
1000
,  // measure 52
0010
1000
0100
1000
,  // measure 53
1001
0101
0011
1001
,  // measure 54
0220
0330
2002
3003
,  // measure 55
0202
0303
0022
0033
,  // measure 56
1001
0000
0000
0000
0101
0000
0000
0000
1000
0000
0000
0100
0000
0000
1000
0000
,  // measure 57
0010
0000
0000
0000
0000
0000
0010
0000
0100
1000
0100
0000
0001
0000
0100
0000
,  // measure 58
1000
0000
0100
0010
1000
0100
1000
0010
,  // measure 59
0101
0011
1010
0100
,  // measure 60
0001
0100
1000
0010
0100
1000
0100
1000
,  // measure 61
0011
1001
0110
1010
,  // measure 62
0101
0000
2002
3003
,  // measure 63
0202
0303
0022
0033
,  // measure 64
1010
0000
0000
0000
0110
0000
0000
0000
0010
0000
0000
1000
0000
0000
0001
0000
,  // measure 65
1000
0000
0000
0000
0000
0000
0010
0000
1000
0100
0010
0000
0001
0000
0100
0000
,  // measure 66
1001
0000
0101
0001
0100
1000
0100
1000
,  // measure 67
0011
0000
1001
0000
0101
0000
0001
0100
,  // measure 68
1000
0100
0001
0010
,  // measure 69
1001
0101
0011
1001
,  // measure 70
0110
0000
0000
0000
0000
0000
0000
0000
0010
0000
0000
1000
0000
0000
0001
0000
,  // measure 71
1000
0000
0000
0000
0000
0000
0000
0000
0000
0010
0000
0200
0000
0000
0310
0000
;

//---------------dance-single - ----------------
#NOTEDATA:;
#CHARTNAME:;
#STEPSTYPE:dance-single;
#DESCRIPTION:;
#CHARTSTYLE:;
#DIFFICULTY:Medium;
#METER:8;
#RADARVALUES:0.339,0.476,0.582,0.464,0.052,180.000,79.000,63.000,0.000,0.000,0.000,0.000,0.000,0.339,0.476,0.582,0.464,0.052,180.000,79.000,63.000,0.000,0.000,0.000,0.000,0.000;
#CREDIT:;
#DISPLAYBPM:128.000;
#NOTES:
0000
0000
0000
0000
,
0000
0000
0000
0000
,
0000
0000
0000
0000
,
0000
0000
0000
0000
,
1000
0000
0000
0000
0000
0000
0000
0001
0000
0000
0000
0000
0000
0000
0000
0000
,
0010
0000
0000
0000
0000
0000
0000
0100
0000
0000
0000
0000
1000
0000
0000
0000
,
0100
0000
0000
0000
0000
0000
0000
0001
0000
0000
0000
0000
0000
0000
0000
0000
,
0010
0000
0000
0000
0000
0000
0000
0100
0000
0000
0000
0000
0010
0000
0000
0000
,
0001
0000
0000
0000
0000
0000
0000
0010
0000
0000
0000
0000
0000
0000
0000
0000
,
0100
0000
0000
0000
0000
0000
0000
1000
0000
0000
0000
0000
0100
0000
0000
0000
,
0001
0000
0000
0000
0000
0000
0000
1000
0000
0000
0000
0000
0000
0000
0000
0000
,
0010
0000
0000
0000
0000
0000
0000
0100
0000
0000
0000
0000
0001
0000
0000
0000
,
1000
0000
0000
0000
0000
0000
0000
0100
0000
0000
0000
0000
0000
0000
0000
0000
,
0010
0000
0000
0000
0000
0000
0000
0100
0000
0000
0000
0000
0010
0000
0000
0000
,
0100
0000
0000
0000
0000
0000
0000
0001
0000
0000
0000
0000
0000
0000
0000
0000
,
0010
0000
0000
0000
0000
0000
0000
0100
0000
0000
0000
0000
1000
0000
0000
0000
,
0001
0000
1001
2002
,
0000
3003
0000
0010
,
0110
0000
2002
0000
,
0000
3003
0000
0010
,
0100
0000
1001
0000
,
0110
0110
0000
0000
,
0001
0000
1000
0000
,
0110
0110
0000
0000
,
0001
0000
2002
0000
,
3003
0000
0001
1000
,
1010
0000
0011
0000
,
1010
0110
0000
0000
,
1001
0000
0110
0000
,
0011
1001
0000
0000
,
0110
0000
1001
0000
,
0110
1010
0101
0011
,
1000
0000
0001
1000
0000
0000
0010
0000
,
0100
0022
0033
0000
,
0100
0000
0010
0100
0000
0000
0001
0000
,
1000
2002
3003
0001
,
1000
0000
1000
0100
0000
0000
0000
0000
,
1001
1001
1001
2002
,
0000
3003
0220
0330
,
2002
3003
0202
0303
,
1010
0110
0000
0000
,
0000
0000
0000
0001
0100
1000
0010
0100
,
1000
0220
0330
0000
,
0000
0000
0000
0001
,
0100
0010
0100
1000
,
2002
3003
0110
2020
,
3030
0000
0022
0033
,
2002
3003
0202
0303
,
1010
0110
0000
0000
,
0000
0000
0000
0100
0001
0010
0100
1000
,
0010
2002
3003
0010
,
0100
1000
0010
0100
,
1001
0110
1001
0101
,
0022
0033
0110
2020
,
3030
0000
0022
0033
,
2002
3003
0202
0303
,
0110
1010
0000
0000
,
0000
0000
0000
0010
0100
1000
0100
0010
,
0100
0220
0330
0001
,
1000
2002
3003
0110
,
1010
0110
0011
1001
,
0101
0011
1001
0220
,
0330
0000
2020
3030
,
0220
0330
0022
0033
,
1001
0101
0000
0000
,
0000
0000
0000
0010
0100
1000
0100
0010
,
0100
0000
0022
0000
0033
0100
1000
0100
,
1000
2002
3003
0010
,
0100
0010
1000
0001
,
2002
3003
0110
2020
,
3030
0000
0000
0000
,
1001
0000
0000
0000
0000
0000
0000
0000
0000
0010
0000
0200
0000
0000
0310
0000
;

//---------------dance-single - ----------------
#NOTEDATA:;
#CHARTNAME:;
#STEPSTYPE:dance-single;
#DESCRIPTION:;
#CHARTSTYLE:;
#DIFFICULTY:Easy;
#METER:5;
#RADARVALUES:0.195,0.318,0.147,0.258,0.007,130.000,20.000,35.000,0.000,0.000,0.000,0.000,0.000,0.195,0.318,0.147,0.258,0.007,130.000,20.000,35.000,0.000,0.000,0.000,0.000,0.000;
#CREDIT:;
#DISPLAYBPM:128.000;
#NOTES:
0000
0000
0000
0000
,
0000
0000
0000
0000
,
0000
0000
0000
0000
,
0000
0000
0000
0000
,
1000
0000
0000
0000
,
0001
0000
0000
0000
,
1000
0000
0000
0000
,
0001
0000
0000
0000
,
1001
0000
0000
0000
,
1001
0000
0000
0000
,
1001
0000
0000
0000
,
1001
0000
0000
0000
,
0110
0000
0000
0000
,
0110
0000
0000
0000
,
0110
0000
0000
0000
,
0110
0000
0000
0000
,
0100
0000
0010
0000
,
0000
0000
0000
0100
,
0010
0000
0100
0000
,
0000
0000
0000
0001
,
1000
0000
0001
0000
,
0010
0100
0000
0000
,
0001
0000
1000
0000
,
0010
0100
0000
0010
,
0001
0000
0010
0000
,
0000
0000
0100
0000
,
1000
0000
0010
0000
,
0100
0000
0000
0000
,
0001
0000
0100
0000
,
1000
0001
0000
0000
,
0010
0000
0100
0000
,
0001
0000
0000
1000
,
0010
0000
1000
0000
,
0001
0001
0000
0010
,
0100
0000
0010
0000
,
0001
0010
0000
0100
,
1000
0000
0100
0000
,
0010
0100
0010
0100
,
0000
0000
0220
0330
,
2002
3003
0220
0330
,
1000
1000
0000
0000
,
0000
0000
0001
0100
,
1000
0020
0030
0000
,
0000
0000
0000
0001
,
1000
0100
1000
0010
,
1000
0100
1000
0020
,
0030
0000
0220
0330
,
2002
3003
0220
0330
,
1000
0100
0000
0000
,
0000
0000
0001
0100
,
1000
0020
0030
0000
,
0000
0000
0000
0001
,
0100
1000
0010
1000
,
0200
0300
0010
0002
,
0003
0000
0220
0330
,
2002
3003
0220
0330
,
1000
0100
0000
0000
,
0000
0000
0010
0100
,
1000
0020
0030
0000
,
0000
0000
0000
0010
,
0100
1000
0100
0001
,
0010
1000
0001
2000
,
3000
0000
2002
3003
,
0220
0330
2002
3003
,
0010
0100
0000
0000
,
0000
0000
0010
0100
,
1000
0020
0030
0000
,
0000
0000
0000
0010
,
0100
0001
0010
0001
,
2000
3000
0100
0020
,
0030
0000
0000
0000
,
0000
0000
0000
0000
0000
0000
0000
0000
0000
0100
0000
0200
0000
0000
0310
0000
;

//---------------dance-single - ----------------
#NOTEDATA:;
#CHARTNAME:;
#STEPSTYPE:dance-single;
#DESCRIPTION:;
#CHARTSTYLE:;
#DIFFICULTY:Beginner;
#METER:2;
#RADARVALUES:0.102,0.154,0.118,0.000,0.000,81.000,16.000,0.000,0.000,0.000,0.000,0.000,0.000,0.102,0.154,0.118,0.000,0.000,81.000,16.000,0.000,0.000,0.000,0.000,0.000,0.000;
#CREDIT:;
#DISPLAYBPM:128.000;
#NOTES:
0000
0000
0000
0000
,
0000
0000
0000
0000
,
0000
0000
0000
0000
,
0000
0000
0000
0000
,
1000
0000
0000
0000
,
0001
0000
0000
0000
,
1000
0000
0000
0000
,
0001
0000
0000
0000
,
1000
0000
0000
0000
,
0001
0000
0000
0000
,
1000
0000
0000
0000
,
0001
0000
0000
0000
,
1000
0000
0000
0000
,
0001
0000
0000
0000
,
1000
0000
0000
0000
,
0001
0000
0000
0000
,
1000
0000
0000
0000
,
0000
0000
0000
0000
,
0001
0000
0000
0000
,
0000
0000
0000
0000
,
1000
0000
0000
0000
,
0000
0000
0000
0000
,
0001
0000
0000
0000
,
0000
0000
0000
0000
,
1000
0000
0000
0000
,
0000
0000
0000
0000
,
0001
0000
0000
0000
,
0000
0000
0000
0000
,
1000
0000
0000
0000
,
0000
0000
0000
0000
,
0001
0000
0000
0000
,
0000
0000
0000
0000
,
1000
0000
0000
0001
,
0001
0001
0000
0000
,
1000
0000
0000
0001
,
0001
0001
0000
0000
,
0010
0000
0000
0000
,
0100
0100
0100
0100
,
0000
0000
0110
0000
,
1001
0000
0110
0000
,
1001
0000
0000
0000
,
0000
0000
0010
0000
,
0100
0100
0000
0000
,
0000
0000
0000
0000
,
0001
0000
0010
0000
,
0100
0000
1000
1000
,
0000
0000
1001
0000
,
0110
0000
1001
0000
,
0110
0000
0000
0000
,
0000
0000
0001
0000
,
0010
0010
0000
0000
,
0000
0000
0000
0000
,
1000
0000
0001
0000
,
1000
0000
0010
0010
,
0000
0000
0110
0000
,
1001
0000
0110
0000
,
1001
0000
0000
0000
,
0000
0000
1000
0000
,
0001
0001
0000
0000
,
0000
0000
0000
0000
,
0001
0000
1000
0000
,
0010
0000
0100
0100
,
0000
0000
0110
0000
,
1001
0000
0110
0000
,
1001
0000
0000
0000
,
0000
0000
0010
0000
,
0100
0100
0000
0000
,
0000
0000
0000
0000
,
0010
0000
0100
0000
,
0010
0000
0100
0100
;
