#VERSION:0.81;
#TITLE:Move Your Body;
#SUBTITLE:;
#ARTIST:Eiffel 65;
#TITLETRANSLIT:;
#SUBTITLETRANSLIT:;
#ARTISTTRANSLIT:;
#GENRE:;
#ORIGIN:;
#CREDIT:;
#BANNER:Move Your Body.png;
#BACKGROUND:Move Your Body-bg.png;
#PREVIEWVID:;
#JACKET:Move Your Body-jacket.PNG;
#CDIMAGE:;
#DISCIMAGE:;
#LYRICSPATH:;
#CDTITLE:;
#MUSIC:Move Your Body.ogg;
#OFFSET:-0.100;
#SAMPLESTART:34.240;
#SAMPLELENGTH:15.000;
#SELECTABLE:YES;
#DISPLAYBPM:130.000;
#BPMS:0.000=130.000;
#STOPS:;
#DELAYS:;
#WARPS:;
#TIMESIGNATURES:0.000=4=4;
#TICKCOUNTS:0.000=4;
#COMBOS:0.000=1;
#SPEEDS:0.000=1.000=0.000=0;
#SCROLLS:0.000=1.000;
#FAKES:;
#LABELS:0.000=Song Start;
#BGCHANGES:;
#KEYSOUNDS:;
#ATTACKS:
;

//---------------dance-single - ----------------
#NOTEDATA:;
#CHARTNAME:;
#STEPSTYPE:dance-single;
#DESCRIPTION:;
#CHARTSTYLE:;
#DIFFICULTY:Hard;
#METER:10;
#RADARVALUES:0.446,0.436,0.939,0.000,0.000,251.000,108.000,0.000,0.000,0.000,0.000,0.000,0.000,0.446,0.436,0.939,0.000,0.000,251.000,108.000,0.000,0.000,0.000,0.000,0.000,0.000;
#CREDIT:;
#DISPLAYBPM:130.000;
#NOTES:
// measure 0
0000
0000
0000
0000
,  // measure 1
0000
0000
0000
0000
,  // measure 2
0000
0000
0000
0000
,  // measure 3
0000
0000
0000
0000
,  // measure 4
0000
0000
0000
0000
,  // measure 5
0000
0000
0000
0000
,  // measure 6
0000
0000
0000
0000
,  // measure 7
0000
0000
0000
0000
,  // measure 8
0000
0000
0000
0000
,  // measure 9
1001
0000
0000
0000
,  // measure 10
0000
0000
1001
1001
,  // measure 11
0101
0000
0101
0000
0001
0100
1000
0010
,  // measure 12
1010
1010
0101
0101
,  // measure 13
0011
0000
0011
0010
0001
0010
0100
1000
,  // measure 14
1010
1010
0110
0110
,  // measure 15
1001
1001
0001
0100
,  // measure 16
1000
0010
1010
1010
,  // measure 17
0110
0000
0110
0010
1000
0001
1000
0001
,  // measure 18
1001
1001
0010
1000
,  // measure 19
0101
0000
0011
0000
0001
0100
1000
0010
,  // measure 20
1001
1001
0010
0100
,  // measure 21
1001
0000
0101
0001
1000
0010
1000
0001
,  // measure 22
1001
0101
0001
0010
,  // measure 23
1010
0110
0001
0100
,  // measure 24
1000
0010
1001
0101
,  // measure 25
1001
0000
0011
0100
0100
1000
0010
1000
,  // measure 26
1001
0101
1010
0110
,  // measure 27
1001
0000
0101
0000
0010
1000
0001
1000
,  // measure 28
1001
0101
0011
1010
,  // measure 29
0110
0000
1010
0010
1000
0001
1000
0001
,  // measure 30
1001
1010
0110
1001
,  // measure 31
0101
0011
1100
0110
,  // measure 32
1010
0110
1001
0110
,  // measure 33
1010
0000
1010
0100
0001
1000
0100
1000
,  // measure 34
1001
0000
1010
0010
1000
0100
1000
0010
,  // measure 35
1000
0000
0100
1000
0010
0000
1000
0000
,  // measure 36
0100
0000
1000
0010
1000
0000
1000
0100
,  // measure 37
1000
0000
0001
0100
1000
0000
0010
0000
,  // measure 38
1000
0000
0100
0001
0010
0100
1000
0010
,  // measure 39
0100
0000
0010
0001
0100
0000
1000
0000
,  // measure 40
0010
0000
0100
0001
0010
0000
0100
1000
,  // measure 41
0010
0000
1000
0100
1000
0000
0010
0000
,  // measure 42
0100
0000
0001
0010
1000
0000
0001
0000
,  // measure 43
1001
0000
0101
0000
0001
1000
0100
1000
,  // measure 44
1010
0110
1000
0100
,  // measure 45
0011
0000
1010
0010
1000
0100
1000
0010
,  // measure 46
1100
0101
0001
1000
,  // measure 47
1010
0110
1000
0100
,  // measure 48
0010
0001
1001
0101
,  // measure 49
0011
0000
1010
0010
1000
0100
1000
0010
,  // measure 50
1001
0101
1001
0110
,  // measure 51
1000
0000
0100
0000
0010
1000
0100
1000
,  // measure 52
1010
0110
1001
0110
,  // measure 53
1010
0000
0110
0010
1000
0001
1000
0010
,  // measure 54
1001
0101
0011
1010
,  // measure 55
0110
1001
0110
1010
,  // measure 56
0110
1001
0101
0011
,  // measure 57
0110
0000
1010
0010
1000
0100
1000
0010
,  // measure 58
1001
0110
0011
1001
,  // measure 59
0110
0000
0000
0000
;

//---------------dance-single - ----------------
#NOTEDATA:;
#CHARTNAME:;
#STEPSTYPE:dance-single;
#DESCRIPTION:;
#CHARTSTYLE:;
#DIFFICULTY:Medium;
#METER:8;
#RADARVALUES:0.363,0.410,0.643,0.000,0.000,218.000,74.000,0.000,0.000,0.000,0.000,0.000,0.000,0.363,0.410,0.643,0.000,0.000,218.000,74.000,0.000,0.000,0.000,0.000,0.000,0.000;
#CREDIT:;
#DISPLAYBPM:130.000;
#NOTES:
0000
0000
0000
0000
,
0000
0000
0000
0000
,
0000
0000
0000
0000
,
0000
0000
0000
0000
,
0000
0000
0000
0000
,
0000
0000
0000
0000
,
0000
0000
0000
0000
,
0000
0000
0000
0000
,
0000
0000
0000
0000
,
1001
0000
0000
0000
,
0000
0000
1000
1000
,
0100
0000
0100
0000
0010
0001
1000
0010
,
1000
0100
1000
0010
,
1000
0000
0100
0000
0010
0001
1000
0010
,
1000
0100
1001
1001
,
0001
0100
1000
0010
,
1000
0100
0110
0110
,
1000
0000
0100
0000
1000
0100
1000
0010
,
1000
0001
0101
0011
,
1000
0000
0100
0000
1000
0100
1000
0010
,
1000
0100
0001
0100
,
1000
0000
0010
0000
1000
0100
1000
0010
,
1000
0100
0001
0010
,
1100
0110
0011
0110
,
1010
0110
1001
0110
,
1001
0000
0110
0000
1000
0100
0010
1000
,
0100
0001
1001
0101
,
1000
0000
0001
0000
1000
0001
1000
0001
,
0100
0100
0100
0010
,
0110
0000
0110
0000
0100
0010
0100
0010
,
0001
0001
1000
0001
,
0011
1010
0101
0110
,
1001
0011
0011
1010
,
0110
0000
0101
0000
0001
0010
0001
0100
,
0010
1010
0110
1001
,
0001
0101
1000
1010
,
0100
0101
0001
0011
,
1000
1010
0100
0101
,
0001
0011
1000
1010
,
0100
0011
1000
0110
,
0001
1001
0100
1010
,
0100
0011
0100
1010
,
0100
0011
0110
1001
,
0101
0000
1010
0000
0100
1000
0010
1000
,
0100
1000
0010
1000
,
0100
0000
0001
0000
0010
1000
0100
1000
,
0010
0100
1000
0010
,
1001
0101
0011
1010
,
0110
1001
0100
1000
,
0010
1000
0100
0010
,
1000
0001
1000
0100
,
1010
0110
0011
0110
,
1100
0110
0001
0100
,
1001
0110
1010
0110
,
0011
0110
1000
0100
,
1000
1000
1000
1000
,
0001
0001
0001
0001
,
0010
0010
0010
0010
,
0100
0100
1001
0110
,
1001
0000
0000
0000
;

//---------------dance-single - ----------------
#NOTEDATA:;
#CHARTNAME:;
#STEPSTYPE:dance-single;
#DESCRIPTION:;
#CHARTSTYLE:;
#DIFFICULTY:Easy;
#METER:6;
#RADARVALUES:0.256,0.308,0.339,0.000,0.000,167.000,39.000,0.000,0.000,0.000,0.000,0.000,0.000,0.256,0.308,0.339,0.000,0.000,167.000,39.000,0.000,0.000,0.000,0.000,0.000,0.000;
#CREDIT:;
#DISPLAYBPM:130.000;
#NOTES:
0000
0000
0000
0000
,
0000
0000
0000
0000
,
0000
0000
0000
0000
,
0000
0000
0000
0000
,
0000
0000
0000
0000
,
0000
0000
0000
0000
,
0000
0000
0000
0000
,
0000
0000
0000
0000
,
0000
0000
0000
0000
,
1001
0000
0000
0000
,
0000
0000
0010
0010
,
0100
1000
0010
0010
,
0100
0001
0010
0010
,
0100
1000
0010
1000
,
0100
0100
0001
0000
,
1000
1000
0010
1000
,
0100
0100
0001
0010
,
0100
0100
1000
0010
,
1000
0000
0000
0000
,
0001
0001
1000
0010
,
1000
1000
0100
1000
,
0010
1000
0100
0001
,
0010
0010
0100
0000
,
1000
1000
1000
0000
,
0010
0010
0010
0000
,
0100
0100
0100
0000
,
0001
0001
0001
0000
,
1000
1000
1000
0010
,
1000
1000
0100
1000
,
0010
0010
0010
1000
,
0100
0100
0100
0001
,
0010
0100
1000
0000
,
0100
0010
0001
0000
,
0001
0010
0100
0000
,
1000
0010
1000
0000
,
1001
1001
1001
0000
,
0110
0110
0110
0000
,
1001
1001
1001
0000
,
0110
0110
0110
0000
,
1001
1001
1001
0000
,
0110
0110
0110
0000
,
1001
1001
1001
0000
,
0110
0110
0100
0010
,
0100
0100
0100
0010
,
1000
1000
0100
0100
,
0001
0010
0010
0100
,
0001
1000
0010
0000
,
1000
0001
0110
0000
,
0100
0001
0110
0000
,
0001
1000
1001
0000
,
0010
0010
1000
0000
,
0001
1000
0010
0001
,
0100
0010
0100
0010
,
0001
1000
0010
0001
,
1000
0100
0110
0000
,
0110
0100
1001
0000
,
1001
0010
1001
0000
,
1001
0010
1001
0000
,
0110
1001
0110
1001
,
1001
0000
0000
0000
;

//---------------dance-single - ----------------
#NOTEDATA:;
#CHARTNAME:;
#STEPSTYPE:dance-single;
#DESCRIPTION:;
#CHARTSTYLE:;
#DIFFICULTY:Beginner;
#METER:2;
#RADARVALUES:0.155,0.205,0.174,0.000,0.000,105.000,20.000,0.000,0.000,0.000,0.000,0.000,0.000,0.155,0.205,0.174,0.000,0.000,105.000,20.000,0.000,0.000,0.000,0.000,0.000,0.000;
#CREDIT:;
#DISPLAYBPM:130.000;
#NOTES:
0000
0000
0000
0000
,
0000
0000
0000
0000
,
0000
0000
0000
0000
,
0000
0000
0000
0000
,
0000
0000
0000
0000
,
0000
0000
0000
0000
,
0000
0000
0000
0000
,
0000
0000
0000
0000
,
0000
0000
0000
0000
,
1001
0000
0000
0000
,
0000
0000
1001
1001
,
1001
0000
0010
0000
,
0100
0000
0010
0000
,
1000
0000
0001
0000
,
1000
0000
0010
0000
,
0110
0000
1000
0000
,
0001
0000
1000
0000
,
0010
0000
0100
0000
,
0001
0000
1001
1001
,
1001
0000
0010
0000
,
1000
0000
0100
0000
,
1000
0000
0010
0000
,
1000
0000
0100
0000
,
1000
0000
0010
0000
,
1000
0000
0100
0000
,
1000
0000
0010
0000
,
1000
0000
0110
0110
,
0110
0000
0001
0000
,
1000
0000
0010
0000
,
1000
0000
0100
0000
,
1000
0000
0010
0000
,
1000
0000
0100
0000
,
1000
0000
0010
0000
,
1000
0000
0100
0000
,
1000
0000
0010
0000
,
1000
0000
1000
0000
,
0100
0000
0100
0000
,
0001
0000
0001
0000
,
0010
0000
0010
0000
,
0100
0000
0100
0000
,
1000
0000
1000
0000
,
0100
0000
0100
0000
,
0010
0000
0110
0110
,
0110
0000
0001
0000
,
0010
0000
0100
0000
,
0010
0000
0001
0000
,
0010
0000
0100
0000
,
1000
0000
1000
0000
,
0100
0000
0100
0000
,
0010
0000
0010
0000
,
0100
0000
1001
1001
,
1001
0000
0001
0000
,
0010
0000
0001
0000
,
0100
0000
0001
0000
,
0100
0000
0001
0000
,
1000
0000
1000
0000
,
0010
0000
0010
0000
,
0100
0000
0100
0000
,
0010
0000
0110
0110
,
0110
0000
0000
0000
;
