#TITLE:Lucky (In My Life);
#SUBTITLE:;
#ARTIST:Eiffel 65;
#TITLETRANSLIT:;
#SUBTITLETRANSLIT:;
#ARTISTTRANSLIT:;
#GENRE:;
#CREDIT:;
#BANNER:Lucky (In My Life).png;
#BACKGROUND:Lucky (In My Life)-bg.png;
#LYRICSPATH:;
#CDTITLE:;
#MUSIC:Lucky (In My Life).ogg;
#OFFSET:1.180;
#SAMPLESTART:80.040;
#SAMPLELENGTH:15.000;
#LASTBEATHINT:0.390;
#SELECTABLE:YES;
#DISPLAYBPM:130.000;
#BPMS:0.000=130.000
;
#STOPS:
;
#BGCHANGES:0.000=Lucky (In My Life)-bg.PNG=1.000=0=0=1=====,
1.500=Lucky (In My Life).avi=1.000=0=0=1=====,
274.000=Lucky (In My Life)-bg.PNG=1.000=0=0=1=====,
99999=-nosongbg-=1.000=0=0=0 // don't automatically add -songbackground-
;
#KEYSOUNDS:;
#ATTACKS:;

//---------------dance-single - ----------------
#NOTES:
     dance-single:
     :
     Hard:
     9:
     0.398,0.371,0.257,0.000,0.000,324.000,33.000,0.000,0.000,0.000,0.000,0.398,0.371,0.257,0.000,0.000,324.000,33.000,0.000,0.000,0.000,0.000: // measure 0
0000
0000
0000
0000
,  // measure 1
0000
0000
0000
0000
,  // measure 2
0000
0000
0000
0000
,  // measure 3
0000
0000
0000
0000
,  // measure 4
0000
0000
0000
0000
,  // measure 5
0000
0000
0000
0000
,  // measure 6
0000
0000
0000
0000
,  // measure 7
0000
0000
0000
0000
,  // measure 8
0000
0000
0000
0000
,  // measure 9
0000
0000
0000
0000
,  // measure 10
1001
0000
0101
0000
0001
0100
1000
0010
,  // measure 11
0000
1000
0000
0001
0100
0000
1000
0000
,  // measure 12
0010
0001
0100
1000
0010
1000
0010
0100
,  // measure 13
0000
0001
0000
0100
1000
0000
0010
0000
,  // measure 14
1010
0000
0101
0000
0001
0100
0010
1000
,  // measure 15
0000
0001
0000
0100
1000
0000
0010
0000
,  // measure 16
0010
1000
0001
0010
1000
0001
1000
0010
,  // measure 17
0000
0100
0000
1000
0001
0000
0100
0000
,  // measure 18
0011
0000
0011
0000
0010
0100
1000
0010
,  // measure 19
0000
1000
0000
1000
0100
0000
0001
0000
,  // measure 20
0001
0100
1000
0010
1000
0100
1000
0010
,  // measure 21
0000
0100
0000
1000
0010
0000
0100
0000
,  // measure 22
1100
0000
1100
0000
0100
0010
0001
0100
,  // measure 23
0000
0010
0000
1000
0001
0000
0010
0000
,  // measure 24
0100
1000
0010
0100
0001
0010
0100
1000
,  // measure 25
0000
0010
0000
0100
0001
0000
0010
0000
,  // measure 26
0110
0000
0110
0000
0100
0010
0100
0010
,  // measure 27
0000
0100
0000
0010
0100
0000
0010
0100
,  // measure 28
0110
0000
0110
0000
0100
0010
0100
0010
,  // measure 29
0000
0100
0000
0010
0100
0000
0010
1000
,  // measure 30
1100
0000
1100
0000
0100
0010
0001
0100
,  // measure 31
0000
1000
0000
0010
1000
0000
0001
0100
,  // measure 32
0101
0000
0101
0000
0001
0100
1000
0010
,  // measure 33
0000
1000
0000
0001
1000
0000
0010
0001
,  // measure 34
0100
0010
0000
1000
0001
0010
0100
1000
,  // measure 35
0010
1000
0000
0100
0001
0010
0100
1000
,  // measure 36
0010
0000
0100
0000
1000
0100
0010
0000
,  // measure 37
0000
0001
0000
0001
0100
0010
1000
0001
,  // measure 38
0000
0000
0010
0100
1000
0010
1000
0010
,  // measure 39
0000
0100
0000
0010
0001
0000
0100
1000
,  // measure 40
0010
0000
0100
0000
0001
0010
0100
0000
,  // measure 41
0000
0010
0000
0100
0001
0010
0100
1000
,  // measure 42
0000
0000
0100
0001
1000
0010
1000
0100
,  // measure 43
0000
0001
0000
0010
0100
1000
0010
1000
,  // measure 44
0101
0000
1001
0000
0010
1000
0001
1000
,  // measure 45
0000
0010
0000
0100
0010
0000
1000
0000
,  // measure 46
1000
0001
0100
0010
1000
0001
1000
0010
,  // measure 47
0000
1000
0000
0100
0010
0000
0001
0000
,  // measure 48
0011
0000
1001
0000
0010
1000
0001
1000
,  // measure 49
0000
0010
0000
1000
0001
0000
0100
0000
,  // measure 50
1000
0100
1000
0010
1000
0001
1000
0010
,  // measure 51
0000
1000
0000
0010
1000
0000
0001
0000
,  // measure 52
1001
0000
1010
0000
0001
0100
1000
0010
,  // measure 53
0000
0100
0000
0001
0100
0000
1000
0000
,  // measure 54
0010
0100
1000
0010
0100
0001
0010
0100
,  // measure 55
0000
0010
0000
1000
0001
0000
0010
0000
,  // measure 56
1001
0000
1100
0000
0010
0100
1000
0010
,  // measure 57
0000
0100
0000
0001
0100
0000
1000
0000
,  // measure 58
0010
0001
0100
1000
0010
1000
0001
1000
,  // measure 59
0000
0100
0000
1000
0010
0000
0100
0000
,  // measure 60
1001
0000
1010
0000
0100
0001
0010
0100
,  // measure 61
0000
0010
0000
1000
0001
0000
1000
0010
,  // measure 62
1001
0000
0101
0000
0001
0100
1000
0010
,  // measure 63
0000
1000
0000
0001
1000
0000
0010
0100
,  // measure 64
1010
0000
0101
0000
0001
0100
1000
0010
,  // measure 65
0000
1000
0000
0001
0100
0000
1000
0010
,  // measure 66
1001
0000
0011
0000
0001
0100
1000
0010
,  // measure 67
0000
1000
0000
0001
0100
0000
0010
1000
,  // measure 68
1001
0000
0000
0000
;

//---------------dance-single - ----------------
#NOTES:
     dance-single:
     :
     Medium:
     7:
     0.337,0.318,0.382,0.000,0.000,253.000,49.000,0.000,0.000,0.000,0.000,0.337,0.318,0.382,0.000,0.000,253.000,49.000,0.000,0.000,0.000,0.000:
0000
0000
0000
0000
,
0000
0000
0000
0000
,
0000
0000
0000
0000
,
0000
0000
0000
0000
,
0000
0000
0000
0000
,
0000
0000
0000
0000
,
0000
0000
0000
0000
,
0000
0000
0000
0000
,
0000
0000
0000
0000
,
0000
0000
0000
0000
,
1010
0000
1001
0000
0011
0000
0100
0001
,
0000
0010
0000
1000
0001
0000
1000
0000
,
0010
0000
0100
0000
0010
0000
1000
0001
,
0000
0010
0000
0100
1000
0000
0010
0000
,
1001
0000
0101
0000
1001
0000
0100
1000
,
0000
0010
0000
0100
0001
0000
0010
0000
,
0100
0000
1000
0000
0010
0000
1000
0001
,
0000
0010
0000
0100
1000
0000
0010
0000
,
1001
0000
0011
0000
1001
0000
0100
1000
,
0000
0010
0000
1000
0010
0000
0100
0000
,
1000
0000
0010
0000
0100
0000
0001
0100
,
0000
1000
0000
0010
1000
0000
0001
0000
,
0101
0000
0011
0000
1010
0000
0001
0100
,
0000
0001
0000
0100
0001
0000
0100
0000
,
1000
0000
0010
0000
1000
0000
0100
0010
,
0000
0001
0000
0100
1000
0000
0010
0000
,
1001
0000
1001
0000
1001
0000
1000
0010
,
0000
1000
0000
0001
1000
0000
0100
0000
,
1001
0000
1001
0000
1001
0000
0001
0010
,
0000
0001
0000
0100
1000
0000
0010
0000
,
1001
0000
1001
0000
1001
0000
0001
1000
,
0000
0001
0000
0100
0010
0000
1000
0000
,
1001
0000
1001
0000
1001
0000
0001
1000
,
0000
0001
0000
0100
0010
0000
1000
0000
,
0001
0000
0001
0001
,
1000
0000
1000
0001
,
0100
0010
0100
0010
,
0000
0000
0001
0000
0100
0000
1000
0010
,
0000
0000
0100
0000
0001
0000
0010
1000
,
0000
0001
0000
0000
0010
0000
0010
0000
,
0001
1000
0010
0100
,
0000
0000
0010
0000
1000
0000
0001
1000
,
0000
0000
0010
0000
0100
0000
0001
0010
,
0000
0001
0000
0000
0010
0000
1000
0000
,
1001
0000
0101
0000
0011
0000
1000
0100
,
0000
0010
0000
1000
0001
0000
0100
0000
,
1000
0000
0010
0000
0100
0000
0001
0100
,
0000
1000
0000
0010
1000
0000
0100
0000
,
0011
0000
1001
0000
1100
0000
0010
0100
,
0000
0001
0000
0100
1000
0000
0010
0000
,
1000
0000
0100
0000
1000
0000
0010
1000
,
0000
0001
0000
1000
0010
0000
1000
0000
,
1010
0000
0110
0000
0011
0000
0001
0100
,
0000
1000
0000
0010
1000
0000
0100
0000
,
0001
0000
0010
0000
0100
0000
1000
0010
,
0000
1000
0000
0100
0001
0000
0100
0000
,
1001
0000
1010
0000
0110
0000
0001
1000
,
0000
0001
0000
0100
1000
0000
0010
0000
,
1000
0000
0100
0000
1000
0000
0010
0100
,
0000
0001
0000
0100
1000
0000
0010
0000
,
1001
0000
1001
0000
1001
0000
0001
1000
,
0000
0001
0000
1000
0001
0000
0100
0000
,
1001
0000
1001
0000
1001
0000
0001
1000
,
0000
0010
0000
1000
0001
0000
1000
0000
,
1001
0000
1001
0000
1001
0000
0001
1000
,
0000
0010
0000
1000
0001
0000
1000
0000
,
1001
0000
1001
0000
1001
0000
0001
1000
,
0000
0010
0000
1000
0001
0000
1000
0000
,
1001
0000
0000
0000
;

//---------------dance-single - ----------------
#NOTES:
     dance-single:
     :
     Easy:
     4:
     0.191,0.212,0.187,0.000,0.000,147.000,24.000,0.000,0.000,0.000,0.000,0.191,0.212,0.187,0.000,0.000,147.000,24.000,0.000,0.000,0.000,0.000:
0000
0000
0000
0000
,
0000
0000
0000
0000
,
0000
0000
0000
0000
,
0000
0000
0000
0000
,
0000
0000
0000
0000
,
0000
0000
0000
0000
,
0000
0000
0000
0000
,
0000
0000
0000
0000
,
0000
0000
0000
0000
,
0000
0000
0000
0000
,
1001
0000
1001
0000
,
1001
0000
0010
0010
,
0110
0000
0110
0000
,
0110
0000
0100
0100
,
0110
0000
0110
0000
,
0110
0000
0010
0010
,
1001
0000
1001
0000
,
1001
0000
0001
0001
,
1000
0000
0100
0000
,
0010
0000
0001
1000
,
0010
0000
0010
0000
,
0010
0000
0010
0100
,
1000
0000
1000
0000
,
1000
0000
1000
0100
,
0010
0000
0010
0000
,
0010
0000
0010
0001
,
0100
0000
1000
0000
,
0001
0000
1000
0010
,
1000
0000
0010
0000
,
0100
0000
0001
0010
,
0001
0000
0010
0000
,
0100
0000
1000
0100
,
1000
0000
0010
0000
,
0001
0000
0100
0001
,
0100
0000
1000
0000
,
0010
0000
0100
0000
,
0001
0010
0100
0000
,
0000
0010
0000
0100
,
0000
0001
0010
0100
,
0000
1000
0000
0100
,
0010
0001
1000
0010
,
0000
0100
0010
0001
,
0000
0001
1000
0010
,
0100
0000
0010
0000
,
0110
0000
0110
0000
,
0110
0000
0010
0010
,
0110
0000
0110
0000
,
0110
0000
0100
0100
,
1001
0000
1001
0000
,
1001
0000
0010
0010
,
1001
0000
0110
0000
,
1001
0000
0001
0010
,
0100
0000
0010
0000
,
0001
0000
0010
0100
,
1000
0000
0100
0000
,
0010
0000
0001
1000
,
0010
0000
0100
0000
,
1000
0000
0010
0001
,
0010
0000
0100
0000
,
1000
0000
0010
0100
,
1000
0000
0100
0000
,
0010
0000
0001
0001
,
0010
0000
0100
0000
,
1000
0000
0010
0010
,
0100
0000
1000
0000
,
0001
0000
0100
0100
,
0010
0000
1000
0000
,
0001
0000
0010
0010
,
0100
0000
0000
0000
;

//---------------dance-single - ----------------
#NOTES:
     dance-single:
     :
     Beginner:
     2:
     0.135,0.159,0.086,0.000,0.000,110.000,11.000,0.000,0.000,0.000,0.000,0.135,0.159,0.086,0.000,0.000,110.000,11.000,0.000,0.000,0.000,0.000:
0000
0000
0000
0000
,
0000
0000
0000
0000
,
0000
0000
0000
0000
,
0000
0000
0000
0000
,
0000
0000
0000
0000
,
0000
0000
0000
0000
,
0000
0000
0000
0000
,
0000
0000
0000
0000
,
0000
0000
0000
0000
,
0000
0000
0000
0000
,
1000
0000
1000
0000
,
1000
0000
0010
0000
,
0001
0000
0001
0000
,
0001
0000
0010
0000
,
1000
0000
1000
0000
,
1000
0000
0010
0000
,
0001
0000
0001
0000
,
0001
0000
0010
0000
,
1000
0000
1000
0000
,
1000
0000
0010
0000
,
0001
0000
0001
0000
,
0001
0000
0010
0000
,
1000
0000
1000
0000
,
1000
0000
0010
0000
,
0001
0000
0001
0000
,
0001
0000
0010
0000
,
0100
0000
0100
0000
,
0100
0000
0010
0000
,
0001
0000
0001
0000
,
0001
0000
0010
0000
,
0100
0000
0100
0000
,
0100
0000
0010
0000
,
1000
0000
1000
0000
,
1000
0000
0010
0000
,
0100
0000
0110
0000
,
0010
0000
1001
0000
,
0110
0000
1001
0000
,
0000
0000
1001
0000
,
0000
0000
0110
0000
,
0000
0000
1001
0000
,
0000
0000
0110
0000
,
0000
0000
1001
0000
,
0000
0000
0110
0000
,
0000
0000
1001
0000
,
0001
0000
0001
0000
,
0001
0000
0010
0000
,
0100
0000
0100
0000
,
0100
0000
1000
0000
,
0010
0000
0010
0000
,
0010
0000
0001
0000
,
0100
0000
0100
0000
,
0100
0000
0010
0000
,
1000
0000
1000
0000
,
1000
0000
0010
0000
,
0100
0000
0100
0000
,
0100
0000
0001
0000
,
0010
0000
0010
0000
,
0010
0000
1000
0000
,
0100
0000
0100
0000
,
0100
0000
0001
0000
,
0010
0000
0010
0000
,
0010
0000
1000
0000
,
0100
0000
0100
0000
,
0100
0000
0001
0000
,
0010
0000
0010
0000
,
0010
0000
0100
0000
,
1000
0000
1000
0000
,
1000
0000
0010
0000
,
0100
0000
0000
0000
;
