#VERSION:0.81;
#TITLE:Living In A Bubble;
#SUBTITLE:;
#ARTIST:Eiffel 65;
#TITLETRANSLIT:;
#SUBTITLETRANSLIT:;
#ARTISTTRANSLIT:;
#GENRE:;
#ORIGIN:;
#CREDIT:;
#BANNER:Living In A Bubble.png;
#BACKGROUND:Living In A Bubble-bg.png;
#PREVIEWVID:;
#JACKET:Living In A Bubble-jacket.PNG;
#CDIMAGE:;
#DISCIMAGE:;
#LYRICSPATH:;
#CDTITLE:;
#MUSIC:Living In A Bubble.ogg;
#OFFSET:-0.220;
#SAMPLESTART:43.840;
#SAMPLELENGTH:15.000;
#SELECTABLE:YES;
#DISPLAYBPM:110.000;
#BPMS:0.000=110.000;
#STOPS:;
#DELAYS:;
#WARPS:;
#TIMESIGNATURES:0.000=4=4;
#TICKCOUNTS:0.000=4;
#COMBOS:0.000=1;
#SPEEDS:0.000=1.000=0.000=0;
#SCROLLS:0.000=1.000;
#FAKES:;
#LABELS:0.000=Song Start;
#BGCHANGES:;
#KEYSOUNDS:;
#ATTACKS:
;

//---------------dance-single - ----------------
#NOTEDATA:;
#CHARTNAME:;
#STEPSTYPE:dance-single;
#DESCRIPTION:;
#CHARTSTYLE:;
#DIFFICULTY:Hard;
#METER:9;
#RADARVALUES:0.507,0.519,0.694,0.000,0.000,288.000,70.000,0.000,0.000,0.000,0.000,0.000,0.000,0.507,0.519,0.694,0.000,0.000,288.000,70.000,0.000,0.000,0.000,0.000,0.000,0.000;
#CREDIT:;
#DISPLAYBPM:110.000;
#NOTES:
// measure 0
0000
0000
0000
0000
,  // measure 1
0000
0000
0000
0000
,  // measure 2
0000
0000
0000
0000
,  // measure 3
0000
0000
0000
0000
,  // measure 4
0000
0011
0001
1000
0010
1000
0100
0010
,  // measure 5
0001
1000
0100
0010
0001
1000
0010
1001
,  // measure 6
0000
1010
0010
0100
0001
1000
0001
1000
,  // measure 7
0001
1000
0010
1000
0100
0010
1001
1001
,  // measure 8
0001
0100
0010
1000
0100
1000
0010
0100
,  // measure 9
1000
0010
1000
0100
0001
0010
0100
0001
,  // measure 10
1001
0001
0100
1000
0010
1000
0100
1000
,  // measure 11
1001
0101
0000
0011
0000
1100
0000
0000
,  // measure 12
0010
0010
1000
0101
0000
0000
0000
0000
,  // measure 13
0100
0001
1000
1001
0000
0001
0100
1000
,  // measure 14
0010
1000
0001
1001
0000
0001
0100
1000
,  // measure 15
0010
1000
0001
1001
0000
0010
1000
0001
,  // measure 16
1000
0001
1000
0101
0000
0000
0000
0000
,  // measure 17
0010
1000
0001
1001
0000
0010
1000
0100
,  // measure 18
0010
0001
1000
0101
0000
0001
0100
0010
,  // measure 19
1000
0100
0010
1001
0000
0010
1000
0100
,  // measure 20
1010
0110
0011
0010
1000
0100
1000
0010
,  // measure 21
1001
0101
0011
0001
0100
1000
0010
1000
,  // measure 22
1001
0101
0011
0001
0100
1000
0010
1000
,  // measure 23
1001
0101
0011
0001
0100
0010
1000
0010
,  // measure 24
1010
0110
1010
0010
0100
0010
0001
1000
,  // measure 25
1001
0101
0011
0001
0100
1000
0010
1000
,  // measure 26
1001
0011
1001
1001
,  // measure 27
0101
0001
0100
1000
0100
1000
0010
1000
,  // measure 28
0001
1000
0100
1000
0010
1000
0100
1000
,  // measure 29
0010
0100
1000
0010
1000
0100
0010
1000
,  // measure 30
1010
0100
1000
0010
1000
0100
0010
0100
,  // measure 31
0101
0001
1000
0100
1000
0010
0100
1000
,  // measure 32
0100
0001
0010
0100
0101
0001
1000
0001
,  // measure 33
1001
1000
0100
1000
0010
1000
0001
1000
,  // measure 34
0101
0011
1010
0110
,  // measure 35
1010
0100
0001
0010
0100
1000
0100
1000
,  // measure 36
0011
1010
0110
1001
0101
0011
0101
1001
,  // measure 37
0001
0010
0100
1000
0100
1000
0010
1000
,  // measure 38
1100
0101
0011
0101
1001
0110
1010
0110
,  // measure 39
0001
0010
0100
1000
0100
1000
0010
1000
,  // measure 40
0001
0010
0100
1000
0100
1000
0010
1000
,  // measure 41
0001
0010
0100
0001
0010
0100
0001
1000
,  // measure 42
1001
0010
0100
1000
0100
0001
0010
0100
,  // measure 43
1000
1010
0000
0011
0000
1100
0000
0000
;

//---------------dance-single - ----------------
#NOTEDATA:;
#CHARTNAME:;
#STEPSTYPE:dance-single;
#DESCRIPTION:;
#CHARTSTYLE:;
#DIFFICULTY:Medium;
#METER:6;
#RADARVALUES:0.317,0.346,0.317,0.000,0.000,192.000,32.000,0.000,0.000,0.000,0.000,0.000,0.000,0.317,0.346,0.317,0.000,0.000,192.000,32.000,0.000,0.000,0.000,0.000,0.000,0.000;
#CREDIT:;
#DISPLAYBPM:110.000;
#NOTES:
0000
0000
0000
0000
,
0000
0000
0000
0000
,
0000
0000
0000
0000
,
0000
0000
0000
0000
,
0000
0001
0010
0100
0010
0001
0010
0100
,
0010
0001
0010
0100
0010
0001
0010
0100
,
0010
0001
0010
0100
0010
0001
0010
0100
,
0010
0001
0010
0000
0000
0000
0010
0100
,
0010
0100
1000
0100
0010
0100
1000
0100
,
0010
0100
1000
0100
0010
0100
1000
0100
,
0010
0100
1000
0100
0010
0100
1000
0100
,
0010
0100
0000
0010
0000
0001
0000
0000
,
0010
0000
0000
0010
0000
0000
0000
0000
,
0001
0000
0000
0001
0000
0000
0000
0000
,
1000
0000
0000
1000
0000
0000
0000
0000
,
0100
0000
0000
0100
0000
0000
0000
0000
,
0001
0000
0000
0001
0000
0000
0000
0000
,
1000
0000
0000
1000
0000
0000
0000
0000
,
0010
0000
0000
0010
0000
0000
0000
0000
,
0100
0000
0000
0100
0000
0000
0000
0000
,
0010
1001
0100
1001
,
0010
1001
0100
1001
,
0010
1001
0010
1001
,
0100
1001
0010
1001
,
0100
1001
0010
1001
,
0010
1001
0100
1001
,
0010
1001
0100
1001
,
0010
1001
0100
1001
,
0010
1001
0100
1001
,
0010
1001
0010
1001
,
0010
1001
0100
1001
,
0010
1001
0100
1001
,
0010
1001
0010
1001
,
0010
1001
0010
1001
,
0010
1001
0010
1001
,
0010
1001
0010
1001
,
0000
0010
0001
0100
1000
0010
0100
0001
,
0010
0100
1000
0010
1000
0100
0010
0001
,
0010
0100
1000
0100
0001
0010
0100
1000
,
0100
0010
0001
0000
0000
0000
0001
0010
,
0100
0010
0001
0010
0100
1000
0010
1000
,
0001
0010
0100
1000
0100
0001
0010
0100
,
1000
0010
0100
0010
0100
0001
0100
1000
,
0010
0100
0000
0001
0000
1000
0000
0000
;

//---------------dance-single - ----------------
#NOTEDATA:;
#CHARTNAME:;
#STEPSTYPE:dance-single;
#DESCRIPTION:;
#CHARTSTYLE:;
#DIFFICULTY:Easy;
#METER:4;
#RADARVALUES:0.190,0.173,0.000,0.000,0.000,134.000,0.000,0.000,0.000,0.000,0.000,0.000,0.000,0.190,0.173,0.000,0.000,0.000,134.000,0.000,0.000,0.000,0.000,0.000,0.000,0.000;
#CREDIT:;
#DISPLAYBPM:110.000;
#NOTES:
0000
0000
0000
0000
,
0000
0000
0000
0000
,
0000
0000
0000
0000
,
0000
0000
0000
0000
,
0000
0010
0010
0010
,
0010
0010
0010
0010
,
0010
0010
0010
0010
,
0010
0010
0000
0001
,
0010
0010
0010
0010
,
0010
0010
0010
0010
,
0010
0010
0000
0000
,
0000
0100
0000
1000
0000
0001
0000
0000
,
0100
0000
0000
0001
0000
0000
0000
0000
,
0010
0000
0000
1000
0000
0000
0000
0000
,
0100
0000
0000
0001
0000
0000
0000
0000
,
0010
0000
0000
0100
0000
0000
0000
0000
,
1000
0000
0000
0001
0000
0000
0000
0000
,
0010
0000
0000
0100
0000
0000
0000
0000
,
1000
0000
0000
0001
0000
0000
0000
0000
,
0010
0000
0000
0100
0000
0000
0000
0000
,
1000
1000
1000
1000
,
0001
0001
0001
0001
,
1000
1000
1000
1000
,
0010
0010
0010
0010
,
0100
0100
0100
0100
,
0001
0001
0001
0001
,
0010
0010
0010
0010
,
0100
0100
0100
0100
,
0010
0010
0010
0010
,
0001
0001
0001
0001
,
1000
1000
1000
1000
,
0010
0010
0010
0010
,
0100
0100
0100
0100
,
0001
0001
0001
0001
,
1000
1000
1000
1000
,
0010
0010
0010
0010
,
0000
0100
0100
0100
,
0100
0100
0100
0100
,
0100
0100
0100
0100
,
0100
0100
0000
0001
,
0010
0010
0010
0010
,
0010
0010
0010
0010
,
0010
0010
0000
0000
,
0000
0100
0000
0001
0000
1000
0000
0000
;

//---------------dance-single - ----------------
#NOTEDATA:;
#CHARTNAME:;
#STEPSTYPE:dance-single;
#DESCRIPTION:;
#CHARTSTYLE:;
#DIFFICULTY:Beginner;
#METER:1;
#RADARVALUES:0.092,0.084,0.000,0.000,0.000,65.000,0.000,0.000,0.000,0.000,0.000,0.000,0.000,0.092,0.084,0.000,0.000,0.000,65.000,0.000,0.000,0.000,0.000,0.000,0.000,0.000;
#CREDIT:;
#DISPLAYBPM:110.000;
#NOTES:
0000
0000
0000
0000
,
0000
0000
0000
0000
,
0000
0000
0000
0000
,
0000
0000
0000
0000
,
0000
0010
0000
0001
,
0000
0010
0000
0100
,
0000
1000
0000
0010
,
0010
0010
0000
0000
,
0000
0100
0000
0001
,
0000
0010
0000
0100
,
0000
1000
0000
0000
,
0000
0000
0000
0000
,
0010
0000
0000
0000
,
0100
0000
0000
0000
,
0010
0000
0000
0000
,
0100
0000
0000
0000
,
0010
0000
0000
0000
,
0100
0000
0000
0000
,
0010
0000
0000
0000
,
0100
0000
0000
0000
,
0010
0000
0001
0000
,
0100
0000
1000
0000
,
0010
0000
0001
0000
,
0100
0000
0010
0000
,
1000
0000
0100
0000
,
1000
0000
0010
0000
,
1000
0000
0100
0000
,
1000
0000
0010
0000
,
1000
0000
0100
0000
,
1000
0000
0100
0000
,
0001
0000
0010
0000
,
0001
0000
0100
0000
,
0010
0000
0100
0000
,
1000
0000
0010
0000
,
1000
0000
0100
0000
,
0001
0000
0000
0000
,
0000
0010
0000
0001
,
0000
0010
0000
0100
,
0000
0010
0000
0100
,
0100
0100
0000
0000
,
0000
0010
0000
0001
,
0000
0010
0000
0100
,
0000
1000
0000
0000
;
