#TITLE:LUV CAN SAVE U;
#SUBTITLE:;
#ARTIST:長沼英樹;
#TITLETRANSLIT:;
#SUBTITLETRANSLIT:;
#ARTISTTRANSLIT:HIDEKI NAGANUMA;
#GENRE:;
#CREDIT:;
#BANNER:LUV CAN SAVE U.png;
#BACKGROUND:LUV CAN SAVE U-bg.png;
#LYRICSPATH:;
#CDTITLE:;
#MUSIC:LUV CAN SAVE U.ogg;
#OFFSET:1.260;
#SAMPLESTART:99.300;
#SAMPLELENGTH:15.000;
#LASTBEATHINT:0.607;
#SELECTABLE:YES;
#DISPLAYBPM:140.000;
#BPMS:0.000=140.000
;
#STOPS:
;
#BGCHANGES:;
#KEYSOUNDS:;
#ATTACKS:;

//---------------dance-single - ----------------
#NOTES:
     dance-single:
     :
     Hard:
     13:
     0.524,0.486,0.217,0.608,0.221,393.000,30.000,84.000,0.000,0.000,0.000,0.524,0.486,0.217,0.608,0.221,393.000,30.000,84.000,0.000,0.000,0.000: // measure 0
0000
0000
0000
0000
,  // measure 1
0000
0000
0000
0000
,  // measure 2
0000
0000
0000
0000
,  // measure 3
0000
0000
0000
0000
,  // measure 4
0000
0000
0000
0000
,  // measure 5
0000
0001
0010
0100
1000
0010
0100
0001
,  // measure 6
0000
0010
0100
1000
0010
0100
0001
1000
,  // measure 7
0000
0010
0100
1000
0010
0100
2000
0000
,  // measure 8
3000
0000
0100
0000
0000
0010
0000
0000
0002
0000
0000
0000
2003
0000
0000
0000
,  // measure 9
3000
0010
0100
1000
0010
0100
0001
1000
,  // measure 10
0000
0010
0100
1000
0010
0100
0001
0010
,  // measure 11
0000
1000
0100
0010
0001
1000
0200
0000
,  // measure 12
0300
0000
0010
0000
0000
0100
0000
0000
2000
0000
0000
0000
3002
0000
0000
0000
,  // measure 13
0003
0100
1000
0010
1000
0001
1000
0100
,  // measure 14
0000
0001
0100
1000
0010
1000
0001
1000
,  // measure 15
0000
0010
0100
1000
0001
0100
0020
0000
,  // measure 16
0030
0000
0100
0000
0000
0010
0000
0000
0002
0000
0000
0000
2003
0000
0000
0000
,  // measure 17
3020
0230
0302
2003
,  // measure 18
3020
0230
0302
2003
,  // measure 19
3020
0230
0302
2003
,  // measure 20
3020
0230
0302
2003
,  // measure 21
3010
0000
0000
1000
0000
0000
2002
0000
0000
3003
0001
0000
0000
1000
0000
0000
,  // measure 22
0010
0000
0000
1000
0000
0000
2200
0000
0000
3300
0001
0000
0000
0100
0000
0000
,  // measure 23
0010
0000
0000
1000
0000
0000
2020
0000
0000
3030
0010
0000
0000
0001
0000
0000
,  // measure 24
0100
0000
0000
0010
0000
0000
0220
0000
0000
0330
1000
0000
0001
0000
0000
0000
,  // measure 25
1000
0000
0000
0100
0000
0000
0220
0000
0000
0330
0001
0000
0000
0010
0000
0000
,  // measure 26
0100
0000
0000
1000
0000
0000
2002
0000
0000
3003
0001
0000
0000
0100
0000
0000
,  // measure 27
1000
0000
0000
0010
0000
0000
2020
0000
0000
3030
0010
0000
0000
0100
0000
0000
,  // measure 28
1000
0000
0000
0010
0000
0000
2002
0000
0000
3003
0001
0000
0000
0100
0000
0000
,  // measure 29
1000
0000
0000
0010
0000
0000
0220
0000
0000
0330
0001
0000
0000
1000
0000
0000
,  // measure 30
0010
0000
0000
1000
0000
0000
2020
0000
0000
3030
0001
0000
0000
1000
0000
0000
,  // measure 31
0010
0000
0000
0100
0000
0000
0220
0000
0000
0330
0001
0000
0000
1000
0000
0000
,  // measure 32
0010
0000
0000
0100
0000
0000
0220
0000
0000
0330
0001
0000
0000
1000
0000
0000
,  // measure 33
0001
0000
0010
0000
0100
0010
0000
0100
0000
0000
0010
0000
0000
0000
0100
0000
,  // measure 34
0010
0000
0100
0000
1000
0001
0000
1000
0000
0000
0001
0000
0000
0000
1000
0000
,  // measure 35
0000
0010
0100
1000
0010
0001
0200
0000
,  // measure 36
0300
0000
0010
0000
0000
1000
0000
0000
0002
0000
0000
0000
2003
0000
0000
0000
,  // measure 37
3000
0000
0000
0000
0001
0000
0100
0000
0010
0000
0000
1000
0000
0000
1001
0000
,  // measure 38
0000
0001
0100
1000
0010
1000
0202
0000
,  // measure 39
0303
0001
0100
1000
0010
1000
0002
0000
,  // measure 40
0003
0000
0010
0000
0000
0100
0000
0000
0020
0000
0000
0000
2030
0000
0000
0000
,  // measure 41
3000
0000
0100
0000
0000
0010
0000
0000
0100
0000
0000
0001
0000
0000
1000
0000
,  // measure 42
0010
0000
0000
0100
0000
0000
2002
0000
0000
0000
0000
0000
3003
0000
0000
0000
,  // measure 43
0000
0001
0100
1000
0010
1000
0020
0000
,  // measure 44
0030
0000
0100
0000
0000
0001
0000
0000
2000
0000
0000
0000
3020
0000
0000
0000
,  // measure 45
0030
0000
0001
0000
0100
0000
0001
0000
1000
0000
0000
0100
0000
0000
0010
0000
,  // measure 46
0001
0000
0000
0000
1000
0000
0000
0001
0000
0000
1000
0000
0001
0000
0000
0000
,  // measure 47
0000
0001
0100
1000
0010
0001
0200
0000
,  // measure 48
0300
0000
0010
0000
0000
1000
0000
0000
0002
0000
0000
0000
0203
0000
0000
0000
,  // measure 49
0300
0000
0010
0000
0000
1000
0000
0000
0010
0000
0000
0100
0000
0000
0001
0000
,  // measure 50
2000
0000
0000
0002
0000
0000
3003
0000
,  // measure 51
0000
0001
0100
1000
0010
0001
0100
2000
,  // measure 52
0000
3010
1000
0100
0001
0010
0001
0100
,  // measure 53
0000
0010
0001
0100
1000
0010
1000
0001
,  // measure 54
0000
0010
0100
1000
0010
1000
0001
1000
,  // measure 55
0000
0010
1000
0001
0200
0000
0310
0002
,  // measure 56
0000
0203
0000
2300
0000
3010
0000
0000
,  // measure 57
0000
0100
0010
1000
0002
0000
1003
0002
,  // measure 58
0000
0000
2000
0000
0000
0000
3003
0000
0000
0000
0100
0000
0000
0010
0000
0000
,  // measure 59
0100
0000
0000
0110
0000
0000
0000
0000
0000
0000
0001
0000
0000
1000
0000
0000
,  // measure 60
0001
0000
0000
1001
0000
0000
0000
0000
0000
0000
0001
0000
0000
0010
0000
0000
,  // measure 61
0001
0000
0000
0011
0000
0000
0000
0000
0000
0000
0010
0000
0000
1000
0000
0000
,  // measure 62
0010
0000
0000
1000
0000
0000
1001
0000
0000
0000
0010
0000
0000
0100
0000
0000
,  // measure 63
0001
0000
0000
1001
0000
0000
0000
0000
0000
0000
0010
0000
0000
0100
0000
0000
,  // measure 64
0001
0000
0000
1010
0000
0000
0000
0000
0000
0000
0010
0000
0000
0100
0000
0000
,  // measure 65
0001
0000
0000
0010
0000
0000
0102
0000
0000
0000
0103
0000
1000
0000
0010
0000
,  // measure 66
2002
3003
1001
0000
0001
0100
1000
0010
,  // measure 67
0000
0100
0010
1000
0100
0010
0001
0100
,  // measure 68
0000
0010
1000
0100
0010
0001
1000
0100
,  // measure 69
0000
0010
0100
1000
0100
0001
0020
0000
,  // measure 70
0030
0000
0100
0000
0000
1000
0000
0000
0020
0000
0000
0000
0230
0000
0000
0000
,  // measure 71
0300
0010
0001
0100
1000
0010
0100
0001
,  // measure 72
0000
0010
0100
1000
0010
0100
0001
1000
,  // measure 73
0000
0010
1000
0001
1000
0100
0002
0000
,  // measure 74
0003
0000
0010
0000
0000
1000
0000
0000
0002
0000
0000
0000
2003
0000
0000
0000
,  // measure 75
3000
0000
0100
0000
0010
0000
0001
0000
1000
0000
0000
0010
0000
0000
1001
0000
,  // measure 76
0000
0000
0001
0000
0010
0000
0100
0000
1000
0000
0000
0010
0000
0000
1001
0000
,  // measure 77
0000
0000
0100
0000
0010
0000
1000
0000
0001
0000
0000
1000
0000
0000
1001
0000
,  // measure 78
0001
1001
0001
0011
,  // measure 79
1001
0000
0000
0000
;

//---------------dance-single - ----------------
#NOTES:
     dance-single:
     :
     Medium:
     8:
     0.338,0.457,0.362,0.065,0.000,268.000,50.000,9.000,0.000,0.000,0.000,0.338,0.457,0.362,0.065,0.000,268.000,50.000,9.000,0.000,0.000,0.000:
0000
0000
0000
0000
,
0000
0000
0000
0000
,
0000
0000
0000
0000
,
0000
0000
0000
0000
,
0000
0000
0000
0000
,
0000
0001
0010
0000
0001
0000
1001
0000
,
0000
0010
1000
0000
0001
0000
1001
0000
,
0000
0010
0100
0000
0001
0000
1001
0000
,
0000
0110
0110
0110
,
0000
1000
0001
0000
1000
0000
1010
0000
,
0000
0100
0010
0000
1000
0000
0011
0000
,
0000
0100
0010
0000
0001
0000
1001
0000
,
0000
0110
0110
0110
,
0000
0001
0010
0000
1000
0000
1001
0000
,
0000
1000
0001
0000
0100
0000
0110
0000
,
0000
1000
0001
0000
1000
0000
0011
0000
,
0000
1010
1010
1010
,
0011
1001
0101
0011
,
0101
0011
1010
0110
,
1001
0101
0011
0101
,
1001
1010
0110
1001
,
0001
1000
0001
0100
,
0010
1000
0010
0001
,
0100
0001
0100
1000
,
0010
1000
0100
0011
,
1200
0001
1000
0310
,
0002
1000
0100
0013
,
0200
1000
0010
0301
,
0020
1000
0100
0031
,
2000
0010
0001
3100
,
0002
1000
0100
1003
,
0020
1000
0001
1030
,
0002
1000
0100
1003
,
1001
1001
1001
0000
,
0110
0110
0110
0000
,
0000
1000
0001
0000
1000
0000
1001
0000
,
0000
0010
0100
0110
,
0000
1000
0100
1000
,
0020
0030
0100
0100
,
0000
1000
0001
0000
0010
0000
1001
0000
,
0000
0010
1000
1001
,
0000
0001
1000
0010
,
0100
0001
1000
0000
,
0000
0100
0010
0000
0100
0000
0110
0000
,
0000
0001
1000
1010
,
0000
0100
0001
0010
,
1000
0010
1000
0100
,
0000
0100
0001
0000
1000
0000
1001
0000
,
0000
0010
0100
0110
,
0000
0001
0010
1000
,
0100
1000
0010
1000
,
0000
0001
0010
0100
,
1000
0010
1000
0001
,
0100
1000
0010
1000
,
0100
1000
0010
0000
,
0100
1000
0010
1000
,
0001
0010
0001
0100
,
0010
1000
0100
1000
,
0010
1000
0100
0000
,
0010
0010
0000
0100
,
0001
0100
0000
0010
,
1000
0100
0000
0001
,
0100
1000
0000
0100
,
0001
1000
0000
0010
,
0100
1000
0000
0010
,
0001
1000
0100
1000
,
0010
0000
0000
0000
,
0000
0100
0100
0000
0010
0000
0100
0000
,
0000
0001
0001
0000
1000
0000
0010
0000
,
0000
0100
0100
0000
0001
0000
0010
0000
,
0000
0100
1000
0010
,
0000
0100
0100
0000
0001
0000
0010
0000
,
0000
1000
1000
0000
0001
0000
0100
0000
,
0000
0010
0010
0000
0100
0000
1000
0000
,
0000
0100
0001
0010
,
1000
0100
1000
0010
,
1000
0100
1000
0010
,
1000
0100
1000
0100
,
1000
0010
0100
0001
,
1000
0000
0000
0000
;

//---------------dance-single - ----------------
#NOTES:
     dance-single:
     :
     Easy:
     6:
     0.283,0.286,0.289,0.210,0.000,205.000,40.000,29.000,0.000,0.000,0.000,0.283,0.286,0.289,0.210,0.000,205.000,40.000,29.000,0.000,0.000,0.000:
0000
0000
0000
0000
,
0000
0000
0000
0000
,
0000
0000
0000
0000
,
0000
0000
0000
0000
,
0000
0000
0000
0000
,
0000
0002
1000
1003
,
0000
0002
0100
0103
,
0000
2000
0001
3001
,
0000
0010
0100
0110
,
0000
2000
0001
3001
,
0000
0200
0010
0310
,
0000
0002
1000
1003
,
0000
0010
0100
0110
,
0000
2000
0001
3001
,
0000
0200
0010
0310
,
0000
0002
1000
1003
,
0000
0001
1000
1001
,
1001
0010
0100
0000
,
1001
0001
1000
0000
,
1001
0010
0100
0000
,
1001
0001
1000
0000
,
1001
0001
1000
0000
,
0110
0010
0100
0000
,
1001
0001
1000
0000
,
1001
0000
0000
1010
,
1001
0001
1000
0000
,
1001
0001
1000
0000
,
0110
0010
0100
0000
,
1001
0001
1000
0000
,
0110
0010
0100
0000
,
1001
0001
1000
0000
,
0110
0010
0100
0000
,
1001
0001
1000
0000
,
1001
1001
1001
0000
,
0110
0110
0110
0000
,
0000
1001
0001
1000
,
0000
0010
0100
0010
,
0000
0110
0010
0100
,
0010
0001
0010
1000
,
0000
1001
1000
0001
,
0000
0010
0100
0010
,
0000
0110
0000
1001
,
0000
1001
1001
0000
,
0000
1001
0001
1000
,
0000
1000
0010
1000
,
0000
1010
0010
1000
,
0100
0001
0100
0010
,
0000
0110
0001
0100
,
0000
1010
0100
0001
,
0000
0011
0001
0100
,
1000
0000
0000
0000
,
0000
0010
0002
0003
,
0020
0030
0200
0300
,
2000
3000
0200
0300
,
2000
3000
0010
0000
,
0000
0001
2000
3000
,
0200
0300
0002
0003
,
0000
0100
0020
0030
,
0001
0000
0000
0001
,
1000
0001
0000
0010
,
0100
0010
0000
0001
,
1000
0001
0000
0010
,
0100
0010
0000
0001
,
1000
0001
0000
0010
,
0100
0010
0000
0001
,
1000
0000
0000
0010
,
0100
0000
0000
0000
,
0000
0002
1000
1003
,
0000
0020
0100
0130
,
0000
2000
0001
3001
,
0000
0020
2030
3001
,
0000
0020
0100
0130
,
0000
0002
1000
1003
,
0000
0020
0100
0130
,
0000
0002
2003
3010
,
0001
0000
1000
0000
,
0010
0000
1000
0000
,
0100
0000
1000
0000
,
0010
0000
0000
1010
,
1001
0000
0000
0000
;

//---------------dance-single - ----------------
#NOTES:
     dance-single:
     :
     Beginner:
     2:
     0.132,0.171,0.000,0.000,0.000,128.000,0.000,0.000,0.000,0.000,0.000,0.132,0.171,0.000,0.000,0.000,128.000,0.000,0.000,0.000,0.000,0.000:
0000
0000
0000
0000
,
0000
0000
0000
0000
,
0000
0000
0000
0000
,
0000
0000
0000
0000
,
0000
0000
0000
0000
,
0000
0001
0001
0001
,
0000
0010
0010
0010
,
0000
0100
0100
0100
,
0000
0010
0010
0000
,
0000
0001
0001
0001
,
0000
1000
1000
1000
,
0000
0010
0010
0010
,
0000
0100
0100
0000
,
0000
0001
0001
0001
,
0000
1000
1000
1000
,
0000
0010
0010
0010
,
0000
0001
0001
0000
,
0000
0000
0000
0000
,
0000
0000
0000
0000
,
0000
0000
0000
0000
,
0000
0000
0000
0000
,
0001
0000
0000
0000
,
1000
0000
0000
0000
,
0001
0000
0000
0000
,
1000
0000
0000
0000
,
0001
0000
0001
0000
,
1000
0000
1000
0000
,
0010
0000
0010
0000
,
0100
0000
0100
0000
,
0010
0000
0010
0000
,
0100
0000
0100
0000
,
0010
0000
0010
0000
,
0001
0000
0001
0000
,
1000
0000
0000
0000
,
0001
0000
0000
0000
,
0000
1000
1000
1000
,
0000
0010
0010
0010
,
0000
0001
0001
0000
,
0010
0000
0000
0000
,
0000
0100
0100
0100
,
0000
0010
0010
0010
,
0000
0000
0000
0000
,
0000
0000
0000
0000
,
0000
0100
0100
0100
,
0000
0010
0010
0010
,
0000
0001
0001
0000
,
0000
0000
0000
0000
,
0000
1000
1000
1000
,
0000
0010
0010
0010
,
0000
0000
0000
0000
,
0000
0000
0000
0000
,
0100
0000
0000
0000
,
0010
0000
0000
0000
,
0001
0000
0000
0000
,
1000
0000
0000
0000
,
0010
0000
0000
0000
,
0100
0000
0000
0000
,
0001
0000
0000
0000
,
1000
0000
0000
0000
,
0010
0000
0000
0000
,
0100
0000
0000
0000
,
0010
0000
0000
0000
,
0100
0000
0000
0000
,
0001
0000
0000
0000
,
0010
0000
0000
0000
,
0100
0000
0000
0000
,
1000
0000
0000
0000
,
0000
0010
0010
0010
,
0000
0010
0010
0010
,
0000
0010
0010
0010
,
0000
0100
0100
0000
,
0000
1000
1000
1000
,
0000
1000
1000
1000
,
0000
1000
1000
1000
,
0000
0001
0001
0000
,
0010
0000
0000
0000
,
0100
0000
0000
0000
,
1000
0000
0000
0000
,
0010
0000
0000
0100
,
0100
0000
0000
0000
;
