#TITLE:Hvem er Arne;
#SUBTITLE:;
#ARTIST:Stian K & Friends;
#TITLETRANSLIT:;
#SUBTITLETRANSLIT:;
#ARTISTTRANSLIT:;
#GENRE:;
#CREDIT:;
#BANNER:Hvem er Arne.png;
#BACKGROUND:Hvem er Arne-bg.png;
#LYRICSPATH:;
#CDTITLE:;
#MUSIC:Hvem er Arne.ogg;
#OFFSET:-0.020;
#SAMPLESTART:68.840;
#SAMPLELENGTH:15.000;
#SELECTABLE:YES;
#DISPLAYBPM:143.000;
#BPMS:0.000=143.000
;
#STOPS:
;
#BGCHANGES:;
#KEYSOUNDS:;
#ATTACKS:;

//---------------dance-single - ----------------
#NOTES:
     dance-single:
     :
     Hard:
     13:
     0.618,0.655,0.464,0.000,0.188,441.000,53.000,0.000,0.000,0.000,0.000,0.618,0.655,0.464,0.000,0.188,441.000,53.000,0.000,0.000,0.000,0.000: // measure 0
0000
0000
0000
0000
,  // measure 1
0000
0000
0000
0000
,  // measure 2
0000
0000
0000
0000
,  // measure 3
0000
0000
0000
0000
,  // measure 4
0001
0000
0000
0000
1000
0000
0001
1000
0000
0000
0001
0000
0100
0000
1000
0000
,  // measure 5
0010
0000
1000
0000
0100
0000
0010
0100
0000
0000
0001
0000
0100
0000
1010
0000
,  // measure 6
0010
0000
0000
0000
1000
0000
0010
1000
0000
0000
0010
0000
0100
0000
0001
0000
,  // measure 7
0010
0000
0000
0000
1000
0000
0010
0001
0000
0000
0100
0000
0001
0000
1001
0000
,  // measure 8
1000
0000
0000
0000
0010
0000
1000
0001
0000
0000
1000
0000
0010
0000
1000
0000
,  // measure 9
0100
0000
0010
0000
0100
0000
0001
1000
0000
0000
0010
0000
1000
0000
0100
0000
,  // measure 10
0010
0000
0000
0000
0001
0000
0100
0010
0000
0000
0001
0000
0100
0000
1000
0000
,  // measure 11
0010
0000
0000
0000
0100
0000
0010
0100
0000
0000
0001
0000
1000
0000
1001
0000
,  // measure 12
0001
0000
0000
0000
0100
0000
0001
0100
0000
0000
0010
0000
1010
0000
1010
0000
,  // measure 13
0010
0000
0000
0000
0010
0000
0100
0010
0000
0000
0100
0000
0110
0000
0110
0000
,  // measure 14
0010
0000
0001
1000
0110
0000
0001
1000
,  // measure 15
0010
0001
0010
0001
0010
0001
0010
0001
0010
0001
0010
0001
0010
0001
0010
0001
,  // measure 16
0010
0000
1100
0110
,  // measure 17
0001
0000
0010
0100
0011
0000
0100
1000
,  // measure 18
0011
0000
1001
0000
0100
0010
0001
1000
,  // measure 19
0100
0000
0010
0001
0110
0000
1000
0001
,  // measure 20
0110
0000
0010
0100
1000
0100
0010
0001
,  // measure 21
1000
0000
0010
0100
1001
0000
0100
0010
,  // measure 22
1100
0000
0101
0000
0001
0100
1000
0010
,  // measure 23
0001
0000
1000
0010
0101
0000
0010
0100
,  // measure 24
1001
0000
0100
0010
0100
1000
0100
0001
,  // measure 25
0010
0000
0001
0100
0011
0000
0001
0100
,  // measure 26
1010
0000
0101
0000
0001
0100
1000
0010
,  // measure 27
1000
0000
0001
1000
0011
0000
0100
0010
,  // measure 28
1001
0000
0010
0100
1000
0100
0010
0100
,  // measure 29
1000
0000
0001
0100
0011
0000
0010
0100
,  // measure 30
1001
0000
0110
0000
0010
0100
1000
0100
,  // measure 31
0010
0000
0001
0100
1001
0000
0010
0100
,  // measure 32
1001
0000
1000
0100
0010
0001
0100
1000
,  // measure 33
0010
0000
0100
0001
1001
0000
0010
0100
,  // measure 34
1001
0000
0101
0000
0001
0100
1000
0010
,  // measure 35
0001
0000
1000
0100
0011
0000
0001
0100
,  // measure 36
1010
0000
0001
0100
1000
0100
0001
0010
,  // measure 37
1000
0000
0100
0010
1001
0000
0001
0100
,  // measure 38
1010
0000
0101
0000
0001
0100
1000
0010
,  // measure 39
0100
0000
0001
1000
0011
0000
0001
0100
,  // measure 40
1010
0000
0001
0100
1000
0100
0001
0010
,  // measure 41
0100
0000
1000
0100
0010
0000
0001
0010
0100
0000
0000
0010
0100
0000
0001
0000
,  // measure 42
0100
0000
1000
0000
0010
0000
0001
0100
0010
0000
1000
0000
0100
0000
0010
0000
,  // measure 43
0001
0000
0010
0000
0100
0000
1000
0100
0010
0000
0000
0001
0100
0000
0010
0000
,  // measure 44
1000
0000
0001
0000
0100
0000
0010
1000
0001
0000
0010
0000
0100
0000
1000
0000
,  // measure 45
0010
0000
0100
0000
0001
0000
0010
0100
1000
0000
0000
0100
0001
0000
0010
0000
,  // measure 46
0100
0000
1000
0000
0010
0000
0100
0010
0001
0000
1000
0000
0100
0000
0010
0000
,  // measure 47
1000
0000
0100
0000
0001
0000
0010
0100
1000
0000
0000
0100
0001
0000
1000
0000
,  // measure 48
0010
0000
1000
0000
0100
0000
0010
0001
0100
0000
1000
0000
0010
0000
1000
0000
,  // measure 49
0001
0000
0010
0000
0100
0000
1000
0001
1000
0000
0000
0001
0100
0000
1000
0000
,  // measure 50
0010
0000
1000
0000
0001
0000
0010
0100
1000
0000
0001
0000
0100
0000
0010
0000
,  // measure 51
1000
0000
0100
0000
0010
0000
0001
0010
0100
0000
0000
0100
0010
0000
0001
0000
,  // measure 52
0100
0000
0010
0000
1000
0000
0001
0100
1000
0000
0100
0000
0010
0000
1000
0000
,  // measure 53
0001
0000
0100
0000
1000
0000
0010
1000
0001
0000
0000
0001
1000
0000
0100
0000
,  // measure 54
1000
0000
0010
0000
1000
0000
0100
0010
0001
0000
0010
0000
0100
0000
1000
0000
,  // measure 55
0010
0000
0100
0000
1000
0000
1000
0100
0010
0000
0000
0001
0100
0000
1000
0000
,  // measure 56
0010
0000
1000
0000
0100
0000
1000
0010
1000
0000
0100
0000
0001
0000
0010
0000
,  // measure 57
0100
0000
0001
1000
0101
0000
0010
0100
,  // measure 58
1001
0000
0101
0000
0001
0100
1000
0010
,  // measure 59
0100
0000
0001
1000
0110
0000
0001
1000
,  // measure 60
0101
0000
0001
0010
0100
1000
0100
1000
,  // measure 61
0010
0000
0100
0001
1001
0000
0001
0100
,  // measure 62
1010
0000
0101
0000
0001
0100
1000
0010
,  // measure 63
1000
0000
0001
0100
0110
0000
1000
0001
,  // measure 64
1001
0000
0010
1000
0101
0000
0011
0000
,  // measure 65
1100
0000
0000
0000
;

//---------------dance-single - ----------------
#NOTES:
     dance-single:
     :
     Medium:
     12:
     0.522,0.455,1.000,0.000,0.000,283.000,134.000,0.000,0.000,0.000,0.000,0.522,0.455,1.000,0.000,0.000,283.000,134.000,0.000,0.000,0.000,0.000:
0000
0000
0000
0000
,
0000
0000
0000
0000
,
0000
0000
0000
0000
,
0000
0000
0000
0000
,
1001
1001
1001
0010
,
1001
0000
1001
0000
1001
0000
0001
0100
,
1001
1001
1001
0001
,
1001
0000
1001
0000
1001
0000
1000
0100
,
1001
1001
1001
0010
,
1001
0000
1001
0000
1001
0000
0100
0010
,
0110
0110
0110
0010
,
1001
0000
1001
0000
1001
0000
0001
0100
,
0011
0000
1010
0000
0110
0000
0001
0100
,
1001
0000
0110
0000
1010
0000
0100
0010
,
0011
0000
0001
0100
0101
0000
1000
0010
,
1000
0010
0100
1000
0100
0010
0001
1000
,
0100
0000
1010
0101
,
1001
0011
1100
0011
,
1100
0000
1001
0000
0010
0000
0100
1000
,
1010
0101
0011
1001
,
0101
0000
1001
0000
0010
0000
1000
0100
,
1100
0101
0011
0101
,
0011
0000
1001
0000
0100
0000
1000
0100
,
0011
0101
0011
1001
,
0101
0000
1010
0000
0100
0000
0001
0100
,
1100
0101
0011
0101
,
1001
0000
0110
0000
0010
0000
0001
0100
,
1001
0101
0011
0101
,
1001
0000
0101
0000
0001
0000
0100
1000
,
1010
0110
1001
0101
,
0011
0000
0101
0000
0001
0000
1000
0100
,
1010
0110
1001
0101
,
0011
0000
0101
0000
1000
0000
0010
0100
,
1010
0110
1001
0101
,
0110
0000
1010
0000
0010
0000
0100
0010
,
0101
0011
0101
0011
,
1001
0000
0101
0000
0001
0000
0100
1000
,
1010
0101
0011
0101
,
0011
0000
1001
0000
0001
0000
0100
1000
,
1010
0110
1001
0101
,
0011
0000
0110
0000
1001
0000
0001
0100
,
1000
0100
0001
0100
,
1000
0000
0100
0000
1000
0010
1000
0001
,
1000
0100
0001
0010
,
0100
0000
1000
0000
0010
1000
0100
1000
,
0010
0001
0100
0001
,
0010
0000
1000
0000
0100
0010
1000
0010
,
1000
0100
0001
0010
,
0100
0100
0100
0100
,
0010
0001
1000
0010
,
1000
0000
0100
0000
1000
0100
1000
0010
,
1000
0100
0001
0010
,
0001
0000
0100
0000
1000
0100
1000
0010
,
1000
0100
0001
0010
,
0001
0000
0100
0000
0010
1000
0001
1000
,
0010
0100
1000
0100
,
0001
0001
0001
0001
,
1100
0101
0011
0110
,
1100
0000
0101
0000
0001
0000
0100
1000
,
1100
0101
0011
0101
,
1001
0000
0101
0000
0001
0000
0100
1000
,
1010
0110
0011
0110
,
1010
0000
0110
0000
0001
0000
1000
0100
,
1100
0101
0011
0101
,
1001
0110
1001
0110
,
1001
0000
0000
0000
;

//---------------dance-single - ----------------
#NOTES:
     dance-single:
     :
     Easy:
     9:
     0.425,0.398,1.000,0.000,0.000,220.000,120.000,0.000,0.000,0.000,0.000,0.425,0.398,1.000,0.000,0.000,220.000,120.000,0.000,0.000,0.000,0.000:
0000
0000
0000
0000
,
0000
0000
0000
0000
,
0000
0000
0000
0000
,
0000
0000
0000
0000
,
1001
0000
1001
0000
,
1001
0000
1001
0000
,
1010
0000
1010
0000
,
1010
0000
1010
0000
,
0101
0000
0101
0000
,
0101
0000
0101
0000
,
0011
0000
0011
0000
,
0011
0000
0011
0000
,
1010
0000
0000
0000
,
0101
0000
0000
0000
,
1010
0000
1001
0000
,
0010
0010
0010
0010
,
0100
0000
1001
1001
,
0001
0100
1001
0100
,
1001
0001
1001
0110
,
1001
0001
1001
0001
,
0110
0001
1000
0100
,
1001
0100
1001
0001
,
1001
0001
0100
1000
,
1010
0001
0101
0001
,
0011
1010
0110
1001
,
0011
0001
0011
0001
,
0101
0001
1001
0110
,
1010
0010
1001
0010
,
1001
0001
0101
0011
,
1001
0001
0101
0001
,
0011
0010
1010
0101
,
1001
0001
0101
0010
,
1001
0001
0110
1001
,
0101
0001
1001
0010
,
0110
0001
1001
0101
,
0011
0001
0101
0010
,
1001
0010
1010
0110
,
1001
0001
0101
0010
,
1001
0010
1001
0110
,
1010
0010
1001
0010
,
0110
0001
1001
0110
,
1001
1000
1000
1000
,
1001
0001
0001
0001
,
1001
0001
0001
0001
,
1001
0001
0001
0001
,
1001
0001
0001
0001
,
1001
0001
0001
0001
,
1001
0001
0001
0001
,
1000
1000
1000
1000
,
0010
1010
0010
0110
,
0001
0101
0001
0011
,
0010
1010
0010
0110
,
0001
0011
0010
1010
,
0100
0110
0001
0011
,
0010
1010
0010
0011
,
0001
1001
0010
1010
,
0100
0100
0100
0100
,
1001
1000
1001
0001
,
1001
0001
1001
0011
,
1010
0010
0101
0001
,
0011
0001
1001
0101
,
0011
0001
1001
0001
,
0101
0001
0101
1010
,
0110
0001
0101
0001
,
0011
0010
1001
0101
,
1001
0000
0000
0000
;

//---------------dance-single - ----------------
#NOTES:
     dance-single:
     :
     Beginner:
     4:
     0.215,0.228,0.490,0.000,0.000,116.000,56.000,0.000,0.000,0.000,0.000,0.215,0.228,0.490,0.000,0.000,116.000,56.000,0.000,0.000,0.000,0.000:
0000
0000
0000
0000
,
0000
0000
0000
0000
,
0000
0000
0000
0000
,
0000
0000
0000
0000
,
0001
0000
0000
0000
,
1001
0000
0000
0000
,
1000
0000
0000
0000
,
1001
0000
0000
0000
,
0001
0000
0000
0000
,
1001
0000
0000
0000
,
1000
0000
0000
0000
,
1001
0000
0000
0000
,
0001
0000
0000
0000
,
1001
0000
0000
0000
,
1000
0000
0001
0000
,
1000
1000
1000
1000
,
1000
0000
1001
1001
,
1001
0000
0001
0000
,
1000
0000
1001
0000
,
0001
0000
1000
0000
,
0001
0000
1001
0000
,
1000
0000
0001
0000
,
1000
0000
1001
0000
,
0001
0000
1000
0000
,
0001
0000
1001
0000
,
1000
0000
0001
0000
,
1000
0000
1001
0000
,
0001
0000
1000
0000
,
0001
0000
1001
0000
,
1000
0000
0001
0000
,
1000
0000
1001
0000
,
0001
0000
1000
0000
,
0001
0000
1001
0000
,
1001
0000
1001
0000
,
1001
0000
1001
0000
,
1001
0000
1001
0000
,
1001
0000
1001
0000
,
0001
0000
0001
0000
,
0001
0000
0001
0000
,
1000
0000
1000
0000
,
1000
0000
1000
0000
,
1000
0000
1001
0000
,
0001
0000
0001
0000
,
1001
0000
1001
0000
,
1000
0000
1000
0000
,
1001
0000
1001
0000
,
0001
0000
0001
0000
,
1001
0000
1001
0000
,
1000
0000
1000
0000
,
1001
0000
1001
0000
,
1001
0000
1001
0000
,
1001
0000
1001
0000
,
1001
0000
1001
0000
,
1001
0000
1001
0000
,
1001
0000
1001
0000
,
1001
0000
1001
0000
,
1001
0000
1001
0000
,
0001
0000
1000
0000
,
1001
0000
1001
0000
,
0001
0000
1000
0000
,
1001
0000
1001
0000
,
1000
0000
0001
0000
,
1001
0000
1001
0000
,
0001
0000
1000
0000
,
1001
0000
1001
0000
,
1001
0000
0000
0000
;
