#VERSION:0.81;
#TITLE:GENOM SCREAMS (Virus Mix);
#SUBTITLE:;
#ARTIST:L.E.D. LIGHT;
#TITLETRANSLIT:;
#SUBTITLETRANSLIT:;
#ARTISTTRANSLIT:;
#GENRE:;
#ORIGIN:;
#CREDIT:;
#BANNER:GENOM SCREAMS (Virus Mix).png;
#BACKGROUND:GENOM SCREAMS (Virus Mix)-bg.png;
#PREVIEWVID:;
#JACKET:GENOM SCREAMS (Virus Mix)-jacket.png;
#CDIMAGE:;
#DISCIMAGE:;
#LYRICSPATH:;
#CDTITLE:;
#MUSIC:GENOM SCREAMS (Virus Mix).ogg;
#OFFSET:-0.020;
#SAMPLESTART:51.220;
#SAMPLELENGTH:15.000;
#SELECTABLE:YES;
#DISPLAYBPM:150.000;
#BPMS:0.000=150.000;
#STOPS:;
#DELAYS:;
#WARPS:;
#TIMESIGNATURES:0.000=4=4;
#TICKCOUNTS:0.000=4;
#COMBOS:0.000=1;
#SPEEDS:0.000=1.000=0.000=0;
#SCROLLS:0.000=1.000;
#FAKES:;
#LABELS:0.000=Song Start;
#BGCHANGES:;
#KEYSOUNDS:;
#ATTACKS:
;

//---------------dance-single - ----------------
#NOTEDATA:;
#CHARTNAME:;
#STEPSTYPE:dance-single;
#DESCRIPTION:;
#CHARTSTYLE:;
#DIFFICULTY:Hard;
#METER:12;
#RADARVALUES:0.456,0.536,0.275,0.000,0.350,392.000,37.000,0.000,0.000,0.000,0.000,0.000,0.000,0.456,0.536,0.275,0.000,0.350,392.000,37.000,0.000,0.000,0.000,0.000,0.000,0.000;
#CREDIT:;
#DISPLAYBPM:150.000;
#NOTES:
// measure 0
0000
0000
0000
0000
,  // measure 1
0000
0000
0000
0000
,  // measure 2
0000
0000
0000
0000
,  // measure 3
0000
0000
0000
0000
,  // measure 4
0000
0000
0000
0000
,  // measure 5
0000
0000
0000
0000
,  // measure 6
0000
0000
0000
0000
,  // measure 7
0000
0000
0000
0000
,  // measure 8
1000
0000
0000
0100
0000
0000
0010
0000
0001
0000
1000
0000
0100
0000
0001
0000
,  // measure 9
0010
0000
0000
1000
0000
0000
0100
0000
0010
0000
1000
0000
0100
0000
0001
0000
,  // measure 10
0010
0000
0000
1000
0000
0000
0100
0000
0010
0000
0001
0000
1000
0000
0100
0000
,  // measure 11
0010
0000
0000
1000
0000
0000
0100
0000
0010
0000
1000
0000
0100
0000
1000
0000
,  // measure 12
0010
0000
0000
1000
0000
0000
0100
0000
1000
0000
0010
0000
1000
0000
0100
0000
,  // measure 13
0010
0000
0000
0001
0000
0000
1000
0000
0100
0000
0010
0000
0001
0000
1000
0000
,  // measure 14
0100
0000
0000
0010
0000
0000
0100
0000
1000
0000
0100
0000
0001
0000
0010
0000
,  // measure 15
0100
0000
0000
0010
0000
0000
0100
0000
1000
0000
0100
0000
0010
0000
0001
0000
,  // measure 16
1000
0000
0000
1000
0000
0000
0001
0000
0000
0000
0010
0000
0000
0100
0000
0000
,  // measure 17
1000
0000
0000
0100
0000
0000
0010
0000
0000
0000
0000
0000
0000
0000
0000
0000
,  // measure 18
0001
0000
0000
0010
0000
0000
0100
0000
0000
0000
1000
0000
0000
0100
0000
0000
,  // measure 19
1000
0000
0000
0010
0000
0000
1000
0000
0000
0000
0000
0000
0100
0000
0000
0000
,  // measure 20
0001
0000
0000
0100
0000
0000
0010
0000
1000
0000
0010
0000
1000
0000
0100
0000
,  // measure 21
0001
0000
0000
0010
0000
0000
0100
0000
1000
0000
0010
0000
1000
0000
0001
0000
,  // measure 22
1000
0000
0000
0100
0000
0000
1000
0000
0100
0000
0001
0000
0000
0010
0000
0000
,  // measure 23
0001
0000
0000
1000
0000
0000
0010
0000
0000
0000
0000
0000
0100
0000
0000
0000
,  // measure 24
1000
0000
0000
0010
0000
0000
0001
0000
0100
0000
0001
0000
0100
0000
0010
0000
,  // measure 25
1000
0000
0000
0100
0000
0000
1000
0000
0010
0000
1000
0000
0100
0000
0010
0000
,  // measure 26
1000
0000
0000
0100
0000
0000
0010
0000
0001
0000
0100
0000
1000
0000
0010
0000
,  // measure 27
1000
0000
0000
0001
0000
0000
0100
0000
1000
0000
0010
0000
0100
0000
0001
0000
,  // measure 28
1000
0000
0000
0001
0000
0000
0100
0000
0010
0000
1000
0000
0100
0000
1000
0000
,  // measure 29
0010
0000
0000
0100
0000
0000
0001
0000
0100
0000
1000
0000
0010
0000
1000
0000
,  // measure 30
0001
0000
0000
0010
0000
0000
0100
0000
1000
0000
0010
0000
0000
0001
0000
0000
,  // measure 31
1000
0000
0000
0001
0000
0000
0100
0000
0000
0000
0000
0000
1000
0000
0000
0000
,  // measure 32
0010
0000
0000
0001
0000
0000
1001
0000
0000
0000
0010
0000
0000
1000
0000
0000
,  // measure 33
0001
0000
0000
0100
0000
0000
1001
0000
0000
0000
0000
0000
0000
0000
0000
0000
,  // measure 34
0010
0000
0000
1000
0000
0000
1001
0000
0000
0000
0001
0000
0000
0100
0000
0000
,  // measure 35
0010
0000
0000
1000
0000
0000
1001
0000
0000
0000
0000
0000
1001
0000
0000
0000
,  // measure 36
0010
0000
0000
1000
0000
0000
1001
0000
0000
0000
0010
0000
0000
1000
0000
0000
,  // measure 37
0001
0000
0000
0100
0000
0000
1001
0000
0000
0000
0000
0000
0000
0000
0000
0000
,  // measure 38
0010
0000
0000
1000
0000
0000
1001
0000
0000
0000
0001
0000
0000
0100
0000
0000
,  // measure 39
0010
0000
0000
1000
0000
0000
1001
0000
0000
0000
0000
0000
1001
0000
0000
0000
,  // measure 40
0010
0000
0000
1000
0000
0000
1001
0000
0000
0000
0001
0000
0000
0100
0000
0000
,  // measure 41
1000
0000
0000
0010
0000
0000
1001
0000
0000
0000
0000
0000
0000
0000
0000
0000
,  // measure 42
0001
0000
0000
0100
0000
0000
0110
0000
0000
0000
1000
0000
0000
0100
0000
0000
,  // measure 43
0010
0000
0000
1000
0000
0000
1001
0000
0000
0000
0000
0000
1001
0000
0000
0000
,  // measure 44
0010
0000
0000
1000
0000
0000
1001
0000
0000
0000
0010
0000
0000
0100
0000
0000
,  // measure 45
1000
0000
0000
0010
0000
0000
1001
0000
0000
0000
0000
0000
0000
0000
0000
0000
,  // measure 46
0010
0000
0000
1000
0000
0000
1001
0000
0000
0000
0100
0000
0000
0010
0000
0000
,  // measure 47
1000
0000
0000
0001
0000
0000
1001
0000
0000
0000
0000
0000
1001
0000
0000
0000
,  // measure 48
0011
0000
0000
0011
0000
0000
1000
0000
0100
0000
1000
0000
0010
0000
1000
0000
,  // measure 49
1001
0000
0000
1001
0000
0000
0001
0000
0100
0000
1000
0000
0010
0000
1000
0000
,  // measure 50
1001
0000
0000
0101
0000
0000
0001
0000
0100
0000
1000
0000
0010
0000
1000
0000
,  // measure 51
1001
0000
0000
0101
0000
0000
0001
0000
0100
0000
1000
0000
0010
0000
1000
0000
,  // measure 52
1010
0000
0000
1001
0000
0000
0001
0000
1000
0000
0010
0000
1000
0000
0001
0000
,  // measure 53
0101
0000
0000
1001
0000
0000
1000
0000
0010
0000
1000
0000
0001
0000
1000
0000
,  // measure 54
1010
0000
0000
1001
0000
0000
0001
0000
0100
0000
1000
0000
0010
0000
0100
0000
,  // measure 55
0110
0000
0000
1001
0000
0000
0001
0000
0100
0000
1000
0000
0010
0000
1000
0000
,  // measure 56
0010
0000
0000
1000
0000
0000
0100
0000
0010
0000
0001
0000
0100
0000
1000
0000
,  // measure 57
0010
0000
0000
0100
0000
0000
0001
0000
0100
0000
1000
0000
0010
0000
0100
0000
,  // measure 58
1000
0000
0000
0001
0000
0000
0010
0000
0100
0000
1000
0000
0000
0010
0000
0000
,  // measure 59
1000
0000
0000
0001
0000
0000
0100
0000
0000
0000
0000
0000
0000
0000
0000
0000
,  // measure 60
0010
0000
0000
0001
0000
0000
1000
0000
0100
0000
0010
0000
1000
0000
0001
0000
,  // measure 61
1000
0000
0000
0100
0000
0000
1000
0000
0010
0000
1000
0000
0100
0000
0010
0000
,  // measure 62
0001
0000
0000
1000
0000
0000
0100
0000
1000
0000
0010
0000
0000
0001
0000
0000
,  // measure 63
1000
0000
0000
0100
0000
0000
0010
0000
0001
0000
1000
0000
0010
0000
0100
0000
,  // measure 64
0010
0000
0000
1000
0000
0000
0001
0000
0000
0000
0100
0000
0000
1000
0000
0000
,  // measure 65
0010
0000
0000
0100
0000
0000
0001
0000
0000
0000
0000
0000
0000
0000
0000
0000
,  // measure 66
0010
0000
0000
1000
0000
0000
0001
0000
0000
0000
1000
0000
0000
0100
0000
0000
,  // measure 67
0010
0000
0000
0001
0000
0000
1000
0000
0000
0000
0000
0000
0010
0000
0000
0000
,  // measure 68
1000
0000
0000
0100
0000
0000
0010
0000
0000
0000
0001
0000
0000
0100
0000
0000
,  // measure 69
1000
0000
0000
0010
0000
0000
1000
0000
0000
0000
0000
0000
0000
0000
0000
0000
,  // measure 70
0001
0000
0000
0100
0000
0000
1000
0000
0000
0000
0010
0000
0000
1000
0000
0000
,  // measure 71
0001
0000
0000
1000
0000
0000
0010
0000
0000
0000
0000
0000
0010
0000
0000
0000
,  // measure 72
0100
0000
0000
1000
0000
0000
0010
0000
0000
0000
1000
0000
0000
0001
0000
0000
,  // measure 73
0100
0000
0000
0010
0000
0000
0100
0000
0000
0000
0000
0000
0000
0000
0000
0000
,  // measure 74
0001
0000
0000
1000
0000
0000
0010
0000
0000
0000
1000
0000
0000
0001
0000
0000
,  // measure 75
0100
0000
0000
0010
0000
0000
1000
0000
0000
0000
0000
0000
0010
0000
0000
0000
,  // measure 76
1000
0000
0000
0001
0000
0000
1000
0000
0000
0000
0010
0000
0000
0100
0000
0000
,  // measure 77
0001
0000
0000
1000
0000
0000
0010
0000
0000
0000
0000
0000
0000
0000
0000
0000
,  // measure 78
0100
0000
0000
0001
0000
0000
1000
0000
0000
0000
0010
0000
0000
1000
0000
0000
,  // measure 79
0001
0000
0000
1000
0000
0000
0010
0000
0000
0000
0000
0000
0100
0000
0000
0000
,  // measure 80
0110
0000
0000
0000
;

//---------------dance-single - ----------------
#NOTEDATA:;
#CHARTNAME:;
#STEPSTYPE:dance-single;
#DESCRIPTION:;
#CHARTSTYLE:;
#DIFFICULTY:Easy;
#METER:9;
#RADARVALUES:0.384,0.447,0.581,0.000,0.000,283.000,78.000,0.000,0.000,0.000,0.000,0.000,0.000,0.384,0.447,0.581,0.000,0.000,283.000,78.000,0.000,0.000,0.000,0.000,0.000,0.000;
#CREDIT:;
#DISPLAYBPM:150.000;
#NOTES:
0000
0000
0000
0000
,
0000
0000
0000
0000
,
0000
0000
0000
0000
,
0000
0000
0000
0000
,
0000
0000
0000
0000
,
0000
0000
0000
0000
,
0000
0000
0000
0000
,
0000
0000
0000
0000
,
1000
1000
0001
0001
,
1000
1000
0001
0001
,
1000
1000
0001
0001
,
1000
1000
0001
0001
,
1000
1000
0001
0001
,
1000
1000
0001
0001
,
1000
1000
0001
0001
,
1000
1000
0001
0001
,
1010
1010
0010
0010
,
0001
0001
0100
0100
,
1000
1000
0010
0010
,
1000
1000
0001
0001
,
1001
1001
0001
0001
,
1000
1000
0010
0010
,
0100
0100
1001
1001
,
1001
0101
0011
1000
,
1001
1001
1000
0001
,
1000
1000
0001
0001
,
1000
1000
0011
0011
,
1100
1100
0101
1000
,
0011
0011
1001
0010
,
1000
0100
1000
0010
,
1000
0010
1001
0101
,
1001
0000
0000
0000
,
1010
0110
0011
0101
,
1010
0110
1001
0001
,
1001
0101
0011
1001
,
0101
0011
1001
1000
,
1010
0110
0011
1001
,
0101
0011
1001
0001
,
1001
0101
0011
1001
,
0110
1010
0110
1000
,
0001
0010
0001
0100
,
1000
0010
1000
0100
,
1000
0010
1000
0100
,
1000
0010
1000
0100
,
1000
0010
1000
0100
,
1000
0010
1000
0100
,
1000
0010
1000
0100
,
1000
0010
1000
0100
,
1000
1000
1000
1000
,
0001
0001
0001
0001
,
1000
1000
1000
1000
,
0010
0010
0010
0010
,
0100
0100
0100
0100
,
0001
0001
0001
0001
,
1000
1000
1000
1000
,
0010
0010
0010
0010
,
0100
0001
0010
0001
,
0100
0001
0010
0100
,
0001
0010
0001
0100
,
0001
0010
0100
0001
,
0100
0010
0001
0100
,
0010
1000
0100
1000
,
0010
1000
0100
1000
,
0010
0000
0000
0000
,
0011
1010
0110
0011
,
1001
0101
0011
0001
,
1001
0101
0011
1001
,
0110
1010
0110
0001
,
1010
0110
1001
0101
,
0011
1001
0101
0001
,
1010
0110
1001
0101
,
1001
0011
1010
0010
,
0100
1000
0010
1000
,
0100
1000
0010
1000
,
0100
1000
0010
1000
,
0100
1000
0010
1000
,
0100
1000
0010
1000
,
0100
1000
0010
1000
,
0010
0001
0100
0001
,
0010
1000
0100
1000
,
0100
0000
0000
0000
;

//---------------dance-single - ----------------
#NOTEDATA:;
#CHARTNAME:;
#STEPSTYPE:dance-single;
#DESCRIPTION:;
#CHARTSTYLE:;
#DIFFICULTY:Medium;
#METER:10;
#RADARVALUES:0.376,0.357,0.216,0.000,0.246,325.000,29.000,0.000,0.000,0.000,0.000,0.000,0.000,0.376,0.357,0.216,0.000,0.246,325.000,29.000,0.000,0.000,0.000,0.000,0.000,0.000;
#CREDIT:;
#DISPLAYBPM:150.000;
#NOTES:
0000
0000
0000
0000
,
0000
0000
0000
0000
,
0000
0000
0000
0000
,
0000
0000
0000
0000
,
0000
0000
0000
0000
,
0000
0000
0000
0000
,
0000
0000
0000
0000
,
0000
0000
0000
0000
,
1001
0000
0100
0000
1000
0000
0001
0010
,
1001
0000
0100
0000
1000
0000
0001
0010
,
1001
0000
0100
0000
1000
0000
0001
0010
,
1001
0000
0100
0000
1000
0000
0001
0010
,
1001
0000
0100
0000
1000
0000
0001
0010
,
1001
0000
0100
0000
1000
0000
0001
0010
,
1001
0000
1000
0000
0100
0000
0001
0010
,
1001
0000
0010
0000
0100
0000
0001
0010
,
0001
0000
0000
1000
0000
0000
0001
0000
0000
0000
0000
0000
0010
0000
0001
0000
,
0100
0000
0001
0000
0010
0000
0001
0010
,
1000
0000
0000
0000
0100
0000
0000
0000
0000
0000
1000
0000
0000
0100
0000
0000
,
0010
0000
0000
0001
0000
0000
1000
0000
0000
0000
0000
0000
0011
0000
0000
0000
,
1000
0000
0000
0001
0000
0000
0100
0000
0000
0000
0000
0000
0100
0000
0001
0000
,
1000
0000
0010
0000
1000
0000
0100
0010
,
1000
0000
0000
0000
0100
0000
0000
0000
0000
0000
0001
0000
0000
0100
0000
0000
,
1000
0000
0000
0010
0000
0000
0100
0000
0000
0000
0000
0000
0011
0000
0000
0000
,
1000
0000
0000
0001
0000
0000
0100
0000
0000
0000
0000
0000
0100
0000
0010
0000
,
1000
0000
0010
0000
1000
0000
0100
0001
,
1000
0000
0000
0000
0100
0000
0000
0000
0000
0000
0010
0000
0000
0001
0000
0000
,
1000
0000
0000
0100
0000
0000
0010
0000
0000
0000
0000
0000
0011
0000
0000
0000
,
0100
0000
0000
0010
0000
0000
0100
0000
0000
0000
0000
0000
1000
0000
0001
0000
,
0010
0000
1000
0000
0100
0000
0010
1000
,
0001
0000
0000
0000
1000
0000
0000
0000
0000
0000
0100
0000
0000
0010
0000
0000
,
0001
0000
0000
1000
0000
0000
0001
0000
0000
0000
0000
0000
1001
0000
0000
0000
,
0010
0000
0000
0001
0000
0000
1000
0000
0000
0000
0001
0000
0000
0100
0000
0000
,
0010
0000
0000
1000
0000
0000
0001
0000
0000
0000
0000
0000
0000
0000
0000
0000
,
0010
0000
0000
1000
0000
0000
0001
0000
0000
0000
0100
0000
0000
0010
0000
0000
,
1000
0000
0000
0001
0000
0000
0100
0000
0000
0000
0000
0000
1010
0000
0000
0000
,
1000
0000
0000
0100
0000
0000
0010
0000
0000
0000
0001
0000
0000
0100
0000
0000
,
0010
0000
0000
1000
0000
0000
1001
0000
0000
0000
0000
0000
0000
0000
0000
0000
,
0010
0000
0000
1000
0000
0000
0001
0000
0000
0000
0100
0000
0000
1000
0000
0000
,
0010
0000
0000
1000
0000
0000
1001
0000
0000
0000
0000
0000
0101
0000
0000
0000
,
0010
0000
0000
1000
0000
0000
0100
0000
0000
0000
0010
0000
0000
1000
0000
0000
,
0001
0000
0000
0100
0000
0000
0010
0000
0000
0000
0000
0000
0000
0000
0000
0000
,
0100
0000
0000
0001
0000
0000
1000
0000
0000
0000
0010
0000
0000
1000
0000
0000
,
0001
0000
0000
0100
0000
0000
0110
0000
0000
0000
0000
0000
1100
0000
0000
0000
,
0001
0000
0000
0100
0000
0000
0010
0000
0000
0000
1000
0000
0000
0100
0000
0000
,
0010
0000
0000
0001
0000
0000
1000
0000
0000
0000
0000
0000
0000
0000
0000
0000
,
0010
0000
0000
1000
0000
0000
0001
0000
0000
0000
0100
0000
0000
0010
0000
0000
,
1000
0000
0000
0001
0000
0000
0101
0000
0000
0000
0000
0000
1010
0000
0000
0000
,
0001
0000
0010
0000
0001
0000
0100
1000
,
0010
0000
0100
0000
0001
0000
0001
0100
,
1000
0000
0010
0000
1000
0000
0100
1000
,
0010
0000
1000
0000
0100
0000
0001
0010
,
0001
0000
0010
0000
1000
0000
0100
1000
,
0010
0000
1000
0000
0100
0000
0001
0010
,
0001
0000
0100
0000
1000
0000
0010
1000
,
0010
0000
0100
0000
0001
0000
0010
0100
,
1000
0000
0000
0100
0000
0000
0010
0000
0000
0000
0000
0000
0001
0000
0010
0000
,
0100
0000
1000
0000
0010
0000
1000
0001
,
1000
0000
0000
0000
0010
0000
0000
0000
0000
0000
0010
0000
0000
0001
0000
0000
,
0100
0000
0000
0010
0000
0000
0100
0000
0000
0000
0000
0000
0010
0000
0001
0000
,
0100
0000
0000
0010
0000
0000
1000
0000
0000
0000
0000
0000
0010
0000
0001
0000
,
1000
0000
0001
0000
1000
0000
0001
0100
,
0010
0000
0000
0000
1000
0000
0000
0000
0000
0000
0100
0000
0000
0010
0000
0000
,
1000
0000
0000
0100
0000
0000
0010
0000
0000
0000
0000
0000
0000
0000
0000
0000
,
1000
0000
0000
0100
0000
0000
0010
0000
0000
0000
1000
0000
0000
0100
0000
0000
,
1000
0000
0000
0010
0000
0000
0100
0000
0000
0000
0000
0000
0000
0000
0000
0000
,
0001
0000
0000
0100
0000
0000
0010
0000
0000
0000
1000
0000
0000
0100
0000
0000
,
1000
0000
0000
0010
0000
0000
1001
0000
0000
0000
0000
0000
0101
0000
0000
0000
,
0100
0000
0000
0010
0000
0000
1000
0000
0000
0000
0100
0000
0000
0010
0000
0000
,
0100
0000
0000
0001
0000
0000
1000
0000
0000
0000
0000
0000
0000
0000
0000
0000
,
0010
0000
0000
0100
0000
0000
0001
0000
0000
0000
0010
0000
0000
0100
0000
0000
,
1000
0000
0000
0010
0000
0000
0101
0000
0000
0000
0000
0000
1010
0000
0000
0000
,
1000
0000
0000
0100
0000
0000
0010
0000
0000
0000
0001
0000
0000
0100
0000
0000
,
0010
0000
0000
1000
0000
0000
0001
0000
0000
0000
0000
0000
0000
0000
0000
0000
,
0010
0000
0000
0100
0000
0000
1000
0000
0000
0000
0100
0000
0000
0001
0000
0000
,
0010
0000
0000
0100
0000
0000
1001
0000
0000
0000
0000
0000
1001
0000
0000
0000
,
0001
0000
0000
0100
0000
0000
0010
0000
0000
0000
1000
0000
0000
0100
0000
0000
,
0010
0000
0000
0001
0000
0000
1000
0000
0000
0000
0000
0000
0000
0000
0000
0000
,
0001
0000
0000
0100
0000
0000
0010
0000
0000
0000
1000
0000
0000
0100
0000
0000
,
0010
0000
0000
0001
0000
0000
1001
0000
0000
0000
0000
0000
1001
0000
0000
0000
,
0110
0000
0000
0000
;

//---------------dance-single - ----------------
#NOTEDATA:;
#CHARTNAME:;
#STEPSTYPE:dance-single;
#DESCRIPTION:;
#CHARTSTYLE:;
#DIFFICULTY:Beginner;
#METER:4;
#RADARVALUES:0.215,0.268,0.127,0.000,0.000,185.000,17.000,0.000,0.000,0.000,0.000,0.000,0.000,0.215,0.268,0.127,0.000,0.000,185.000,17.000,0.000,0.000,0.000,0.000,0.000,0.000;
#CREDIT:;
#DISPLAYBPM:150.000;
#NOTES:
0000
0000
0000
0000
,
0000
0000
0000
0000
,
0000
0000
0000
0000
,
0000
0000
0000
0000
,
0000
0000
0000
0000
,
0000
0000
0000
0000
,
0000
0000
0000
0000
,
0000
0000
0000
0000
,
1000
1000
1000
0000
,
0001
0001
0001
0000
,
1001
1001
1001
0000
,
0010
0010
0010
0000
,
0110
0110
0110
0000
,
1000
1000
1000
0000
,
1001
1001
1001
0000
,
0001
0001
0001
0000
,
0110
0110
0110
0000
,
1000
1000
1000
0000
,
1001
1001
1001
0000
,
0001
0001
0001
0000
,
1000
1000
1000
0000
,
0010
0010
0010
0000
,
0100
0100
0100
0000
,
0010
0010
0010
0000
,
1000
1000
1000
0000
,
0001
0001
0001
0000
,
0100
0100
0100
0000
,
0010
0010
0010
0000
,
0100
0100
0100
0000
,
0001
0001
0001
0000
,
1000
1000
1000
0000
,
0010
0010
0010
0000
,
0100
0100
0100
0000
,
0010
0010
0010
0000
,
0100
0100
0100
0000
,
0001
0001
0001
0000
,
1000
1000
1000
0000
,
0010
0010
0010
0000
,
0100
0100
0100
0000
,
0001
0001
0001
0000
,
1000
1000
1000
0000
,
0001
0001
0001
0000
,
1000
1000
1000
0000
,
0010
0010
0010
0000
,
0100
0100
0100
0000
,
0010
0010
0010
0000
,
0100
0100
0100
0000
,
0010
0010
0010
0000
,
0000
1000
0000
0001
,
0000
1000
0000
0010
,
0000
1000
0000
0100
,
0000
1000
0000
0010
,
0000
1000
0000
0100
,
0000
1000
0000
0010
,
0000
1000
0000
0100
,
0000
1000
0000
0010
,
0000
1000
0000
0100
,
0000
1000
0000
0010
,
0000
1000
0000
0100
,
0000
0001
0000
0010
,
0000
0001
0000
0100
,
0000
0010
0000
0100
,
0000
0010
0000
0100
,
0000
0001
0000
0110
,
0110
0000
0000
0000
,
1000
0000
0000
0000
,
0001
0000
0000
0000
,
0010
0000
0000
0000
,
0001
0001
0001
0000
,
0010
0010
0010
0000
,
0001
0001
0001
0000
,
1000
1000
1000
0000
,
0010
0000
0000
0000
,
0010
0000
0000
0000
,
0100
0000
0000
0000
,
0100
0000
0000
0000
,
1000
1000
1000
0000
,
0001
0001
0001
0000
,
1000
1000
1000
0000
,
0010
0010
0010
0000
,
0100
0000
0000
0000
;

//---------------dance-single - ----------------
#NOTEDATA:;
#CHARTNAME:;
#STEPSTYPE:dance-single;
#DESCRIPTION:;
#CHARTSTYLE:;
#DIFFICULTY:Challenge;
#METER:11;
#RADARVALUES:0.416,0.387,0.767,0.082,0.238,277.000,103.000,11.000,110.000,0.000,0.000,0.000,0.000,0.416,0.387,0.767,0.082,0.238,277.000,103.000,11.000,110.000,0.000,0.000,0.000,0.000;
#CREDIT:;
#DISPLAYBPM:150.000;
#NOTES:
0000
0000
0000
0000
,
0000
0000
0000
0000
,
0000
0000
0000
0000
,
0000
0000
0000
0000
,
0000
0000
0000
0000
,
0000
0000
0000
0000
,
0000
0000
0000
0000
,
0000
0000
0000
0000
,
1100
1100
0100
0100
,
0101
0101
0001
0001
,
0011
0011
0010
0010
,
0110
0110
0010
0010
,
1001
1001
0001
0001
,
0101
0101
0001
0001
,
0011
0011
0010
0010
,
0110
0110
0010
0010
,
1000
0000
0000
0001
0000
0000
1000
0000
0000
0000
0002
0000
MMM0
0000
0000
0000
,
2MM3
0000
0MMM
3200
M0MM
0020
M30M
0230
,
M00M
0320
0M0M
2030
0MMM
3200
M0MM
0320
,
MM0M
0032
M0M0
0203
M00M
0300
MMMM
0000
,
1000
0000
0000
0010
0000
0000
0100
0000
0000
0000
0000
0000
MMMM
0000
0000
0000
,
0011
0101
0010
0010
,
1001
0000
0000
0000
0101
0000
0000
0000
0000
0000
0001
0000
0000
1000
0000
0000
,
0001
0000
0000
0100
0000
0000
0010
0000
0000
0000
0000
0000
0000
0000
0000
0000
,
0010
0000
0000
1000
0000
0000
0100
0000
0000
0000
0000
0000
0000
0000
0000
0000
,
1001
0101
0011
1001
,
0101
0000
0000
0000
0011
0000
0000
0000
0000
0000
0001
0000
0000
1000
0000
0000
,
0001
0000
0000
0100
0000
0000
0010
0000
0000
0000
0000
0000
MMMM
0000
0000
0000
,
0001
0000
0000
1000
0000
0000
0010
0000
0000
0000
0000
0000
0000
0000
0000
0000
,
1010
0110
0010
0010
,
0110
0000
0000
0000
1001
0000
0000
0000
0000
0000
0001
0000
0000
1000
0000
0000
,
0001
0000
0000
0100
0000
0000
0010
0000
0000
0000
0000
0000
MMMM
0000
0000
0000
,
0011
0000
0000
0011
0000
0000
1001
0000
0000
0000
0001
0000
0000
0100
0000
0000
,
0010
0000
0000
1000
0000
0000
0001
0000
0000
0000
0000
0000
MMMM
0000
0000
0000
,
1001
0000
0000
1001
0000
0000
0101
0000
0000
0000
0001
0000
0000
0100
0000
0000
,
1000
0000
0000
0010
0000
0000
1000
0000
0000
0000
0000
0000
MMMM
0000
0000
0000
,
1100
0000
0000
1100
0000
0000
0110
0000
0000
0000
0010
0000
0000
1000
0000
0000
,
0001
0000
0000
1000
0000
0000
0001
0000
0000
0000
0000
0000
MMMM
0000
0000
0000
,
0101
0000
0000
0101
0000
0000
0011
0000
0000
0000
0010
0000
0000
1000
0000
0000
,
0001
0000
0000
1000
0000
0000
0010
0000
0000
0000
0000
0000
MMMM
0000
0000
0000
,
0101
0000
0000
0101
0000
0000
0011
0000
0000
0000
0010
0000
0000
1000
0000
0000
,
0010
0000
0000
1000
0000
0000
0001
0000
0000
0000
0000
0000
MMMM
0000
0000
0000
,
0101
0000
0000
0101
0000
0000
0011
0000
0000
0000
0001
0000
0000
0100
0000
0000
,
0010
0000
0000
1000
0000
0000
0010
0000
0000
0000
0000
0000
MMMM
0000
0000
0000
,
1001
0000
0000
1001
0000
0000
0101
0000
0000
0000
0010
0000
0000
1000
0000
0000
,
0001
0000
0000
0100
0000
0000
1000
0000
0000
0000
0000
0000
MMMM
0000
0000
0000
,
1100
0000
0000
1100
0000
0000
0101
0000
0000
0000
0010
0000
0000
1000
0000
0000
,
0001
0000
0000
0100
0000
0000
0010
0000
0000
0000
0000
0000
MMMM
0000
0000
0000
,
0101
0101
0010
0010
,
1001
1001
0001
0001
,
1010
1010
0100
0100
,
0011
0011
0010
0010
,
1001
1001
0100
0100
,
1010
1010
0100
0100
,
0011
0011
0100
0100
,
1010
1010
0100
0100
,
0001
0000
0000
0100
0000
0000
0010
0000
0000
0000
0000
0000
0000
0000
0000
0000
,
1001
1001
0010
0010
,
1100
0000
0000
0000
1100
0000
0000
0000
0000
0000
0001
0000
0000
0100
0000
0000
,
1000
0000
0000
0010
0000
0000
1000
0000
0000
0000
0000
0000
0000
0000
0000
0000
,
0001
0000
0000
1000
0000
0000
0010
0000
0000
0000
0000
0000
0000
0000
0000
0000
,
1001
1001
0100
0100
,
0110
0000
0000
0000
0110
0000
0000
0000
0000
0000
0010
0000
0000
1000
0000
0000
,
0001
0000
0000
0100
0000
0000
0010
0000
0000
0000
0000
0000
0000
0000
0000
0000
,
0011
0000
0000
0011
0000
0000
0011
0000
0000
0000
0010
0000
0000
1000
0000
0000
,
0001
0000
0000
1000
0000
0000
0010
0000
0000
0000
0000
0000
MMMM
0000
0000
0000
,
1010
0000
0000
1010
0000
0000
1010
0000
0000
0000
0001
0000
0000
0100
0000
0000
,
0010
0000
0000
1000
0000
0000
0010
0000
0000
0000
0000
0000
MMMM
0000
0000
0000
,
0101
0000
0000
0101
0000
0000
0101
0000
0000
0000
0010
0000
0000
1000
0000
0000
,
0001
0000
0000
1000
0000
0000
0010
0000
0000
0000
0000
0000
MMMM
0000
0000
0000
,
0101
0000
0000
0101
0000
0000
0101
0000
0000
0000
0001
0000
0000
0100
0000
0000
,
0010
0000
0000
1000
0000
0000
0010
0000
0000
0000
0000
0000
MMMM
0000
0000
0000
,
1001
0000
0000
1001
0000
0000
1001
0000
0000
0000
0001
0000
0000
0100
0000
0000
,
0010
0000
0000
1000
0000
0000
0010
0000
0000
0000
0000
0000
MMMM
0000
0000
0000
,
1001
0000
0000
1001
0000
0000
1001
0000
0000
0000
0010
0000
0000
0100
0000
0000
,
1000
0000
0000
0010
0000
0000
0100
0000
0000
0000
0000
0000
MMMM
0000
0000
0000
,
0011
0000
0000
0011
0000
0000
0011
0000
0000
0000
0010
0000
0000
1000
0000
0000
,
0001
0000
0000
0100
0000
0000
0010
0000
0000
0000
0000
0000
MMMM
0000
0000
0000
,
1100
0000
0000
1100
0000
0000
1100
0000
0000
0000
1000
0000
0000
0100
0000
0000
,
0010
0000
0000
0001
0000
0000
1000
0000
0000
0000
0000
0000
MMMM
0000
0000
0000
,
1001
0000
0000
0000
;
