#TITLE:Burning Bridges;
#SUBTITLE:;
#ARTIST:Mest;
#TITLETRANSLIT:;
#SUBTITLETRANSLIT:;
#ARTISTTRANSLIT:;
#GENRE:;
#CREDIT:;
#BANNER:Burning Bridges.png;
#BACKGROUND:Burning Bridges-bg.png;
#LYRICSPATH:;
#CDTITLE:;
#MUSIC:Burning Bridges.ogg;
#OFFSET:-0.040;
#SAMPLESTART:103.340;
#SAMPLELENGTH:15.000;
#SELECTABLE:YES;
#DISPLAYBPM:*;
#BPMS:0.000=90.000
,92.000=180.000
,156.000=90.000
,188.000=180.000
,260.000=90.000
;
#STOPS:
;
#BGCHANGES:;
#KEYSOUNDS:;
#ATTACKS:;

//---------------dance-single - ----------------
#NOTES:
     dance-single:
     :
     Hard:
     14:
     0.550,0.798,0.234,0.801,0.370,373.000,31.000,106.000,0.000,0.000,0.000,0.550,0.798,0.234,0.801,0.370,373.000,31.000,106.000,0.000,0.000,0.000: // measure 0
0000
0000
0000
0000
,  // measure 1
0000
0000
0000
0000
0000
0000
0000
0000
0000
0000
0000
0000
0000
0001
0010
0100
,  // measure 2
0002
0000
0000
1003
0000
0100
0000
0020
0000
0000
0000
0030
0000
0001
0010
0100
,  // measure 3
0001
0020
0000
0031
1000
0000
0010
0000
0200
0000
0000
0000
0000
0000
0000
0310
,  // measure 4
0001
0000
1000
0000
0001
0000
0000
0010
0100
1000
0000
0020
0000
0000
0000
0030
,  // measure 5
0100
0010
0000
0001
0000
1000
0000
0020
0000
0000
0000
0000
0030
0000
0000
0000
,  // measure 6
1000
0000
0001
0000
0000
0000
0010
0000
0000
0000
0100
0000
0000
0000
2000
0000
3000
0000
0000
0000
0000
0000
0000
0000
0000
0000
0010
0000
0000
0001
0000
0000
,  // measure 7
1000
0000
0100
0010
0000
0100
0000
0002
0000
0000
0000
0000
0000
0000
0003
0010
,  // measure 8
0100
0010
0000
0100
0000
0000
0000
0001
0000
1000
0000
0020
0000
0000
0030
1000
,  // measure 9
0100
0000
0010
0000
0100
0001
0000
0020
0000
0000
0000
0000
0000
0030
0000
0010
,  // measure 10
0100
0000
1000
0000
0010
1000
0000
0002
0000
0003
0010
0000
0100
0000
0010
0000
,  // measure 11
1002
0000
0000
0003
1001
0000
0100
0000
0020
0000
0000
2030
0000
0000
3001
0100
,  // measure 12
1000
0010
0000
0100
0000
0010
0000
0200
0300
0000
0010
0000
0100
0000
0001
0000
,  // measure 13
1002
0000
0000
0003
1001
0000
0100
0000
0020
0000
0000
2000
0030
0000
3100
0010
,  // measure 14
0001
0010
0000
0100
0000
0000
1000
0010
0000
0000
0100
0000
0001
0000
1000
0000
,  // measure 15
0010
0000
0100
0000
0000
0000
0010
0000
2000
0000
0000
3002
0000
0103
1000
0100
,  // measure 16
1000
0100
0000
0010
0000
0000
0001
0100
0000
0000
0020
0000
0000
0030
1000
0200
,  // measure 17
0000
0000
0300
0020
0000
0000
0031
0000
1000
0000
0000
0000
0010
0000
1000
0000
,  // measure 18
2002
3003
0202
0303
0022
0033
2020
3030
,  // measure 19
0001
0100
0001
0100
0001
1000
0010
1000
0010
0100
0010
0100
0010
0000
0001
0000
,  // measure 20
2002
3003
0202
0303
0022
0033
2002
3003
,  // measure 21
1000
0100
1000
0100
1000
0010
1000
0010
1000
0001
1000
0001
0100
0001
0100
0001
,  // measure 22
1000
0000
0100
0000
1000
0000
0010
0001
,  // measure 23
0000
0010
1000
0001
2000
0000
3000
0000
,  // measure 24
0000
0010
0001
0100
0020
0000
0030
0000
,  // measure 25
0000
0010
1000
0001
0200
0000
0300
0010
,  // measure 26
0001
0000
1000
0100
0010
0001
2000
0000
,  // measure 27
3000
0010
0100
0001
2000
0000
3000
0000
,  // measure 28
0000
0010
0100
1000
0002
0000
0003
0000
,  // measure 29
0000
0010
0100
0000
0010
0000
0100
0001
,  // measure 30
1000
0100
1000
0000
0010
0100
0001
1000
,  // measure 31
0010
0100
0000
0010
0000
1000
0000
0002
,  // measure 32
0000
0000
0003
0000
0000
0010
0000
0100
,  // measure 33
1000
0000
0010
0100
0000
0001
0000
2000
,  // measure 34
0000
0000
0000
3000
,  // measure 35
0010
0000
0001
0100
0000
0000
0000
0000
,  // measure 36
0010
1000
0000
0010
0000
0100
0001
1000
,  // measure 37
0020
0030
0000
0100
1000
0100
0000
0020
,  // measure 38
0000
0000
0000
0000
0000
0030
0000
1000
,  // measure 39
0001
0000
0010
0000
0100
0010
0000
2000
3000
0000
0010
0000
0100
0000
0001
0000
,  // measure 40
2000
0000
3000
0000
0002
0000
0003
0000
0200
0000
0300
0000
0020
0000
0130
1000
,  // measure 41
0010
0100
0000
0001
0000
0010
0000
0200
0300
0000
0010
0000
1000
0000
0001
0000
,  // measure 42
2000
0000
3000
0000
0020
0000
0030
0000
0200
0000
0300
0000
0002
0000
0013
0100
,  // measure 43
1000
0010
0000
0100
0000
0000
0010
0100
0000
0000
0001
0000
0100
0000
0010
0000
,  // measure 44
1000
0000
0001
0000
0000
0000
0010
0000
2000
0000
0000
3020
0000
0130
1000
0001
,  // measure 45
0010
0100
0000
0002
0000
0000
0013
0200
0000
0300
0020
0000
0000
0030
0100
0020
,  // measure 46
0000
0030
0000
0100
0000
0000
0010
0000
2000
0000
0000
0000
3100
0000
0010
0000
,  // measure 47
0202
0303
2020
3030
,  // measure 48
0202
0303
0022
0033
,  // measure 49
1000
0100
1000
0100
1000
0100
1000
0100
,  // measure 50
0001
0100
0001
0100
0001
0000
0010
0000
,  // measure 51
2002
3003
0202
0303
,  // measure 52
0022
0033
2020
3030
,  // measure 53
0001
0100
0001
0100
0001
0100
0001
0100
,  // measure 54
1000
0010
1000
0010
1000
0000
0100
0000
,  // measure 55
2020
3030
0220
0330
,  // measure 56
0022
0000
0033
0000
2002
3003
0001
0000
,  // measure 57
1000
0100
0000
0020
0000
0030
0010
0200
,  // measure 58
0000
0300
0010
0001
1000
0000
0001
0000
,  // measure 59
2002
3003
2200
3300
,  // measure 60
0220
0000
0330
0000
0022
0033
1000
0000
,  // measure 61
2002
3003
0220
0330
,  // measure 62
2020
0000
3030
0001
1000
0000
0000
0000
,  // measure 63
0010
0001
0100
1000
0010
1000
0100
0001
,  // measure 64
0010
0100
1000
0100
0001
0010
0100
1000
,  // measure 65
0001
0010
0100
0001
0010
0001
0100
0001
0010
0001
0100
0001
0010
0001
0100
1000
,  // measure 66
0010
0000
0000
0000
;

//---------------dance-single - ----------------
#NOTES:
     dance-single:
     :
     Medium:
     12:
     0.448,0.498,0.597,0.476,0.159,273.000,79.000,63.000,0.000,0.000,0.000,0.448,0.498,0.597,0.476,0.159,273.000,79.000,63.000,0.000,0.000,0.000:
0000
0000
0000
0000
,
0000
0000
0000
0000
0000
0000
0000
0010
,
0002
0000
0003
0010
0000
0100
0000
2000
0000
0000
3000
0000
0000
0000
0100
0000
,
0010
0001
0000
1000
0001
0000
0100
0000
2000
0000
0000
0000
3000
0000
0000
0000
,
0100
0000
0010
0000
1000
0000
0000
0100
0010
0000
0001
0000
2000
0000
0000
0000
,
3010
0100
0000
0001
0000
1000
0000
0020
0000
0000
0000
0000
0030
0000
0000
0000
,
0100
0000
0000
0001
0000
0010
0000
0100
0000
0000
0000
0000
0000
0000
1000
0000
,
0010
0000
0000
0001
0000
1000
0000
0020
0000
0000
0000
0000
0000
0000
0030
0000
,
0100
0000
0001
0000
1001
0000
0000
0010
0000
0100
0000
0220
0000
0000
0330
0000
,
0001
0000
1000
0000
0010
0000
0000
0200
0000
0000
0000
0000
0000
0000
0300
0000
,
0010
0000
0001
0000
1000
0000
0000
0100
0000
0000
0001
0000
0100
0000
1000
0000
,
1001
0000
0000
0000
0101
0000
0000
0000
0000
0000
0000
0000
0000
0000
0010
0100
,
1000
0100
0000
0010
0000
0100
0000
1000
0000
0000
0010
0000
0100
0000
1000
0000
,
1010
0000
0000
0000
0101
0000
0000
0000
0000
0000
0000
0000
0000
0000
0010
0001
,
0100
1000
0100
0000
1001
0000
0010
0100
,
1000
0000
0010
0000
1000
0000
0000
0000
0000
0000
0000
0000
0000
0001
0100
0000
,
1000
0000
0000
0010
0000
0000
0100
0001
0000
0000
2002
0000
0000
3003
1000
0001
,
0000
0000
0000
0000
0000
0000
0010
0100
,
1002
0000
0000
0003
0102
0000
0000
0003
1020
0000
0000
0030
1200
0000
0000
0300
,
0001
0100
1000
0010
1000
0001
1000
0010
,
1002
0003
0102
0003
1020
0030
1002
0003
,
0010
1000
0100
1000
0010
1000
0100
1000
,
1010
1010
1010
1010
,
0000
0010
1000
0000
0010
0000
0000
0000
,
0000
0001
0100
0000
0101
0000
0000
0000
,
0000
0001
0100
0000
1001
0000
0000
1000
,
0010
0000
1000
0100
0001
0010
1000
0000
,
0000
0010
0100
0000
1001
0000
0000
0000
,
0000
0001
1000
0000
1001
0000
0000
0010
,
0100
0001
1000
0000
0000
0000
0000
0000
,
1001
0101
0011
1010
,
0100
0000
0000
1001
0000
0101
0000
0022
,
0000
0000
0033
0000
0000
0010
0000
1000
,
0001
0000
0010
1001
0000
0101
0000
0022
,
0000
0000
0000
0033
,
0010
0000
1000
0010
0000
0000
0000
0000
,
0010
1000
0000
0001
0000
0010
1000
0001
,
1000
0000
0000
0001
0010
1000
0000
2002
,
0000
0000
0000
0000
0000
0000
3003
0001
,
1000
0000
0010
0000
0100
0000
0000
0010
0000
0000
1000
0000
0100
0000
0010
0000
,
0101
0000
1010
0000
0000
0000
0000
0010
,
0100
0000
0000
0001
0000
1000
0000
0010
0000
0000
1000
0000
0100
0000
0010
0000
,
1001
0000
0101
0000
0000
0000
0000
0010
,
0001
1000
0000
0010
0000
0000
0001
1000
0000
0000
0010
0000
0001
0000
1000
0000
,
0010
0000
1001
0000
0000
0000
0000
0000
0000
0000
0000
0000
0000
0010
0001
0000
,
0100
0000
0000
0010
0000
0000
0001
0100
0000
0000
0001
0000
0000
0000
0010
0100
,
0000
1000
0100
1000
0010
0000
1001
0101
,
0022
0033
2020
3030
,
0220
0330
2002
3003
,
0001
0010
0100
1000
,
0010
1000
0110
0011
,
2002
3003
0202
0303
,
0022
0033
2002
3003
,
0001
0100
1000
0010
,
1000
0100
1010
0110
,
2002
3003
0202
0303
,
0022
0033
0202
0303
,
1010
0110
1001
0011
,
1001
0101
1010
0110
,
2002
3003
0202
0303
,
0022
0033
0202
0303
,
2002
3003
0202
0303
,
0022
0033
1001
0000
,
0001
0100
1000
0010
,
1000
0100
1000
0010
,
1100
0000
1100
0000
1100
0000
1100
0001
,
1001
0000
0000
0000
;

//---------------dance-single - ----------------
#NOTES:
     dance-single:
     :
     Easy:
     6:
     0.291,0.349,0.347,0.370,0.000,175.000,46.000,49.000,0.000,0.000,0.000,0.291,0.349,0.347,0.370,0.000,175.000,46.000,49.000,0.000,0.000,0.000:
0000
0000
0000
0000
,
0000
0000
0000
0000
0000
0000
0000
0001
,
0001
0000
0001
0000
0001
0000
0000
0010
,
0010
0010
0010
0000
,
0110
0110
0010
0010
,
0110
0110
2002
3003
,
1000
1000
0001
0000
,
0001
0001
2000
3000
,
1010
1010
0110
0110
,
0001
0100
2002
3003
,
0010
0100
1000
0100
,
1001
0110
0000
0000
,
0001
0100
1000
0010
,
1010
0110
0000
0000
,
0001
0100
0001
0100
,
1000
0010
0000
0000
,
0001
0100
0001
0010
,
1001
0000
0000
0001
,
0012
0003
1002
0003
1020
0030
1200
0300
,
0000
0000
0000
1000
,
1200
0300
0120
0030
0102
0003
1020
0030
,
0000
0000
0000
0000
,
0100
0100
0100
0100
,
0000
0010
0001
0000
,
0000
0010
1000
0000
,
0000
0100
0010
0000
,
0001
0000
0100
0000
1000
0100
0010
0000
,
0000
0001
1000
0000
,
0000
0100
0001
0000
,
0010
0001
0000
0000
,
1000
0000
0100
0000
1000
0010
0001
0000
,
1000
0001
0100
0010
,
1001
0000
0000
0010
,
0100
1000
0100
0001
,
2002
0000
0000
3003
,
0010
0000
1000
0000
,
0010
0000
0100
0000
,
0001
0000
0010
0000
,
2002
0000
3003
0000
,
0010
1000
0100
1000
,
0010
0100
0000
0000
,
0001
0100
1000
0010
,
1000
0001
0000
0000
,
1000
0100
0010
0001
,
1000
0100
0000
0000
,
0010
1000
0100
1000
,
0010
0000
0000
0100
,
0220
0330
2002
3003
,
0022
0033
2200
0000
,
0000
0000
0000
0000
,
3300
0000
0001
0100
,
0022
0033
0202
0303
,
0022
0033
2002
0000
,
0000
0000
0000
3003
,
0000
0000
0001
0100
,
2020
3030
0220
0330
,
0022
0033
2002
3003
,
0001
0100
1000
0010
,
1000
0100
0001
0010
,
2020
3030
0202
0303
,
0022
0033
2002
3003
,
0011
0000
0101
0000
,
1010
0000
0110
0000
,
1000
0100
1000
0010
,
1000
0100
1000
0010
,
1000
0000
1000
0000
1000
0000
1000
0100
,
0001
0000
0000
0000
;

//---------------dance-single - ----------------
#NOTES:
     dance-single:
     :
     Beginner:
     3:
     0.145,0.150,0.257,0.008,0.000,99.000,34.000,1.000,0.000,0.000,0.000,0.145,0.150,0.257,0.008,0.000,99.000,34.000,1.000,0.000,0.000,0.000:
0000
0000
0000
0000
,
0000
0000
0000
0000
,
0001
0001
0001
0000
,
0010
0010
0010
0000
,
0100
0000
1000
0000
,
0010
0000
1000
0000
,
0010
0010
0010
0000
,
0100
0100
0100
0000
,
1000
0000
0010
0000
,
1000
0000
0100
0000
,
1001
0000
1001
0000
,
0001
0001
0000
0000
,
1001
0000
1001
0000
,
1000
1000
0000
0000
,
0010
0000
0010
0000
,
0100
0100
0000
0000
,
0010
0000
0001
0000
,
1001
0000
0000
0000
,
0110
0000
0000
0000
,
1001
0000
0000
0000
,
0110
0000
0000
0000
,
1001
0000
0000
0000
,
0110
0000
0000
0000
,
1001
0000
0000
0000
,
1001
0000
0000
0000
,
1001
0000
0000
0000
,
1001
0000
0000
0000
,
1001
0000
0000
0000
,
1001
0000
0000
0000
,
1001
0000
0000
0000
,
1001
0000
0000
0000
,
0001
0000
0010
0000
,
0100
0000
0000
1000
,
1000
0000
0100
0000
,
0010
0000
0000
0000
,
0001
0000
0100
0000
,
1000
0000
0010
0000
,
0100
0000
0001
0000
,
0020
0000
0030
0000
,
0100
0000
0010
0000
,
0100
0100
0000
0000
,
0001
0000
1000
0000
,
0010
0010
0000
0000
,
0100
0000
0010
0000
,
0001
0001
0000
0000
,
1001
0000
0110
0000
,
1001
0000
0000
0000
,
1001
0000
0000
0000
,
0000
0000
0000
0000
,
1001
0000
0000
0000
,
0000
0000
0000
0000
,
1001
0000
0000
0000
,
0000
0000
0000
0000
,
1001
0000
0000
0000
,
0000
0000
0000
0000
,
1001
0000
0000
0000
,
0000
0000
0000
0000
,
1001
0000
0110
0000
,
1001
0000
0110
0000
,
1001
0000
0000
0000
,
0000
0000
0000
0000
,
1001
0000
0110
0000
,
1001
0000
0000
0000
,
0001
0000
0010
0000
,
0100
0000
1000
0000
,
0010
0010
0010
0010
,
0010
0000
0000
0000
;
