#TITLE:Brackish;
#SUBTITLE:;
#ARTIST:Kittie;
#TITLETRANSLIT:;
#SUBTITLETRANSLIT:;
#ARTISTTRANSLIT:;
#GENRE:;
#CREDIT:;
#BANNER:Brackish.png;
#BACKGROUND:Brackish-bg.png;
#LYRICSPATH:;
#CDTITLE:;
#MUSIC:Brackish.ogg;
#OFFSET:-0.040;
#SAMPLESTART:33.620;
#SAMPLELENGTH:15.000;
#SELECTABLE:YES;
#DISPLAYBPM:143.000;
#BPMS:0.000=143.000
;
#STOPS:
;
#BGCHANGES:0.000=Brackish.avi=1.000=0=0=1=====,
262.000=Brackish-bg.PNG=1.000=0=0=1=====,
99999=-nosongbg-=1.000=0=0=0 // don't automatically add -songbackground-
;
#KEYSOUNDS:;
#ATTACKS:;

//---------------dance-single - Blank----------------
#NOTES:
     dance-single:
     :
     Hard:
     13:
     0.564,0.591,0.460,0.144,0.397,371.000,51.000,16.000,0.000,0.000,0.000,0.564,0.591,0.460,0.144,0.397,371.000,51.000,16.000,0.000,0.000,0.000: // measure 0
0000
0000
0000
0000
,  // measure 1
0000
0000
0000
0000
,  // measure 2
0000
0000
0000
0000
,  // measure 3
0000
0000
0000
0000
,  // measure 4
1000
0100
0000
1000
0010
0000
1000
0001
0000
1000
0100
0000
1000
0000
0010
0000
,  // measure 5
1000
0001
0000
1000
0010
0000
1000
0100
0000
1000
0010
0000
1000
0000
0100
0000
,  // measure 6
0010
0001
0000
0010
0100
0000
1000
0001
0000
1000
0010
0000
0100
0000
0001
0000
,  // measure 7
0010
0100
0000
1000
0001
0000
1000
0010
0000
1000
0100
0000
1000
0000
0010
0000
,  // measure 8
1000
0010
0000
0100
0001
0000
0010
0100
0000
1000
0010
0000
1000
0000
0100
0000
,  // measure 9
1000
0010
0000
1000
0100
0000
1000
0010
0000
0100
0001
0000
0010
0000
1000
0000
,  // measure 10
0010
0001
0000
0100
1000
0000
0010
0100
0000
0001
0100
0000
1000
0000
0010
0000
,  // measure 11
0100
0010
0000
0100
1000
0000
0001
0100
0000
0010
1000
0000
0001
0000
0100
0000
,  // measure 12
2002
0000
3003
0202
0000
0303
1010
0000
,  // measure 13
0220
0000
0000
0000
0330
0000
0101
2002
,  // measure 14
0000
0000
3003
0000
,  // measure 15
0010
0100
1000
0010
2002
0000
0000
3003
,  // measure 16
2020
0000
3030
0202
0000
0303
0011
0000
,  // measure 17
1001
0000
0101
0000
0011
0000
1001
0202
,  // measure 18
0000
0000
0000
0303
0000
0000
0000
0000
,  // measure 19
1010
0110
0011
1001
,  // measure 20
0001
0000
0010
0000
0100
0000
1000
0100
0000
1000
0010
0000
1000
0000
0100
0000
,  // measure 21
0010
0000
0100
0000
0001
0000
1000
0001
0000
1000
0010
0000
0100
0000
0001
0000
,  // measure 22
1000
0000
0010
0000
0100
0010
0000
1000
0000
0001
0100
0000
0010
0000
1000
0000
,  // measure 23
0000
0000
0000
1001
0000
0101
0000
0000
,  // measure 24
0010
0000
1000
0000
0001
0000
0100
1000
0000
0010
1000
0000
0100
0000
1000
0000
,  // measure 25
0010
0000
0100
0000
0001
0000
0010
0100
0000
0010
1000
0000
0100
0000
0001
0000
,  // measure 26
1000
0000
0010
0000
1000
0001
0000
0010
0000
0100
1000
0000
0010
0000
1000
0000
,  // measure 27
0000
0000
0000
1010
0000
1001
0000
0000
,  // measure 28
0010
0000
0001
0010
0100
1000
1001
0000
,  // measure 29
0000
0000
0010
0100
1000
0001
0011
0000
,  // measure 30
0000
0000
0000
0010
0100
1000
0011
0000
,  // measure 31
0000
0000
0011
0000
0101
0011
1001
0000
,  // measure 32
0000
0000
0000
0010
0100
1000
0011
0000
,  // measure 33
0000
0000
0000
0010
0100
1000
0010
0100
,  // measure 34
1001
0110
1010
0110
,  // measure 35
0011
0110
1010
0110
,  // measure 36
0001
0000
0010
0000
0100
0000
1000
0100
0000
0010
0100
0000
0001
0000
0100
0000
,  // measure 37
1000
0000
0010
0000
0100
0000
0001
0100
0000
1000
0010
0000
0100
0000
0001
0000
,  // measure 38
0100
0000
1000
0000
0010
1000
0000
0010
0000
0100
0001
0000
0010
0000
0100
0000
,  // measure 39
0000
0000
0000
1001
0000
0101
0000
0000
,  // measure 40
0010
0000
0100
0000
1000
0000
0010
0100
0000
0001
0100
0000
1000
0000
0010
0000
,  // measure 41
1000
0000
0001
0000
0100
0000
1000
0010
0000
0100
0001
0000
1000
0000
0010
0000
,  // measure 42
0100
0000
0001
0000
1000
0001
0000
0010
0000
0100
0001
0000
1000
0000
0010
0000
,  // measure 43
0000
0000
0000
1001
0000
0101
0000
0000
,  // measure 44
0010
0000
0100
0000
1000
0000
0010
1000
0000
0001
0100
0000
0010
0000
1000
0000
,  // measure 45
0010
0000
0100
0000
0001
0000
0010
0100
0000
1000
0010
0000
0100
0000
0001
0000
,  // measure 46
0100
0000
1000
0000
0010
0001
0000
1000
0000
0010
1000
0000
0001
0000
1000
0000
,  // measure 47
0000
0000
0000
1010
0000
0110
0000
0000
,  // measure 48
0001
0000
0100
0000
1000
0000
0010
1000
0000
0001
1000
0000
0010
0000
0100
0000
,  // measure 49
0001
0000
0100
0000
1000
0000
0010
1000
0000
0001
1000
0000
0010
0000
0100
0000
,  // measure 50
0001
0000
0010
0000
0100
1000
0000
0010
0000
1000
0001
0000
1000
0000
0010
0000
,  // measure 51
0000
0000
0000
1001
0000
0101
0000
0000
,  // measure 52
0010
0000
1000
0000
0001
0000
0100
0010
0000
1000
0001
0000
0100
0000
0010
0000
,  // measure 53
1000
0000
0001
0000
0100
0000
0010
1000
0000
0001
0100
0000
0010
0000
1000
0000
,  // measure 54
0001
0000
0100
0000
0010
1000
0000
0001
0000
0100
0010
0000
1000
0000
0001
0000
,  // measure 55
0000
0000
0000
1001
0000
0101
0000
0000
,  // measure 56
0010
0000
1000
0000
0001
0000
0100
0010
0000
1000
0001
0000
0010
0000
0100
0000
,  // measure 57
1000
0000
0001
0000
0100
0000
1000
0010
0000
1000
0100
0000
0010
0000
1000
0000
,  // measure 58
0001
0000
1000
0000
0010
0100
0000
0010
0000
1000
0001
0000
0100
0000
0010
0000
,  // measure 59
0000
0000
0000
1001
0000
0101
0000
0000
;

//---------------dance-single - ----------------
#NOTES:
     dance-single:
     :
     Medium:
     9:
     0.384,0.430,0.415,0.045,0.000,247.000,46.000,5.000,0.000,0.000,0.000,0.384,0.430,0.415,0.045,0.000,247.000,46.000,5.000,0.000,0.000,0.000:
0000
0000
0000
0000
,
0000
0000
0000
0000
,
0000
0000
0000
0000
,
0000
0000
0000
0000
,
1000
0100
1000
0010
1000
0100
1000
0010
,
1000
0100
1000
0010
1000
0100
1000
0010
,
1000
0100
1000
0010
1000
0100
1000
0010
,
1000
0100
1000
0010
1000
0100
1000
0010
,
1000
0100
1000
0010
1000
0100
1000
0010
,
1000
0100
1000
0010
1000
0100
1000
0010
,
1000
0100
1000
0010
1000
0100
1000
0010
,
1000
0100
1000
0010
1000
0100
1000
0010
,
2000
0000
0000
3200
0000
0000
0301
0000
,
0020
0000
0030
0100
,
0020
0000
0000
0030
,
0001
0010
0001
0000
,
0010
0000
0000
0100
0000
0000
1000
0000
,
0100
0010
0001
1000
,
0002
0000
0000
0003
,
1001
0101
0011
1001
,
1000
0000
0100
0000
1000
0000
0100
0001
,
0100
0000
1000
0000
0100
0000
1000
0010
,
1000
0000
0100
0000
1000
0000
0010
0100
,
0000
0000
0000
0101
0000
0011
0000
0000
,
0010
0000
0100
0000
0010
0000
1000
0010
,
1000
0000
0100
0000
1000
0000
0010
0100
,
0010
0000
1000
0000
0001
0000
1000
0010
,
0000
0000
0000
1010
0000
0110
0000
0000
,
1001
0011
1001
0110
,
0000
0101
1001
1010
,
0000
0000
0101
0011
,
0000
1010
0101
0011
,
0000
0011
1010
0101
,
0000
0110
1001
0101
,
1010
0110
0011
1001
,
0101
0011
0101
1001
,
1000
0000
0100
0000
0010
0000
0001
0010
,
0001
0000
0100
0000
1000
0000
0010
1000
,
0010
0000
0100
0000
0010
0000
0001
0100
,
0000
0000
0000
0011
0000
1001
0000
0000
,
0100
0000
1000
0000
0100
0000
1000
0100
,
1000
0000
0100
0000
0010
0000
0001
0010
,
0001
0000
0010
0000
0100
0000
1000
0100
,
0000
0000
0000
1010
0000
0110
0000
0000
,
0001
0000
0010
0000
0001
0000
0100
1000
,
0100
0000
0010
0000
0001
0000
0100
1000
,
0100
0000
0010
0000
0100
0000
1000
0001
,
0000
0000
0000
0101
0000
0011
0000
0000
,
0001
0000
0100
0000
0001
0000
0100
0001
,
0100
0000
0001
0000
0010
0000
1000
0010
,
1000
0000
0010
0000
0100
0000
0001
1000
,
0000
0000
0000
1010
0000
0110
0000
0000
,
0001
0000
0100
0000
0001
0000
1000
0010
,
1000
0000
0010
0000
0100
0000
0001
0100
,
0001
0000
1000
0000
0010
0000
1000
0001
,
0000
0000
0000
1010
0000
0110
0000
0000
,
0001
0000
0100
0000
0010
0000
1000
0100
,
1000
0000
0010
0000
0100
0000
0001
0100
,
0001
0000
0010
0000
0100
0000
1000
0001
,
0000
0000
0000
0011
0000
1001
0000
0000
;

//---------------dance-single - ----------------
#NOTES:
     dance-single:
     :
     Easy:
     6:
     0.279,0.323,0.216,0.063,0.000,186.000,24.000,7.000,0.000,0.000,0.000,0.279,0.323,0.216,0.063,0.000,186.000,24.000,7.000,0.000,0.000,0.000:
0000
0000
0000
0000
,
0000
0000
0000
0000
,
0000
0000
0000
0000
,
0000
0000
0000
0000
,
1000
0100
1000
0100
,
0010
0001
0010
0001
,
0100
1000
0100
1000
,
0001
0010
0001
0010
,
1000
0100
1000
0100
,
0001
0010
0001
0010
,
1000
0100
1000
0100
,
0001
0010
0001
0010
,
2000
0000
0000
3200
0000
0000
0310
0000
,
0002
0000
0000
0000
0003
0000
0010
0020
,
0000
0000
0000
0030
,
0000
0000
0000
0000
,
0200
0000
0300
0020
0000
0030
1000
0000
,
0100
0000
0001
0000
0010
0000
1000
0002
,
0000
0000
0003
0000
,
0011
1100
0110
1001
,
0001
0010
0001
0010
,
1000
0100
1000
0100
,
0001
0010
0001
0010
,
0000
0000
0000
1100
0000
1100
0000
0000
,
0010
1000
0100
1000
,
0010
1000
0100
1000
,
0010
1000
0100
1000
,
0000
0000
0000
1100
0000
0101
0000
0000
,
0010
0100
1000
0100
,
0000
0010
0001
0100
,
0000
0000
0010
0100
,
0000
0010
0001
0100
,
0000
0000
0010
0100
,
0000
0000
0001
1000
,
0010
1000
0100
1000
,
0011
1001
0101
1010
,
0010
1000
0010
1000
,
0100
1000
0100
1000
,
0001
0010
0001
0010
,
0000
0000
0000
0101
0000
0011
0000
0000
,
0010
1000
0010
1000
,
0001
0010
0001
0010
,
1000
0100
1000
0100
,
0000
0000
0000
0101
0000
1001
0000
0000
,
0010
1000
0010
1000
,
0100
1000
0100
1000
,
0001
0100
0001
0100
,
0000
0000
0000
1010
0000
1001
0000
0000
,
0010
1000
0010
1000
,
0001
0100
0001
0100
,
1000
0010
1000
0010
,
0000
0000
0000
1001
0000
0101
0000
0000
,
0010
0100
0010
0100
,
1000
0001
1000
0001
,
0010
0001
0010
0001
,
0000
0000
0000
1010
0000
0110
0000
0000
,
0001
1000
0001
1000
,
0010
1000
0010
1000
,
0001
0100
0001
0100
,
0000
0000
0000
0101
0000
1001
0000
0000
;

//---------------dance-single - ----------------
#NOTES:
     dance-single:
     :
     Beginner:
     3:
     0.142,0.264,0.090,0.000,0.000,100.000,10.000,0.000,0.000,0.000,0.000,0.142,0.264,0.090,0.000,0.000,100.000,10.000,0.000,0.000,0.000,0.000:
0000
0000
0000
0000
,
0000
0000
0000
0000
,
0000
0000
0000
0000
,
0000
0000
0000
0000
,
1000
1000
1000
0000
,
0010
0010
0010
0000
,
0100
0100
0100
0000
,
0010
0010
0010
0000
,
0001
0001
0001
0000
,
0010
0010
0010
0000
,
0100
0100
0100
0000
,
0010
0010
0100
0000
,
0010
0000
0000
0000
,
0010
0000
0000
0000
,
0100
0000
0000
0000
,
0000
0000
0000
0000
,
0010
0000
0000
0000
,
0001
0000
0000
0000
,
1000
0000
0000
0000
,
1001
1001
1001
1001
,
1001
0000
0010
0000
,
1000
0000
0100
0000
,
1000
0000
0010
0000
,
0000
0000
0000
0000
,
0001
0000
0010
0000
,
0100
0000
1000
0000
,
0010
0000
1000
0000
,
0000
0000
0000
0000
,
0010
0000
0100
0000
,
0001
0000
0010
0000
,
0001
0000
0100
0000
,
0010
0000
1000
0000
,
0100
0000
1000
0000
,
0010
0000
1000
0000
,
0100
0000
0010
0000
,
1001
1001
1001
1001
,
1001
0000
0001
0000
,
0100
0000
0001
0000
,
0010
0000
0001
0000
,
0000
0000
0000
0000
,
0010
0000
1000
0000
,
0100
0000
1000
0000
,
0010
0000
1000
0000
,
0000
0000
0000
0000
,
0100
0000
0001
0000
,
0010
0000
0100
0000
,
1000
0000
0100
0000
,
0000
0000
0000
0000
,
0010
0000
0001
0000
,
0010
0000
0100
0000
,
1000
0000
0010
0000
,
0000
0000
0000
0000
,
0010
0000
1000
0000
,
0001
0000
0100
0000
,
1000
0000
0010
0000
,
0000
0000
0000
0000
,
0001
0000
0100
0000
,
1000
0000
0010
0000
,
1000
0000
0001
0000
;
