#TITLE:Around The World (La La La La La);
#SUBTITLE:;
#ARTIST:ATC;
#TITLETRANSLIT:;
#SUBTITLETRANSLIT:;
#ARTISTTRANSLIT:;
#GENRE:;
#CREDIT:;
#BANNER:Around The World (La La La La La).png;
#BACKGROUND:Around The World (La La La La La)-bg.png;
#LYRICSPATH:;
#CDTITLE:;
#MUSIC:Around The World (La La La La La).ogg;
#OFFSET:-0.020;
#SAMPLESTART:87.280;
#SAMPLELENGTH:15.000;
#SELECTABLE:YES;
#DISPLAYBPM:132.000;
#BPMS:0.000=132.000
;
#STOPS:
;
#BGCHANGES:;
#KEYSOUNDS:;
#ATTACKS:;

//---------------dance-single - ----------------
#NOTES:
     dance-single:
     :
     Hard:
     9:
     0.494,0.430,0.099,0.198,0.058,352.000,11.000,22.000,0.000,0.000,0.000,0.494,0.430,0.099,0.198,0.058,352.000,11.000,22.000,0.000,0.000,0.000: // measure 0
0000
0000
0000
0000
,  // measure 1
0000
0000
0000
0000
,  // measure 2
0000
0000
0000
0000
,  // measure 3
0000
0000
0000
0000
0000
0000
0000
0001
,  // measure 4
1000
0010
1000
0100
0022
0000
0033
0000
,  // measure 5
0000
0010
0100
1000
0010
0100
0001
0010
,  // measure 6
0100
1000
0001
0100
0220
0000
0330
0000
,  // measure 7
0000
0001
0100
1000
0010
0100
0001
0010
,  // measure 8
0100
1000
0001
0000
2002
0000
3003
0000
,  // measure 9
0000
0010
0001
0100
0010
0100
1000
0100
,  // measure 10
0001
0010
0100
1000
0022
0000
0033
0000
,  // measure 11
0000
0010
0100
1000
0100
0001
0010
0100
,  // measure 12
1000
0000
0010
0000
0100
0000
0001
1000
0000
0000
0000
0000
0000
0000
0000
0000
,  // measure 13
0000
0010
0100
1000
0100
0001
0010
0100
,  // measure 14
1000
0000
0100
0000
0001
0000
0010
0001
0000
0000
0000
0000
0000
0000
0000
0000
,  // measure 15
0000
0001
0010
0100
1000
0010
0100
0001
,  // measure 16
0010
0000
0100
0000
1000
0000
0001
0010
0000
0000
0000
0000
0000
0000
0000
0000
,  // measure 17
0000
0010
0100
1000
0100
0010
0001
1000
,  // measure 18
0100
0000
0001
0000
0010
0000
0100
1000
0000
0000
0000
0000
0000
0000
0000
0000
,  // measure 19
0000
0010
0100
1000
0100
0001
0010
0100
,  // measure 20
1000
0000
0010
0000
0100
0000
0001
1000
0000
0000
0000
0000
0000
0000
0000
0000
,  // measure 21
0000
0010
0100
1000
0100
0001
0010
0100
,  // measure 22
1000
0000
0100
0000
0001
0000
0010
0001
0000
0000
0000
0000
0000
0000
0000
0000
,  // measure 23
0000
0010
0100
1000
0100
0001
0010
0100
,  // measure 24
1000
0000
0100
0000
0001
0000
0010
0001
0000
0000
0000
0000
0000
0000
0000
0000
,  // measure 25
0000
0010
0100
1000
0100
0010
0001
0010
,  // measure 26
0100
0000
1000
0000
0100
0000
0001
1000
0000
0000
0000
0000
0000
0000
0000
0000
,  // measure 27
0000
0010
0100
1000
0100
0010
0001
1000
,  // measure 28
0001
0010
0100
1000
0010
0100
1000
0100
,  // measure 29
0010
1000
0100
0010
1000
0100
0010
1000
,  // measure 30
0100
0001
0010
0001
0100
1000
0010
0001
,  // measure 31
0100
1000
0100
0001
0010
0100
1000
0100
,  // measure 32
0010
0001
1000
0010
2002
0000
3003
0000
,  // measure 33
0000
0001
0100
1000
0100
0001
0010
0100
,  // measure 34
1000
0010
1000
0100
0022
0000
0033
0000
,  // measure 35
0000
0010
0100
1000
0100
0001
0010
0100
,  // measure 36
1000
0100
0001
0010
2002
0000
3003
0000
,  // measure 37
0000
0010
0100
1000
0100
0001
0010
0100
,  // measure 38
0001
0000
1000
0000
0001
0000
1000
0001
0000
0000
0000
0000
0000
0000
0000
0000
,  // measure 39
0000
1000
0100
0010
0001
0100
0001
0010
,  // measure 40
0100
1000
0100
0010
2002
0000
3003
0000
,  // measure 41
0000
0010
0100
1000
0100
0001
0010
0100
,  // measure 42
1000
0100
0001
0010
2200
0000
3300
0000
,  // measure 43
0000
0010
1000
0100
0001
0010
0001
1000
,  // measure 44
0100
0001
0010
0001
0202
0000
0303
0000
,  // measure 45
0000
0010
0100
1000
0100
0010
0001
1000
,  // measure 46
0100
0010
1000
0100
2020
0000
3030
0000
,  // measure 47
0000
0001
0100
1000
0100
0001
0010
0001
,  // measure 48
1000
0000
0100
0000
1000
0000
0010
1000
0000
0000
0000
0000
0000
0000
0000
0000
,  // measure 49
0000
0001
0100
1000
0010
1000
0100
0001
,  // measure 50
0010
0000
0100
0000
0001
0000
1000
0001
0000
0000
0000
0000
0000
0000
0000
0000
,  // measure 51
0000
0010
0100
1000
0010
0100
0001
0010
,  // measure 52
0100
0000
0001
0000
1000
0000
0001
1000
0000
0000
0000
0000
0000
0000
0000
0000
,  // measure 53
0000
0010
1000
0100
1000
0010
1000
0001
,  // measure 54
1000
0000
0010
0000
0100
0000
0001
0010
0000
0000
0000
0000
0000
0000
0000
0000
,  // measure 55
0000
0010
0100
1000
0100
0010
0001
1000
,  // measure 56
0100
0010
1000
0100
1000
0010
1000
0100
,  // measure 57
0001
0010
0100
0001
1000
0100
0010
0001
,  // measure 58
0100
1000
0100
0001
0010
0100
1000
0100
,  // measure 59
0010
0001
1000
0100
0001
0010
0100
1000
;

//---------------dance-single - ----------------
#NOTES:
     dance-single:
     :
     Medium:
     7:
     0.356,0.322,0.539,0.270,0.000,187.000,60.000,30.000,0.000,0.000,0.000,0.356,0.322,0.539,0.270,0.000,187.000,60.000,30.000,0.000,0.000,0.000:
0000
0000
0000
0000
,
0000
0000
0000
0000
,
0000
0000
0000
0000
,
0000
0000
0000
0000
0000
0000
0000
0001
,
1000
0001
0202
0303
,
0000
0100
0010
0000
0100
0000
1000
0000
,
0010
1000
0220
0330
,
0000
0001
1000
0000
0001
0000
0100
0000
,
1000
0010
2002
3003
,
0000
0001
0100
0000
1000
0000
0010
0000
,
0100
0001
0022
0033
,
0000
0001
0100
0000
1000
0000
0010
0000
,
1001
0101
0011
0000
,
0000
0110
0110
0110
,
1010
0011
0110
0000
,
0000
0000
1001
1001
,
1001
0101
1010
0000
,
0000
0000
0110
0110
,
0110
0011
1001
0000
,
0000
0011
1010
0110
,
0001
0100
1000
0000
,
0000
0010
0001
0010
,
0100
1000
0010
0000
,
0000
1000
0100
0010
,
0001
1000
0010
0000
,
0000
0001
1000
0010
,
1000
0001
1000
0000
,
0000
0001
1000
0010
,
2000
0001
0001
0001
,
3002
1000
1000
1000
,
2003
0001
0001
3001
,
0002
1000
1000
1003
,
0010
0100
0220
0330
,
0000
1000
0001
0000
0100
0000
1000
0000
,
0010
1000
2002
3003
,
0000
1000
0001
0000
1000
0000
0010
0000
,
0100
0001
0022
0033
,
0000
0010
0100
0000
1000
0000
0010
0000
,
1001
1001
1001
0000
,
0000
0100
0010
0000
0100
0000
0010
0000
,
0100
0001
2002
3003
,
0000
0001
0100
0000
1000
0000
0010
0000
,
1000
0001
2002
3003
,
0000
0001
0100
0000
1000
0000
0010
0000
,
1000
0100
0022
0033
,
0000
0010
1000
0000
0100
0000
0010
0000
,
1000
0100
0022
0033
,
0000
0010
1000
0000
0100
0000
1000
0000
,
1010
0101
0011
0000
,
0000
1001
1001
1001
,
0110
0011
1001
0000
,
0000
1010
1010
1010
,
0101
0011
1001
0000
,
0000
1010
1010
1010
,
0110
1001
0101
0000
,
0000
1001
1001
1001
,
0020
0100
0100
0130
,
2000
0001
0001
3001
,
0200
0010
0010
0310
,
0002
1000
1000
1003
;

//---------------dance-single - ----------------
#NOTES:
     dance-single:
     :
     Easy:
     4:
     0.230,0.187,0.216,0.099,0.000,144.000,24.000,11.000,0.000,0.000,0.000,0.230,0.187,0.216,0.099,0.000,144.000,24.000,11.000,0.000,0.000,0.000:
0000
0000
0000
0000
,
0000
0000
0000
0000
,
0000
0000
0000
0000
,
0000
0000
0000
0000
,
0001
0001
2000
3000
,
0000
0110
0000
0001
,
1000
1000
0200
0300
,
0000
1001
0000
1000
,
0010
0010
0002
0003
,
0000
0110
0000
0001
,
0010
0010
0200
0300
,
0000
0110
0000
0001
,
1000
1000
0001
0000
,
0000
0110
0000
0010
,
1000
1000
0001
0000
,
0000
0110
0000
0010
,
1000
1000
0001
0000
,
0000
1001
0000
1000
,
0001
0001
0010
0000
,
0000
0110
0000
0100
,
0010
0010
0100
0000
,
0000
0110
0000
0010
,
0100
0100
0010
0000
,
0000
1001
0000
0100
,
0010
0010
0100
0000
,
0000
0110
0000
1000
,
0010
0010
1000
0000
,
0000
1001
0000
1000
,
0010
0001
0010
0000
,
0010
0001
1000
0000
,
0001
1000
0100
0000
,
1000
0001
1000
0000
,
0010
0010
0002
0003
,
0000
0110
0000
0100
,
0001
0001
2000
3000
,
0000
1001
0000
0010
,
1000
1000
0002
0003
,
0000
0110
0000
0100
,
1000
1000
0001
0000
,
0000
0110
0000
1000
,
0001
0001
2000
3000
,
0000
0110
0000
1000
,
0001
0001
2000
3000
,
0000
1001
0000
0010
,
0001
0001
2000
3000
,
0000
0110
0000
0001
,
1000
1000
0002
0003
,
0000
0110
0000
0001
,
0010
0010
0100
0000
,
0000
1001
0000
1000
,
0010
0010
0100
0000
,
0000
1001
0000
0001
,
1000
1000
0100
0000
,
0000
0110
0000
0100
,
0001
0001
1000
0000
,
0000
0110
0000
0001
,
1000
0100
0001
0000
,
0010
0001
0100
0000
,
0001
1000
0001
0000
,
0010
0001
0100
0000
;

//---------------dance-single - ----------------
#NOTES:
     dance-single:
     :
     Beginner:
     2:
     0.144,0.107,0.000,0.000,0.000,112.000,0.000,0.000,0.000,0.000,0.000,0.144,0.107,0.000,0.000,0.000,112.000,0.000,0.000,0.000,0.000,0.000:
0000
0000
0000
0000
,
0000
0000
0000
0000
,
0000
0000
0000
0000
,
0000
0000
0000
0000
,
0001
0000
0001
0000
,
0010
0000
0010
0000
,
0100
0000
0100
0000
,
1000
0000
1000
0000
,
0010
0000
0010
0000
,
0001
0000
0001
0000
,
1000
0000
1000
0000
,
0100
0000
0100
0000
,
0010
0000
0010
0000
,
0100
0000
0100
0000
,
0001
0000
0001
0000
,
0010
0000
0010
0000
,
1000
0000
1000
0000
,
0100
0000
0100
0000
,
0001
0000
0001
0000
,
0010
0000
0010
0000
,
1000
0000
1000
0000
,
0010
0000
0010
0000
,
0100
0000
0100
0000
,
0010
0000
0010
0000
,
0001
0000
0001
0000
,
0100
0000
0100
0000
,
0010
0000
0010
0000
,
1000
0000
1000
0000
,
0001
0000
0001
0000
,
1000
0000
1000
0000
,
0010
0000
0010
0000
,
1000
0000
1000
0000
,
0100
0000
0100
0000
,
0010
0000
0010
0000
,
0100
0000
0100
0000
,
0010
0000
0010
0000
,
0001
0000
0001
0000
,
1000
0000
1000
0000
,
0100
0000
0100
0000
,
0010
0000
0010
0000
,
0001
0000
0001
0000
,
1000
0000
1000
0000
,
0100
0000
0100
0000
,
0010
0000
0010
0000
,
0001
0000
0001
0000
,
0100
0000
0100
0000
,
1000
0000
1000
0000
,
0010
0000
0010
0000
,
0100
0000
0100
0000
,
0001
0000
0001
0000
,
0100
0000
0100
0000
,
1000
0000
1000
0000
,
0001
0000
0001
0000
,
0100
0000
0100
0000
,
1000
0000
1000
0000
,
0001
0000
0001
0000
,
0010
0000
0010
0000
,
0100
0000
0100
0000
,
0001
0000
0001
0000
,
1000
0000
1000
0000
;
