#TITLE:Cadillac Song;
#SUBTITLE:;
#ARTIST:Ariana Grande;
#TITLETRANSLIT:;
#SUBTITLETRANSLIT:;
#ARTISTTRANSLIT:;
#CREDIT:;
#BANNER:Cadillac Song-bn.png;
#BACKGROUND:Cadillac Song-bg.png;
#LYRICSPATH:;
#CDTITLE:Cadillac Song-cd.png;
#MUSIC:Cadillac Song.ogg;
#OFFSET:-0.343;
#SAMPLESTART:50.654;
#SAMPLELENGTH:12.298;
#SELECTABLE:YES;
#BPMS:0.000=80.500,32.000=161.000,136.000=80.500;
#STOPS:;
#BGCHANGES:;

//---------------dance-single - ----------------
#NOTES:
     dance-single:
     :
     Easy:
     3:
     0.246,0.309,0.204,0.275,0.000: // measure 1
1010
1100
0011
1001
,  // measure 2
0002
1000
1000
1003
,  // measure 3
0200
0010
0010
0310
,  // measure 4
0020
1000
1000
1030
,  // measure 5
0001
0100
0200
0310
,  // measure 6
2000
0000
0000
3000
0000
0000
0010
0000
,  // measure 7
0001
1000
2000
3010
,  // measure 8
2020
0000
0000
3030
0000
0000
0100
0000
,  // measure 9
1010
0000
1100
0000
,  // measure 10
0101
0000
0011
0000
,  // measure 11
0001
0010
0100
1000
,  // measure 12
0000
0000
0100
0010
,  // measure 13
0001
1000
0010
0000
,  // measure 14
0000
0000
1000
0000
0000
0001
0000
0000
,  // measure 15
0010
0100
0001
1000
,  // measure 16
0000
0000
0010
0010
,  // measure 17
0001
1000
0010
0000
,  // measure 18
0000
0000
0100
0000
0000
0001
0000
0000
,  // measure 19
0002
0000
0000
1000
,  // measure 20
0000
1000
1000
0100
,  // measure 21
0023
0000
0001
0030
,  // measure 22
0000
0000
0001
0000
0000
0001
0000
0000
,  // measure 23
0002
0000
0023
0000
,  // measure 24
0230
0000
2300
0000
,  // measure 25
0100
3100
0000
0100
,  // measure 26
0000
0000
0100
0000
0000
0100
0000
0000
,  // measure 27
0100
0100
0010
0001
,  // measure 28
0001
0000
1000
0000
,  // measure 29
1000
0010
0100
0010
,  // measure 30
0001
0000
0010
0000
,  // measure 31
0100
0001
0010
0001
,  // measure 32
0100
0000
0001
0000
,  // measure 33
1001
0000
1100
0000
,  // measure 34
0101
0000
0110
0000
,  // measure 35
0010
0020
0100
0130
,  // measure 36
2000
0010
3100
1010
,  // measure 37
1000
0010
0002
0100
,  // measure 38
0010
0103
0200
0320
,  // measure 39
2030
0010
3000
1010
,  // measure 40
0001
1010
0020
2030
,  // measure 41
3020
0100
0030
0110
,  // measure 42
0001
0110
0200
0002
,  // measure 43
0303
0000
0100
0000
,  // measure 44
0010
0000
0100
0001
,  // measure 45
2020
0000
3030
0001
,  // measure 46
0000
1000
0000
0001
,  // measure 47
2000
0000
3000
0002
,  // measure 48
0000
0003
0020
0000
,  // measure 49
0030
0200
0000
0300
,  // measure 50
0110
0110
1001
1001
;

//---------------dance-single - ----------------
#NOTES:
     dance-single:
     :
     Medium:
     5:
     0.322,0.354,0.177,0.416,0.000:
0110
0011
1100
1010
,
1000
0000
2000
0000
0001
0001
3001
0000
,
0001
0000
0020
0000
0100
0100
0130
0000
,
2100
0000
0001
0000
0001
0001
3001
0000
,
0101
0000
1100
0000
2000
3100
0200
0310
,
0020
0000
0000
0002
0000
0000
0033
0000
,
0001
0000
0010
1000
0002
1003
2000
3001
,
2000
0000
0000
0001
0000
0000
3001
0000
,
0001
0001
0010
0010
,
0100
0100
1000
1000
,
0100
0000
0010
0000
0010
0100
0010
0000
,
0000
0110
0000
1001
,
0001
0000
1000
0000
1000
0001
1000
0000
,
0000
0000
1100
0000
0000
0101
0000
0000
,
0000
0000
0000
0000
0001
0100
0001
0020
,
0000
0031
0000
0001
0000
0200
0000
0300
,
0010
0000
0001
0000
0001
0000
1000
0002
,
0000
0000
1003
0000
0000
1000
0000
0000
,
2000
0000
0001
0000
,
0100
0010
3100
0100
,
0200
0000
0010
0000
,
0010
0000
0010
0000
0300
1000
0000
0000
,
0002
0013
0020
0130
,
0200
1300
2000
0000
,
0100
3100
0000
0000
,
0000
0000
0001
1000
,
1000
0010
1000
0000
1000
0100
1000
0000
,
0100
0000
0000
0020
0000
0030
0000
0000
,
0010
0100
0010
0000
0100
0010
0100
0000
,
0010
0000
0000
0002
0000
0003
0000
0000
,
0001
0100
0001
0000
0100
0001
0100
0000
,
0001
0000
0000
2000
0000
3000
0000
0000
,
1000
0010
1000
0001
,
1000
0100
1100
0101
,
0002
1000
1000
1003
,
0001
2000
0001
0000
0001
0000
3001
0000
,
0100
0020
0100
0000
0100
0000
0130
0000
,
0010
1000
0100
1000
0002
0000
2003
0000
,
0020
0000
0030
0200
3000
0000
0300
0000
,
1100
1100
0000
1000
0020
0030
0020
0030
,
0020
0000
0000
0200
0000
0000
0330
0000
,
0110
0110
0000
0010
0200
0000
0002
0000
,
0303
0000
0000
0000
0000
0010
0001
0000
,
0000
0000
1000
0001
1000
0000
0010
0100
,
2000
0000
0000
3001
0000
0000
0001
0000
,
0000
0001
1000
0000
0000
1000
0001
0000
,
0002
0000
0003
0202
,
0000
0303
2020
0000
,
3030
2002
0000
3003
,
0200
1300
2000
3100
0200
0310
0020
0031
;

//---------------dance-single - ----------------
#NOTES:
     dance-single:
     :
     Hard:
     7:
     0.446,0.552,0.275,0.470,0.275:
1000
1100
0100
0110
0010
0011
0001
0101
,
0001
1000
0001
0000
0001
0000
0100
1000
0000
1000
0000
2000
0000
3000
0000
0000
,
1000
0100
1000
0010
1000
0000
0010
1000
0000
1000
0000
0001
0000
1000
0000
0000
,
0001
0100
0020
0000
0130
0000
0010
0100
0000
0100
0000
0100
0000
0100
0001
0100
,
0010
2000
0000
3010
0000
0000
0000
0000
2010
0000
3010
0000
1020
0000
1030
0000
,
0220
0000
0300
0230
0000
0000
0300
0000
,
0001
1000
0001
1000
2000
0000
3200
0000
,
0020
0000
0000
0330
0000
0000
0020
0000
0000
0000
0000
0000
0031
0000
0000
0000
,
0011
0001
0101
0100
,
0110
0010
1010
1000
,
0020
0000
1030
0000
0010
0100
0020
0000
,
0030
0001
0000
0100
0002
0000
0103
0000
,
0001
0000
0010
0000
0010
0001
0010
0000
,
0002
0000
1000
0000
0000
1003
0000
0000
,
0001
0000
0001
0000
0001
0100
0010
1000
,
0000
1000
0000
1000
0000
0100
0000
0000
,
0100
0001
0200
0000
0302
0000
1003
0001
,
0000
0000
1001
0000
0000
0011
0000
0000
,
1100
0000
0100
0000
0100
1000
0010
0100
,
0000
0100
0000
0010
0100
0000
0110
0000
,
0000
0000
0000
0001
0001
1000
0020
0000
,
0130
0000
0000
0100
0000
0000
0200
0000
0000
0000
0000
0000
0300
0000
0000
0000
,
0010
0000
1010
0000
1000
0010
1000
0010
,
0000
1000
0000
0002
0000
0000
0103
0020
,
0000
0000
0000
0030
0000
0000
0000
0000
,
0000
0000
0001
1000
,
1001
0000
0000
1000
0000
0000
0010
0000
0100
0000
0000
0100
0000
0000
0010
0000
,
2000
0000
0001
3001
0000
0000
0000
0000
,
0011
0000
0000
0001
0000
0000
0001
0000
0100
0000
0000
0010
0000
0000
0100
0000
,
0002
0000
0100
0103
0000
0000
0000
0000
,
1010
0000
0000
0010
0000
0000
1000
0000
0010
0000
0000
0100
0000
0000
0001
0000
,
0002
0000
1000
1003
0000
0000
0000
0000
,
2001
3001
1002
1003
,
1200
0310
0021
0031
,
0001
0010
0002
0000
0103
0000
0001
0100
0000
0100
0000
0200
0000
0300
0000
0000
,
0100
0010
0100
0010
2000
0000
3010
1000
0000
1000
0000
1000
0000
0001
0000
0000
,
0001
0100
0020
0000
1030
0000
1000
0001
0000
0001
0000
0001
0000
0001
1000
0001
,
0100
0002
0000
0200
0303
0000
0000
0000
0200
0000
0301
0000
0020
0000
1030
0000
,
2200
0000
3000
2000
0000
3300
0000
0000
,
1000
0100
0010
0001
1000
0001
0010
0100
,
0220
0000
0030
0020
0000
0330
0000
0000
,
0110
0110
0000
0010
0200
0000
0302
0000
,
0003
0000
2000
0000
0000
0000
3001
0000
0000
0000
1000
0100
2000
0000
0000
0000
,
3002
0000
0000
0000
0003
0000
2000
0000
0000
0000
3000
0000
0001
0010
0001
0000
,
0002
0000
1000
0000
1000
0000
1003
0000
0000
0000
0000
0000
1000
0000
0000
0001
,
0000
0001
0000
0000
1000
0000
0000
0001
0000
0001
0000
0000
1000
0000
0000
0000
,
0201
0000
0010
0000
0010
0000
0000
0010
0000
0310
0000
0001
0010
0000
0000
0000
,
0012
0000
1000
0000
0100
0000
0000
1000
0000
1003
0000
1000
0001
0000
0000
0000
,
2100
0000
3100
0000
0110
0000
0000
0001
0000
0001
0000
0010
0100
0000
0000
0000
,
0100
1000
0100
0000
0100
0010
0100
0000
0010
0100
0010
0000
0010
0001
0010
0000
;
