#TITLE:waxing and wanding;
#SUBTITLE:;
#ARTIST:青龍;
#TITLETRANSLIT:;
#SUBTITLETRANSLIT:;
#ARTISTTRANSLIT:Seiryu;
#GENRE:DANCE SPEED;
#CREDIT:;
#BANNER:waxing and wanding.png;
#BACKGROUND:waxing and wanding-bg.png;
#LYRICSPATH:;
#CDTITLE:../_YSD cdtitles/ysd tEYEcoon cdtitle.png;
#MUSIC:waxing and wanding.ogg;
#OFFSET:-0.044000;
#SAMPLESTART:73.237999;
#SAMPLELENGTH:20.105000;
#SELECTABLE:YES;
#BPMS:0.000000=191.000000
;
#STOPS:
;
#BGCHANGES:;
#KEYSOUNDS:;
#ATTACKS:;

//---------------dance-single - ----------------
#NOTES:
     dance-single:
     :
     Beginner:
     6:
     0.258997,0.453245,0.218229,0.000000,0.000000,216.000000,190.000000,26.000000,0.000000,0.000000,0.000000,0.258997,0.453245,0.218229,0.000000,0.000000,216.000000,190.000000,26.000000,0.000000,0.000000,0.000000:
// measure 0
0000
0000
0000
0000
,  // measure 1
0000
0000
0000
0000
,  // measure 2
0000
0000
0000
0000
,  // measure 3
0000
0000
0000
0000
,  // measure 4
0000
0000
1001
0000
,  // measure 5
1000
0000
0001
0001
,  // measure 6
0001
0000
1001
0000
,  // measure 7
0110
0000
1001
0000
,  // measure 8
1001
0000
1000
0001
,  // measure 9
1000
0001
1001
0000
,  // measure 10
0000
0000
1001
0000
,  // measure 11
1000
0000
0001
0001
,  // measure 12
0001
0000
0100
0000
,  // measure 13
0010
0000
1000
1000
,  // measure 14
1000
0000
0100
0000
,  // measure 15
0010
0000
0001
0001
,  // measure 16
0001
0000
1000
0000
,  // measure 17
0001
0000
0100
0100
,  // measure 18
0100
0000
1001
0000
,  // measure 19
0001
0000
1000
0000
,  // measure 20
0001
0000
0010
0000
,  // measure 21
0100
0000
1000
1000
,  // measure 22
1000
0000
0001
0000
,  // measure 23
0100
0000
0010
0000
,  // measure 24
0100
0000
0001
0000
,  // measure 25
0010
0000
0100
0100
,  // measure 26
0100
0000
1000
0000
,  // measure 27
0001
0000
1000
0000
,  // measure 28
0010
0000
0100
0000
,  // measure 29
0001
0000
1000
1000
,  // measure 30
1000
1000
1000
0000
,  // measure 31
0100
0000
0010
0000
,  // measure 32
0001
0000
0100
0000
,  // measure 33
0010
0000
1000
1000
,  // measure 34
1000
1000
1000
0000
,  // measure 35
0001
0000
0010
0010
,  // measure 36
0010
0000
0100
0000
,  // measure 37
1000
0000
0001
0001
,  // measure 38
0001
0000
0100
0000
,  // measure 39
0010
0000
1000
1000
,  // measure 40
1000
0000
0100
0000
,  // measure 41
0010
0000
0001
0001
,  // measure 42
1000
1000
1001
0000
,  // measure 43
0000
0000
0000
0000
,  // measure 44
0000
0000
0000
0000
,  // measure 45
0000
0000
0000
0000
,  // measure 46
0000
0000
0000
0000
,  // measure 47
0000
0000
0000
0000
,  // measure 48
0000
0000
0000
0000
,  // measure 49
0000
0000
0000
0000
,  // measure 50
0000
0000
1000
0000
,  // measure 51
1000
0000
0001
0000
,  // measure 52
0001
0000
0100
0000
,  // measure 53
0100
0000
0010
0000
,  // measure 54
0010
0000
1000
0000
,  // measure 55
1000
0000
0100
0000
,  // measure 56
0100
0000
0010
0000
,  // measure 57
0010
0000
0001
0000
,  // measure 58
0001
0000
1001
0000
,  // measure 59
1000
0000
0010
0010
,  // measure 60
0010
0000
0100
0000
,  // measure 61
0001
0000
1000
1000
,  // measure 62
1000
0000
0100
0000
,  // measure 63
0010
0000
0001
0001
,  // measure 64
0001
0000
1001
0000
,  // measure 65
0110
0000
1001
1001
,  // measure 66
1001
0000
1001
0000
,  // measure 67
1000
0000
0001
0100
,  // measure 68
0001
0000
1000
0000
,  // measure 69
0100
0000
0010
0001
,  // measure 70
0010
0000
0100
0000
,  // measure 71
1000
0000
0001
0100
,  // measure 72
0001
0000
1001
0000
,  // measure 73
0110
0000
1001
1001
,  // measure 74
1001
0000
1001
0000
,  // measure 75
1000
0000
0001
0100
,  // measure 76
0001
0000
1000
0000
,  // measure 77
0100
0000
0010
0001
,  // measure 78
0010
0000
0100
0000
,  // measure 79
1000
0000
0001
0100
,  // measure 80
0001
0000
0010
0000
,  // measure 81
0100
0000
1000
0001
,  // measure 82
1000
0000
1001
0000
,  // measure 83
0001
0000
0100
0010
,  // measure 84
1000
0000
0001
0000
,  // measure 85
1000
0000
0100
0010
,  // measure 86
0001
0000
1000
0000
,  // measure 87
0001
0000
0100
0010
,  // measure 88
1000
0000
0001
0000
,  // measure 89
1000
0000
1001
1001
,  // measure 90
1001
0000
0000
0000
;

//---------------dance-single - ----------------
#NOTES:
     dance-single:
     :
     Easy:
     9:
     0.414875,0.642096,0.142688,0.041967,0.000000,346.000000,329.000000,17.000000,5.000000,0.000000,0.000000,0.414875,0.642096,0.142688,0.041967,0.000000,346.000000,329.000000,17.000000,5.000000,0.000000,0.000000:
0000
0000
0000
0000
,
0000
0000
0000
0000
,
0000
0000
0000
0000
,
0000
0000
0000
0000
,
0000
0000
0000
0000
1000
0001
0000
1000
,
0001
0000
0100
0010
,
0100
0000
0010
0000
1000
0001
0000
1000
,
0001
0000
0110
1001
,
0011
1100
1001
0110
,
1000
0001
1000
0001
0200
0000
0000
0000
,
0000
0000
0000
0000
0301
1000
0000
0001
,
1000
0000
0001
0100
,
0001
0000
0100
0000
0010
1000
0000
0010
,
1000
0000
0001
0101
,
0100
0000
0110
0000
0010
1000
0000
0010
,
1000
0000
0001
0010
,
0001
0000
0010
0000
0100
1000
0000
0100
,
1000
0000
0001
0100
,
0110
0010
1000
0010
,
0001
0000
0010
0000
0100
0000
0001
1000
,
0000
0001
0000
0000
1000
0001
0000
1000
,
0001
0000
0100
0110
,
0010
1010
1000
0100
,
0010
0000
0001
0000
1000
0000
0010
0100
,
0000
0010
0000
0000
1000
0001
0000
1000
,
0001
0000
0100
0001
,
0101
1001
1000
0100
,
0010
0100
1000
0001
,
0100
0010
0100
0000
0010
0000
1000
0000
,
0001
0000
0010
0000
0100
0010
0100
0010
,
0100
1000
0001
0100
,
0010
1000
0001
0010
,
0100
0010
0100
0000
0010
0000
0001
0000
,
1000
0000
0010
0000
0100
0010
0100
0010
,
0100
0010
1000
0001
,
0010
0000
0100
0000
1000
0000
0001
1000
,
0000
0001
0000
0000
0100
0000
0001
0000
,
1000
0000
0100
0000
0010
0000
0100
0010
,
0100
1000
0001
0100
,
0010
0000
1000
0000
0001
0000
0010
0001
,
0000
1000
0000
0000
0001
0000
0100
0000
,
0010
0000
1000
0000
0001
1000
0001
1000
,
0001
0000
0200
0000
,
0000
0000
0000
0000
,
0000
0000
0320
0000
,
0000
0000
0000
0000
,
0000
0000
2030
0000
,
0000
0000
0000
0000
,
0000
0000
3002
0000
,
0000
0000
0000
0000
,
0000
0013
0001
1000
,
0010
0000
0100
0000
0001
0000
0000
1000
,
0000
0001
0000
0000
0100
0000
0010
0000
,
1000
0100
0010
0001
,
0010
0100
1000
0001
,
0100
0000
0010
0000
1000
0000
0000
0100
,
0000
0010
0000
0000
0001
0000
0100
0000
,
0010
0100
0001
1000
,
0100
0010
0100
1000
,
0001
0000
0100
0000
0010
0000
1000
0001
,
0000
1000
0000
0000
0001
0000
0010
0000
,
0100
0000
1000
0000
0001
0000
0100
0001
,
0100
0001
1000
0100
,
0010
0000
0001
0000
1000
0000
0001
0100
,
0000
0001
0000
0000
1000
0000
0100
0000
,
0010
0000
0001
0000
1000
0001
1000
0001
,
1000
0001
0100
0010
,
1000
0000
0100
0000
0010
0000
0001
1000
,
0000
0001
0000
0000
0100
0000
0010
0000
,
1000
0000
0100
0000
0010
0000
0001
0010
,
0001
1000
0010
0100
,
0001
0000
1000
0000
0100
0000
0010
0100
,
0000
1000
0000
0000
0001
0000
0100
0000
,
0010
0000
1000
0000
0100
0010
0100
0010
,
0100
0000
0000
0000
1000
0001
0000
1000
,
0001
0000
0010
0001
,
0010
0000
0001
0000
1000
0010
0000
1000
,
0010
0000
0100
0101
,
0001
0000
1001
0000
1000
0010
0000
1000
,
0010
0000
0100
0001
,
1000
0000
0100
0000
0010
0001
0000
0010
,
0001
0000
1000
1001
,
0001
0101
0100
0010
,
1000
0000
0100
0000
0010
0000
0001
1000
,
0000
0001
0000
0000
0100
0000
0010
0000
,
1000
0000
0100
0000
0010
0000
0001
1000
,
0001
0100
0010
1000
,
0100
0000
1000
0000
0001
0000
0100
0010
,
0000
1000
0000
0000
0001
0000
0010
0000
,
0100
0000
1000
0000
0001
1000
0001
1000
,
0001
0000
0000
0000
;

//---------------dance-single - ----------------
#NOTES:
     dance-single:
     :
     Medium:
     12:
     0.587539,0.604326,0.092328,0.176262,0.000000,490.000000,479.000000,11.000000,21.000000,0.000000,0.000000,0.587539,0.604326,0.092328,0.176262,0.000000,490.000000,479.000000,11.000000,21.000000,0.000000,0.000000:
0000
0000
0000
0000
,
0000
0000
0000
0000
,
0000
0000
0000
0000
,
0000
0000
0000
0000
,
0000
0000
0000
0000
1000
0010
0000
1000
,
0002
0000
0003
0000
0100
0001
1000
0000
,
0100
1000
0001
0000
0100
0001
0000
1000
,
0002
0000
0003
0000
0100
0001
1000
0000
,
1100
0110
0011
1001
,
1000
0010
1000
0001
0200
0000
0000
0000
,
0000
0000
0000
0000
0301
1000
0000
0001
,
0020
0000
0031
0000
0100
0001
1000
0000
,
0100
1000
0001
0000
0100
0001
0000
1000
,
0002
0000
0013
0000
0100
1000
0001
0000
,
0100
0000
0110
0000
0010
1000
0000
0001
,
2000
0000
3100
0000
0010
0001
1000
0000
,
0010
1000
0001
0000
0100
0001
0000
1000
,
0002
0000
0013
0000
0100
1000
0001
0000
,
0101
0000
1001
0000
1000
0001
0100
0000
,
0010
1000
0001
0000
0010
0100
1000
0100
,
0000
0010
0000
0000
0001
0100
0000
0001
,
0020
0000
0031
0000
0100
0001
1000
0000
,
0100
0000
0010
0100
1000
0001
0100
0000
,
0001
1000
0100
0000
0010
0001
1000
0010
,
0000
1000
0000
0000
0001
0100
0000
0001
,
2000
0000
3100
0000
0010
0100
1000
0000
,
1001
0000
0101
0000
0001
1000
0100
0000
,
1000
0001
0100
0000
0010
1000
0001
0000
,
0010
0001
1000
0000
0010
0100
0001
0000
,
1000
0100
0010
0000
0001
0010
0100
1000
,
0100
0010
0001
1000
0010
0100
0001
0000
,
1000
0100
0010
0000
0100
1000
0001
0000
,
0100
0010
1000
0000
0001
0010
0100
0000
,
1000
0001
0100
0000
0010
1000
0100
0010
,
0001
0010
0100
1000
0001
0100
0010
0000
,
1000
0001
0100
0000
0001
0010
0100
1000
,
0000
0001
0000
0100
0010
0100
0001
0000
,
1000
0100
0010
0000
0001
0100
0010
1000
,
0001
0000
1000
0001
0010
0100
1000
0000
,
0001
0100
0010
0000
0100
0001
1000
0100
,
0000
1000
0000
0001
0100
0010
1000
0000
,
0001
0010
0100
0000
0010
0001
1000
0010
,
0100
0001
0020
0000
,
0000
0000
0032
0000
,
0000
0000
0203
0000
,
0000
0000
2300
0000
,
0000
0000
3200
0000
,
0000
0000
0320
0000
,
0000
0000
2030
0000
,
0000
0000
3002
0000
,
0000
0000
1003
0010
0100
0010
1000
0000
,
0001
0010
0100
0000
0010
0001
1000
0010
,
0000
0100
0000
0001
1000
0100
0010
0000
,
0100
1000
0001
0000
0100
0010
1000
0001
,
0010
0000
0100
0010
0001
1000
0010
0000
,
0100
0001
1000
0000
0100
0010
0001
1000
,
0000
0010
0000
0100
0010
1000
0001
0000
,
0010
0100
1000
0000
0100
0010
0001
1000
,
0010
0000
0100
0001
1000
0100
0010
0000
,
0100
1000
0001
0000
0100
0010
1000
0100
,
0010
0001
0000
0100
0001
1000
0001
0000
,
0010
0100
1000
0000
0010
0100
0001
1000
,
0100
0000
0010
0100
1000
0001
0100
0000
,
0010
1000
0001
0000
0010
0100
1000
0001
,
0000
0100
0000
0010
1000
0001
0010
0000
,
0100
0010
0001
0000
1000
0001
0100
0010
,
1000
0000
0001
0010
0100
1000
0100
1000
,
0001
0100
0001
0100
0010
1000
0001
0010
,
0000
0100
0000
0010
0001
1000
0001
1000
,
0010
1000
0010
1000
0001
0010
0100
0010
,
0001
0000
1000
0010
0100
0001
0100
0001
,
1000
0100
1000
0100
0010
0001
1000
0010
,
0000
0100
0000
0001
1000
0100
1000
0100
,
0010
0001
1000
0010
0100
1000
0100
0001
,
1000
0000
0000
0000
0100
0010
0000
0001
,
2000
0000
3010
0000
0100
0001
0010
0000
,
0100
1000
0010
0000
0100
0001
0000
1000
,
0200
0000
0310
0000
0001
1000
0010
0000
,
0110
0000
0100
0000
0001
1000
0000
0100
,
2000
0000
3001
0000
0010
0001
0100
0000
,
0010
1000
0100
0000
0010
0001
0000
1000
,
0020
0000
0130
0000
0001
1000
0100
0000
,
0110
0000
0010
0001
1000
0010
1000
0010
,
0100
0001
0100
0001
1000
0100
0010
0001
,
0000
1000
0000
0001
0100
0010
0100
0010
,
1000
0010
1000
0010
1000
0001
0010
0100
,
1000
0000
0001
0100
0010
1000
0010
0100
,
0001
1000
0100
0010
0001
1000
0010
0100
,
0001
1000
0000
0100
0010
0100
1000
0001
,
0100
0010
1000
0001
0100
1000
0100
0001
,
1000
0000
0000
0000
;

//---------------dance-single - ----------------
#NOTES:
     dance-single:
     :
     Hard:
     14:
     0.744616,0.830948,0.201442,0.159475,0.037770,621.000000,597.000000,24.000000,19.000000,0.000000,0.000000,0.744616,0.830948,0.201442,0.159475,0.037770,621.000000,597.000000,24.000000,19.000000,0.000000,0.000000:
0000
0000
0000
0000
,
0000
0000
0000
0000
,
0000
0000
0000
0000
,
0000
0000
0000
0000
,
0000
0000
0000
0000
1000
0010
0000
0001
,
0020
0000
0030
0000
0100
0001
1000
0001
,
0100
0001
1000
0001
0100
1000
0000
0100
,
0020
0000
0000
0000
0030
0000
1000
0000
0001
0010
0001
0000
0010
0000
0000
0000
,
0110
1100
1010
0110
,
0101
0000
0100
0000
0001
1000
0001
1000
0002
0000
0000
0000
0000
0000
0000
0000
,
0000
0000
0000
0000
1003
0010
0001
0010
,
0100
0001
0010
0100
1000
0001
0010
0001
,
1000
0001
0010
0001
1000
0100
0001
0100
,
0010
0000
0001
0000
1000
0000
0010
0000
0100
0001
0100
0000
0010
0000
1000
0000
,
0001
0010
0100
1000
0100
0001
0100
0010
,
0001
1000
0010
0100
0001
1000
0100
1000
,
0001
1000
0100
0010
0100
0001
0100
1000
,
0001
0000
0100
0000
0010
0000
1000
0000
0001
0010
0001
0000
0100
0000
0010
0000
,
1010
0000
1001
0000
1000
0001
1000
0010
,
0100
0010
1000
0100
0010
0001
0100
0010
,
1000
0001
0010
0000
0100
0001
0000
0100
,
2000
0000
0000
0000
0001
0000
0000
0000
3010
1000
0010
0000
0100
0000
0001
0000
,
0100
0010
1000
0001
0010
0100
1000
0010
,
0100
0001
1000
0100
0010
0001
1000
0010
,
0100
0001
1000
0000
0010
0001
0000
0010
,
2000
0000
0000
0000
0100
0000
0000
0000
3001
0100
0001
0000
0100
0000
0010
0000
,
1010
0000
1001
0000
1000
0100
0010
0001
,
1000
0010
0100
0001
1000
0100
0010
0100
,
1000
0010
0100
0001
1000
0100
0010
0100
,
1000
0001
0100
0001
1000
0100
0010
0001
,
0100
0010
1000
0001
0100
0010
1000
0001
,
0010
0100
1000
0100
0010
0001
1000
0010
,
0100
0001
1000
0100
0010
0100
1000
0010
,
0100
0001
1000
0100
0010
0001
0100
0010
,
1000
0001
0010
0100
1000
0001
0100
0001
,
1000
0100
0010
0001
0100
0010
1000
0010
,
1000
0100
0010
0100
1000
0001
0100
0010
,
0100
0001
1000
0100
0010
0001
0100
0010
,
1000
0100
1000
0010
0100
0001
0010
0100
,
1000
0001
0100
0010
1000
0100
0010
0001
,
0100
0001
1000
0100
0010
0100
1000
0001
,
0100
0010
1000
0001
0010
1000
0010
0001
,
0100
0010
1000
0001
2000
0000
0000
0000
,
3200
0000
0320
0000
,
0230
0000
2300
0000
,
3020
0000
0032
0000
,
0000
0000
0023
0000
,
0230
0000
0302
0000
,
0203
0000
0320
0000
,
2030
0000
3200
0000
,
0000
0000
0310
0001
1000
0010
0100
0010
,
1000
0001
0010
0100
1000
0100
0010
0001
,
0100
0010
1000
0001
0010
0100
1000
0100
,
0010
0001
0100
0001
1000
0100
1000
0010
,
0100
0000
0010
1000
0100
0010
0001
1000
,
0100
1000
0001
0100
0010
1000
0100
0010
,
0001
0100
0000
0001
0010
0100
1000
0001
,
0100
0010
1000
0010
0100
1000
0100
0010
,
1000
0000
0100
1000
0010
0100
0001
0010
,
0100
0010
0001
1000
0010
0100
0001
0010
,
0001
0100
0010
1000
0001
0010
0100
0010
,
0001
0100
0010
1000
0001
0100
0001
0010
,
0100
0000
1000
0001
0010
0001
1000
0100
,
0010
0100
1000
0010
0100
0001
0010
0001
,
0100
0010
1000
0001
0011
0010
0100
1000
,
1100
0100
1000
0100
0010
1000
0010
0100
,
1100
0000
0001
0100
0010
0001
0010
1000
,
0100
0010
0001
1000
0001
0100
0001
0010
,
0100
0001
0100
1000
0010
0001
0010
0100
,
0001
0010
0100
1000
0100
0010
0001
0100
,
0010
0000
1000
0001
0010
1000
0010
0100
,
1000
0001
0100
0010
1000
0100
0010
0001
,
0100
0010
0001
0010
0110
0100
0001
1000
,
1100
0100
0010
0001
0011
0010
0110
0100
,
1100
0000
0000
0000
1000
0010
0100
0001
,
0010
0100
1000
0001
0100
0001
1000
0001
,
0100
0001
0010
0000
0100
1000
0010
0100
,
0001
0000
1000
0000
0100
0000
0010
0000
0001
1000
0001
0000
0100
0000
0000
0000
,
1010
0000
1000
0000
0001
0010
0001
0100
,
0010
1000
0100
1000
0010
1000
0100
1000
,
0010
1000
0001
0000
0100
0010
1000
0100
,
0010
0000
0001
0000
0100
0000
0001
0000
1000
0100
1000
0000
0001
0000
0000
0000
,
0001
0000
1001
1000
0010
0001
0010
0100
,
0001
0010
0100
1000
0100
0010
0001
0100
,
0010
0001
0010
1000
0100
0001
0100
0010
,
0001
1000
0010
0100
0001
0010
0100
1000
,
0010
0000
0100
0001
0010
1000
0010
0100
,
1000
0001
0100
0010
1000
0100
0010
0001
,
0100
1000
0000
0100
0110
0010
0100
0001
,
0101
0100
0010
0100
1001
0010
0101
0010
,
1001
0000
0000
0000
;
