#VERSION:0.83;
#TITLE:voltississimo;
#SUBTITLE:[Yosefu's DDR Edit];
#ARTIST:BEMANI Sound Team "PHQUASE";
#TITLETRANSLIT:;
#SUBTITLETRANSLIT:;
#ARTISTTRANSLIT:;
#GENRE:;
#ORIGIN:;
#CREDIT:;
#BANNER:voltississimo [Yosefu's DDR Edit].png;
#BACKGROUND:voltississimo [Yosefu's DDR Edit]-bg.png;
#PREVIEWVID:;
#JACKET:voltississimo-jacket [Yosefu's DDR Edit].png;
#CDIMAGE:;
#DISCIMAGE:;
#LYRICSPATH:;
#CDTITLE:../_YSD cdtitles/ysd ddr edits cdtitle.png;
#MUSIC:voltississimo [Yosefu's DDR Edit].ogg;
#OFFSET:0.000000;
#SAMPLESTART:61.300999;
#SAMPLELENGTH:15.000000;
#SELECTABLE:YES;
#BPMS:0.000=225.000,
228.000=112.500,
232.000=225.000;
#STOPS:388.000=0.133,
388.500=0.133,
389.000=0.133,
389.500=0.133;
#DELAYS:;
#WARPS:;
#TIMESIGNATURES:0.000=4=4;
#TICKCOUNTS:0.000=4;
#COMBOS:0.000=1;
#SPEEDS:0.000=1.000=0.000=0;
#SCROLLS:0.000=1.000;
#FAKES:;
#LABELS:0.000=Song Start;
#BGCHANGES:;
#KEYSOUNDS:;
#ATTACKS:
;

//---------------dance-single - ITG Scale = 14?----------------
#NOTEDATA:;
#CHARTNAME:;
#STEPSTYPE:dance-single;
#DESCRIPTION:ITG Scale = 14?;
#CHARTSTYLE:DDR Edit;
#DIFFICULTY:Challenge;
#METER:18;
#RADARVALUES:1.123235,1.477096,0.692521,0.168908,0.992332,931.000000,849.000000,82.000000,20.000000,0.000000,0.000000,0.000000,0.000000,0.000000,1.123235,1.477096,0.692521,0.168908,0.992332,931.000000,849.000000,82.000000,20.000000,0.000000,0.000000,0.000000,0.000000,0.000000;
#CREDIT:YOSEFU;
#NOTES:
// measure 0
0000
0000
0000
0000
,  // measure 1
0000
0000
0000
0000
,  // measure 2
0000
0000
0000
0000
,  // measure 3
0000
0000
0000
0000
,  // measure 4
0000
0000
0000
0000
,  // measure 5
0000
0000
0000
0000
,  // measure 6
0000
0000
0000
0000
,  // measure 7
0000
0000
0000
0000
,  // measure 8
0000
0000
0000
0000
0000
0000
0000
0110
,  // measure 9
0000
1001
0000
0001
0100
0000
0020
0000
,  // measure 10
1030
0001
0100
0001
1000
0100
0010
0001
,  // measure 11
1000
0010
0001
0010
2000
0000
0000
0000
,  // measure 12
3001
0100
0010
1000
0001
0010
0100
0010
,  // measure 13
0001
0000
0100
0000
1000
0000
0100
0000
1100
0000
0000
0110
0000
0000
0101
0000
,  // measure 14
0001
0100
0010
1000
0100
0010
0001
1000
,  // measure 15
0001
0100
1000
0100
0020
0000
0000
0000
,  // measure 16
0130
0001
1000
0100
0010
1000
0010
0001
,  // measure 17
1000
0010
0100
0001
1000
0000
0000
0000
0010
0000
0000
0000
0010
0000
0000
0000
,  // measure 18
0100
0000
0001
1000
0100
0000
0010
0001
1000
0000
0010
0000
0100
0001
1000
0000
,  // measure 19
0100
0000
0010
0001
1000
0000
0010
0000
0001
0000
0010
0000
0100
0000
0001
0000
,  // measure 20
0020
0000
0000
0000
0130
1000
0001
0100
0010
0000
0001
0000
0010
0000
2000
0000
,  // measure 21
0100
0000
0001
0000
3010
0100
0101
0000
,  // measure 22
0001
0000
0010
0100
1000
0000
0001
0100
0010
0000
0100
0000
0001
1000
0100
0000
,  // measure 23
0010
0000
0001
1000
0010
0000
0100
0000
0020
0000
0000
0000
0031
0000
0010
0000
,  // measure 24
1010
1000
0001
0011
0000
0010
0100
1100
,  // measure 25
0000
0000
1000
0000
0001
0000
0101
0000
0000
0000
0100
0001
1000
0100
0010
0001
,  // measure 26
1000
0010
0100
0010
1000
0000
0100
0010
0001
0000
0100
0000
0010
1000
0001
0000
,  // measure 27
0010
0000
0000
0000
0000
0000
0100
0000
0000
1000
0000
0000
0001
0000
0000
0000
0000
0000
0100
0000
0000
0000
0000
0000
0010
0000
0000
0000
0000
0000
1000
0000
0000
0100
0000
0000
0010
0000
0000
0000
1000
0000
0000
0000
0010
0000
0000
0000
,  // measure 28
0200
0000
0001
0000
1300
0010
0100
0001
,  // measure 29
1001
1001
0000
1010
1010
0000
1000
0001
,  // measure 30
0010
0000
0100
1000
0010
0000
0100
0001
0010
0000
1000
0000
0010
0001
0100
0000
,  // measure 31
0010
0000
1000
0001
0010
0000
0100
0000
0001
0000
0100
0010
0001
1000
0001
0000
,  // measure 32
1001
0000
1000
0010
0100
0001
1000
0000
0100
0000
0010
0000
0011
0000
0001
0100
,  // measure 33
0010
0000
0000
1000
0000
0000
0100
0000
0000
0000
0000
0000
0010
0000
0000
0001
0000
0000
0100
0000
0000
0000
0000
0000
0101
0000
0000
0000
0000
0000
0000
0000
1010
0000
0000
0000
0000
0000
0000
0000
0110
0000
0000
0000
0000
0000
0000
0000
,  // measure 34
1001
0000
0000
0000
1000
0001
0010
0000
0000
0001
1000
0010
0000
0000
1000
0001
,  // measure 35
0100
0000
0000
0001
1000
0100
0000
0000
0110
0000
0010
0000
0001
0000
1000
0000
,  // measure 36
1010
0000
0010
1000
0001
0000
0000
0010
0001
1000
0000
0000
0100
1000
0001
0000
,  // measure 37
0000
0100
0001
1000
0000
0000
0100
1000
0010
0000
0000
0110
0000
0000
0101
0000
,  // measure 38
0100
0000
0000
0000
0001
1000
0100
0000
0000
0010
0001
1000
0000
0000
0010
0100
,  // measure 39
0001
0000
0000
1000
0100
0010
0000
0000
0110
0000
0100
0000
1000
0000
0001
0000
,  // measure 40
0101
0000
0100
0010
1000
0000
0000
0001
1000
0100
0000
0000
0010
0100
1000
0000
,  // measure 41
0000
0001
0100
0010
0000
0000
0100
0001
0010
0000
0000
0011
0000
0000
1100
0000
,  // measure 42
1001
0001
0100
0010
0100
1000
0100
0001
,  // measure 43
0010
0100
0001
0100
1000
0010
0001
0010
,  // measure 44
0100
0001
1000
0100
0010
1000
0010
0001
,  // measure 45
0100
1000
0100
0001
0010
0001
1000
0010
,  // measure 46
0100
0000
0000
0000
0000
0000
0000
0000
0001
0000
0000
0000
0000
0000
0000
0000
0010
0000
0000
0000
0000
0000
0000
0000
0001
0000
0000
0000
0000
0000
0000
0000
0000
0100
0000
0000
0000
0000
0000
0000
0000
0000
1000
0000
0000
0000
0000
0000
0000
0000
0000
0000
0010
0000
0000
0000
0000
0000
0000
0000
0000
0000
0000
0000
,  // measure 47
1000
0000
0000
0000
0000
0000
0000
0000
0000
0000
0001
0000
0000
0000
0000
0000
0000
0000
0000
0000
0000
0000
0000
0000
0000
0000
0000
0020
0000
0000
0000
0000
0000
0000
0000
0000
0000
0000
0000
0000
0000
0000
0000
0000
0000
0000
0000
0000
0000
0000
0000
0000
0000
0000
0000
0000
0000
0000
0000
0000
0000
0000
0000
0000
,  // measure 48
0000
0000
0030
0110
,  // measure 49
1001
0000
1000
0001
0100
0000
0001
1000
0100
0000
0010
0001
1000
0000
0010
0100
,  // measure 50
0001
0000
1000
0100
0010
0000
0100
1000
0001
0000
0100
0010
1000
0000
0001
0010
,  // measure 51
0100
0000
0010
0001
1000
0000
0010
0100
0001
0000
1000
0001
0010
0000
0100
1000
,  // measure 52
0001
0000
0100
0010
1000
0000
0100
0010
0001
0000
0100
0010
1000
0001
0010
0100
,  // measure 53
1000
0000
0010
0100
0001
0000
1000
0001
0010
0000
0100
0010
0001
0000
0100
0010
,  // measure 54
1000
0000
0100
1000
0010
0000
0100
0001
0010
0000
0001
0100
0010
1000
0001
0010
,  // measure 55
0100
0000
0010
0001
1000
0000
0010
0100
0001
0000
1000
0100
0010
0000
0011
0000
,  // measure 56
0000
1001
0000
0011
0000
0110
0000
1100
,  // measure 57
0000
0200
0320
0032
,  // measure 58
1003
0000
0010
0100
0001
0000
0010
0100
1000
0000
0001
0100
0000
0001
1000
0000
,  // measure 59
0010
0000
0100
0001
1000
0000
0100
0010
0001
0000
1000
0010
0000
0100
0010
0000
,  // measure 60
0100
0000
0001
1000
0100
0000
0010
0000
0100
0000
1000
0001
0100
0000
0010
1000
,  // measure 61
0001
0000
0010
0001
0000
1000
0010
0000
0100
0000
0001
1000
0100
0010
0100
1000
,  // measure 62
0001
0000
0100
0010
1000
0000
0001
0010
0100
0000
0010
0001
0000
1000
0010
0000
,  // measure 63
0100
0000
0001
0000
1000
0100
0010
0001
1000
0000
0010
0100
0000
0001
0010
0000
,  // measure 64
0001
0000
1000
0010
0100
0000
0001
0000
0010
0000
0001
1000
0010
0000
0100
0000
,  // measure 65
0101
1100
1010
0011
,  // measure 66
0001
0000
1000
0010
0100
0000
0001
0000
0101
0000
0000
1100
0000
0000
0101
0000
,  // measure 67
0001
0000
1000
0100
0010
0000
0001
0000
0011
0000
0000
1010
0000
0000
0011
0000
,  // measure 68
0001
0000
0100
0010
1000
0001
0010
0000
0100
0000
1000
0001
0100
0010
1000
0001
,  // measure 69
0010
0000
0000
0011
0000
0000
1001
0000
0000
1010
0000
0000
1000
0001
0010
0001
,  // measure 70
0100
0000
0000
0000
0101
0000
0001
1000
0010
0000
0010
1000
0000
1000
0100
0000
,  // measure 71
0010
0000
0100
1000
0001
0100
0010
1000
0001
0000
0001
0010
0000
0010
0100
0000
,  // measure 72
1000
0001
0100
0001
1000
0000
0100
0000
0010
0001
1000
0001
0010
0000
0100
0000
,  // measure 73
1000
0001
0100
0010
0100
0000
0001
0000
1000
0100
0010
0001
1000
0010
0100
0001
,  // measure 74
0010
0100
1000
0001
0100
0000
0000
0000
0001
0000
1000
0000
0000
0000
1100
0000
,  // measure 75
0000
0110
0000
0011
0000
1001
0000
1010
,  // measure 76
0000
0000
0010
1000
0001
0000
0010
0001
0100
0000
0010
1000
0001
0000
0010
0100
,  // measure 77
1000
0000
0001
0100
0010
0000
0100
0001
1000
0100
0010
0001
1000
0001
0100
0010
,  // measure 78
1000
0001
0010
0100
0010
0000
0000
0000
0001
0000
0100
0000
0000
0000
0110
0000
,  // measure 79
0000
1010
0000
1100
0000
0101
0000
0011
,  // measure 80
0000
0000
0001
0100
0010
1000
0100
0000
0000
0000
1000
0010
0100
0001
0010
0000
,  // measure 81
0000
0000
0100
1000
0010
0100
0001
0000
0000
0110
0000
0000
0110
0000
0000
0010
,  // measure 82
1000
0100
1000
0001
0100
0000
0010
1000
0100
0000
0011
0000
0000
0000
1010
0000
,  // measure 83
0000
1100
0000
1001
0000
0101
0000
0110
,  // measure 84
1000
0001
0010
0100
0010
0000
0001
1000
0010
0100
0001
1000
0001
0010
0100
0000
,  // measure 85
0010
0001
1000
0010
0100
0001
1000
0000
0100
0010
0100
1000
0001
0100
0010
0000
,  // measure 86
2010
0000
0000
0000
3001
0000
0000
0012
,  // measure 87
0000
0000
0000
0000
0103
0000
0000
1020
,  // measure 88
0000
0000
0001
0000
1000
0000
0130
1002
,  // measure 89
0000
1003
0001
0100
0010
1000
0100
0010
,  // measure 90
0001
0010
1000
0010
0100
1000
0010
0100
,  // measure 91
1000
0100
0001
1000
0200
0000
0000
0000
,  // measure 92
0301
0100
0010
0001
0100
0010
0001
0010
,  // measure 93
1000
0000
0001
0000
0010
0000
0100
0000
1001
0000
0000
0101
0000
0000
1010
0000
,  // measure 94
1000
0100
0001
0100
0010
0001
0100
0010
,  // measure 95
0001
0010
1000
0001
0020
0000
0000
0000
,  // measure 96
1030
0010
0100
0001
0100
1000
0001
0100
,  // measure 97
0110
1100
0110
0101
0100
0010
0001
0010
,  // measure 98
1000
0000
0000
0000
0100
0000
0000
0000
0001
0000
0000
0000
0100
0000
0000
0000
0010
0000
0000
0000
0001
0000
0000
0000
0100
0000
0000
0010
0000
0000
1000
0000
0000
0001
0000
0000
0010
0000
0000
0100
0000
0000
1000
0000
0000
0001
0000
0000
,  // measure 99
0200
0000
0000
0000
0310
0001
0010
0100
,  // measure 100
0001
0000
0000
0000
0010
0000
0000
0000
1000
0000
0000
0000
0010
0000
0000
0000
0100
0000
0000
0000
1000
0000
0000
0000
0010
0000
0000
0100
0000
0000
0001
0000
0000
1000
0000
0000
0100
0000
0000
0010
0000
0000
0001
0000
0000
1000
0000
0000
,  // measure 101
0010
0000
0000
0110
0000
0000
0101
0000
0001
0000
0000
0000
1000
0100
0010
0100
,  // measure 102
1000
0001
0100
0001
1000
0010
0100
0001
1000
0001
0010
0001
1000
0100
0010
0001
,  // measure 103
0100
0010
1000
0001
0010
0001
1000
0100
0010
0100
1000
0001
0100
0001
1000
0100
,  // measure 104
0010
0001
1000
0010
0100
0001
0010
0100
1000
0001
0100
0010
1000
0000
0000
0000
,  // measure 105
0100
1000
0010
0220
0000
0000
0000
0000
,  // measure 106
0330
0000
0000
0000
;
