#TITLE:snow storm;
#SUBTITLE:-euphoria-;
#ARTIST:Yooh;
#TITLETRANSLIT:;
#SUBTITLETRANSLIT:;
#ARTISTTRANSLIT:;
#GENRE:Euphoric Hardcore (Frozen);
#CREDIT:;
#BANNER:snow storm -euphoria-.png;
#BACKGROUND:snow storm -euphoria--bg.PNG;
#LYRICSPATH:;
#CDTITLE:../_YSD cdtitles/ysd xmas2023 cdtitle.png;
#MUSIC:snow storm -euphoria-.ogg;
#OFFSET:-0.539000;
#SAMPLESTART:83.872002;
#SAMPLELENGTH:22.667000;
#SELECTABLE:YES;
#DISPLAYBPM:89.000000:180.000000;
#BPMS:0.000000=180.000000
,67.000000=90.000000
,101.000000=180.000000
,205.000000=360.000000
,209.000000=180.000000
,277.000000=720.000000
,289.000000=360.000000
,295.000000=180.000000
,297.000000=129.500000
,307.000000=103.000000
,308.000000=89.000000
;
#STOPS:67.000000=2.333000,
100.000000=0.667000
;
#BGCHANGES:;
#KEYSOUNDS:;
#ATTACKS:;

//---------------dance-single - ----------------
#NOTES:
     dance-single:
     :
     Beginner:
     6:
     0.218668,0.364593,0.330749,0.115378,0.000000,199.000000,156.000000,43.000000,15.000000,0.000000,0.000000,0.218668,0.364593,0.330749,0.115378,0.000000,199.000000,156.000000,43.000000,15.000000,0.000000,0.000000:
// measure 0
0000
0000
0000
0000
,  // measure 1
0000
0000
0000
0000
,  // measure 2
0000
0000
0000
0000
,  // measure 3
0000
0000
0000
0000
,  // measure 4
0000
0000
0000
0000
,  // measure 5
1000
0000
0001
0000
,  // measure 6
1000
0000
0001
0000
,  // measure 7
0100
0000
0000
0000
,  // measure 8
0010
0000
0000
0000
,  // measure 9
1001
0000
0001
0000
,  // measure 10
1000
0000
0001
0000
,  // measure 11
0100
0000
0010
0000
,  // measure 12
0110
0110
0110
0000
,  // measure 13
1001
0000
0001
0000
,  // measure 14
0110
0000
0100
0000
,  // measure 15
1001
0000
0110
0000
,  // measure 16
1001
0000
0110
0000
,  // measure 17
1001
0000
0002
0003
,  // measure 18
0020
0030
0200
0300
,  // measure 19
1000
1000
0001
0001
,  // measure 20
0100
0100
0010
1000
,  // measure 21
0002
0003
0200
0300
,  // measure 22
0020
0030
2000
3000
,  // measure 23
0100
0100
0010
0010
,  // measure 24
0001
1000
0010
0200
,  // measure 25
0300
1001
0000
0001
,  // measure 26
0000
0100
0000
0010
,  // measure 27
0000
1000
0000
0100
,  // measure 28
0000
0010
0000
0001
,  // measure 29
0001
0001
0000
1000
,  // measure 30
0000
0010
0000
0100
,  // measure 31
0000
0001
0000
0010
,  // measure 32
0000
0100
0100
0100
,  // measure 33
0100
0110
0000
0010
,  // measure 34
0000
0001
0000
1000
,  // measure 35
0000
0010
0000
0100
,  // measure 36
0000
0001
0000
1000
,  // measure 37
0000
1001
0000
0001
,  // measure 38
0000
0110
0000
0100
,  // measure 39
0000
1001
0000
0110
,  // measure 40
0000
1001
1001
1001
,  // measure 41
0000
1001
0000
0110
,  // measure 42
0000
1001
0000
0110
,  // measure 43
0000
1001
0000
0110
,  // measure 44
0000
1001
0000
0110
,  // measure 45
0000
1001
0000
0001
,  // measure 46
0000
1001
0000
0100
,  // measure 47
0000
0110
0000
1001
,  // measure 48
0000
0110
0000
1001
,  // measure 49
0000
1001
0000
0110
,  // measure 50
0000
1001
0001
0001
,  // measure 51
0001
0002
0000
0000
,  // measure 52
0000
0003
0000
1000
,  // measure 53
0000
0001
0000
1000
,  // measure 54
0000
0001
0000
0100
,  // measure 55
0000
0010
0000
0100
,  // measure 56
0000
0001
0001
0001
,  // measure 57
0000
1000
1000
1000
,  // measure 58
0000
0100
0100
0100
,  // measure 59
0000
1000
1000
1000
,  // measure 60
1000
1001
0000
0001
,  // measure 61
0000
0100
0000
0010
,  // measure 62
0000
1000
0000
0100
,  // measure 63
0000
0010
0000
0001
,  // measure 64
0000
1001
0000
0110
,  // measure 65
0000
1001
0000
0110
,  // measure 66
0000
1001
0001
0001
,  // measure 67
0000
1000
1000
1000
,  // measure 68
0000
0100
0100
0100
,  // measure 69
0100
0200
0000
0000
,  // measure 70
0000
0000
0000
0000
,  // measure 71
0000
0000
0000
0000
,  // measure 72
0000
0000
0000
0000
,  // measure 73
0000
0000
0000
0000
,  // measure 74
0000
0300
0000
0000
,  // measure 75
0000
0020
0030
0002
,  // measure 76
0003
2000
3000
0010
,  // measure 77
1000
0020
0030
0200
,  // measure 78
0000
0000
0000
0000
,  // measure 79
0300
0000
0000
0000
;

//---------------dance-single - ----------------
#NOTES:
     dance-single:
     :
     Easy:
     10:
     0.399975,0.607655,0.192296,0.138453,0.026921,364.000000,339.000000,25.000000,18.000000,0.000000,0.000000,0.399975,0.607655,0.192296,0.138453,0.026921,364.000000,339.000000,25.000000,18.000000,0.000000,0.000000:
0000
0000
0000
0000
,
0000
0000
0000
0000
,
0000
0000
0000
0000
,
0000
0000
0000
0000
,
0000
0000
0000
0000
,
1000
0100
0010
0001
,
0100
0010
1000
0001
,
0010
0000
0100
0000
1000
0000
0001
0100
,
0001
0000
1000
0000
0000
0100
0000
0100
,
1000
0001
0100
1000
,
0100
0010
1000
0001
,
0010
0000
0100
1000
0100
0000
0010
0000
,
1001
1010
0101
1001
,
1000
0100
1000
0000
0001
0100
0001
0000
,
1000
0010
1000
0000
0001
0010
0001
0000
,
1000
0001
1000
0001
1000
0001
1000
0001
,
1000
0000
0000
0000
1010
0000
0000
0000
0101
0000
0000
0000
2002
3003
0000
0000
,
1002
0100
0010
0100
,
2003
0000
0010
0010
0010
0000
0100
0000
,
3001
0010
0100
0000
1000
0010
0100
0000
,
1000
0100
0001
0000
0010
0100
1000
0001
,
0200
0001
1000
0001
,
0010
0000
1000
0000
0310
0000
1000
0001
,
1000
0100
1000
0100
0010
0001
0010
0001
,
1000
0000
0010
0000
1000
0000
0010
0000
0100
0001
0100
0001
1000
0001
1000
0001
,
0000
1001
0001
0100
,
0010
1000
0100
0010
,
0001
1000
0010
0100
,
1000
0000
0100
0000
0001
0000
1000
0001
,
1000
0001
1000
0000
0100
0000
0010
0000
,
1000
0010
0001
1000
,
0010
0100
1000
0100
,
0001
0000
1000
0001
1000
0001
1000
0000
,
0100
0110
0010
0100
,
1000
0010
0100
0001
,
1000
0100
0001
0100
,
0010
0000
0001
0010
0001
0010
0001
0000
,
1000
0000
0010
1000
0010
0000
1000
0001
,
1000
0000
0001
0100
0001
0000
1000
0100
,
1000
0000
0001
0100
0001
0100
0001
1000
,
0001
1000
0001
0000
0011
0000
0110
0000
,
1100
1001
0000
0101
,
0000
1010
0000
0101
,
0010
1001
0000
1010
,
0000
1100
0100
1001
,
0001
0100
0001
0000
1000
0000
0001
0000
,
1000
0100
1000
0000
0001
0000
0100
0000
,
0010
1000
0010
0000
0100
0000
0001
0000
,
1000
0001
1000
0000
0100
0000
0010
0001
,
0010
0001
0010
0000
0100
0000
1000
0000
,
0001
0000
0100
0010
0100
0010
1000
0010
,
1000
0010
2000
0000
0000
0000
0000
0000
,
0000
3001
0100
0010
,
1000
0001
1000
0000
0100
0000
0010
0000
,
0001
0010
0001
0000
1000
0000
0010
0000
,
0100
0001
0100
0000
0001
0000
1000
0000
,
0010
1000
0020
0000
0001
0000
0100
0000
,
1030
0001
0020
0000
1000
0000
0100
0000
,
0031
1000
0020
0000
0001
0000
1000
0000
,
0130
0001
1000
0000
0100
0000
1000
0001
,
0100
0001
1000
0000
0010
0000
0100
0000
,
0001
1000
0001
0000
1000
0000
0100
0000
,
0010
0001
0010
0000
0100
0000
1000
0000
,
0001
0000
0000
0100
0000
0000
0010
0000
0000
0100
0000
0000
0001
0000
0000
0000
0000
0000
1000
0000
0000
0000
1000
0000
,
0001
0000
0001
0010
0000
0000
0100
0000
0000
1001
0000
0000
,
1000
0101
0001
1100
,
1001
0000
0001
0100
0001
0000
1000
0100
,
1000
0000
0001
0010
0001
0000
1000
0010
,
1000
0000
0001
0010
0100
1000
0010
0100
,
0002
0023
0000
0000
,
0000
0000
0000
0000
,
0000
0000
0000
0000
,
0000
0000
0000
0000
,
0000
0000
0000
0000
,
0000
0230
0000
0000
,
0000
0320
0032
2003
,
3020
0000
0130
0001
0100
0001
1000
0100
,
1000
0100
0020
0000
0000
0000
0230
0000
,
0000
0000
0000
0000
,
0300
0000
0000
0000
;

//---------------dance-single - ----------------
#NOTES:
     dance-single:
     :
     Medium:
     14:
     0.577986,0.729186,0.138453,0.223063,0.203834,526.000000,508.000000,18.000000,29.000000,0.000000,0.000000,0.577986,0.729186,0.138453,0.223063,0.203834,526.000000,508.000000,18.000000,29.000000,0.000000,0.000000:
0000
0000
0000
0000
,
0000
0000
0000
0000
,
0000
0000
0000
0000
,
0000
0000
0000
0000
,
0000
0000
0000
0000
,
1000
0001
0100
0001
1000
0100
0010
0100
,
1000
0001
0010
0001
1000
0010
0100
0001
,
1000
0100
0001
0100
0010
0001
1000
0010
,
0100
0000
0000
0000
0001
0000
0000
1000
0100
0000
0020
0000
0031
0000
2000
0000
,
3001
0100
0010
0100
0001
1000
0100
1000
,
0010
0100
0001
0010
0100
1000
0001
0100
,
0001
0010
0100
1000
0010
0100
0001
1000
,
0001
0010
0000
0000
0001
1000
0000
0000
0001
0100
0000
0000
0001
1000
0000
0000
,
0001
0100
1000
0100
0010
1000
0100
0010
,
0001
0010
0100
1000
0010
0100
0001
0100
,
1000
0100
0010
1000
0100
0001
0100
1000
,
0001
0000
0000
0010
0000
0000
0000
0000
0000
0000
0000
0000
0001
0000
0000
1000
0000
0000
0000
0000
0000
0000
0000
0000
0001
0000
0000
0000
0100
0000
0000
0000
0010
0000
0000
0000
2000
0000
0000
3000
0000
0000
0000
0000
0000
0000
0000
0000
,
2001
0100
0001
0010
,
3002
0000
0100
1000
0100
0000
0010
0000
,
0203
0000
0310
1000
0020
0000
0000
0000
2030
0000
3001
0010
0002
0000
0000
0000
,
0023
0230
2300
3020
0230
0302
2003
3200
,
0320
0000
0000
0031
1000
0000
0000
0001
0100
0000
0000
0001
1000
0000
0000
0100
,
1000
0000
0000
0001
0100
0000
0000
0010
0000
0000
0100
1000
0100
0010
1000
0001
,
0100
0000
0001
0000
1000
0000
0100
0010
0100
0000
1000
0000
0001
0000
0100
0001
,
0100
0000
0001
1000
0001
0000
0100
0000
1000
0100
0001
0010
0100
1000
0001
0100
,
0000
0000
0000
0000
1001
0000
0000
0001
0000
0000
1000
0000
0001
0000
0100
0000
,
0010
0100
0000
0001
0000
1000
0100
1000
,
0001
0100
0010
1000
0000
0001
1000
0100
,
0000
0010
0001
1000
0010
0100
1000
0100
,
0001
1000
0100
1000
0100
1000
0001
0100
,
0001
0100
0010
1000
0010
1000
0001
0010
,
0001
0010
0100
1000
0010
0100
0001
1000
,
0100
0010
1000
0010
0001
1000
0010
0100
,
0001
0000
1000
0000
1100
0000
0000
0100
0000
0000
0010
0000
0001
0000
0100
0000
,
0010
1000
0000
0001
0000
0100
0001
1000
,
0100
0010
0000
0001
1000
0010
0000
0100
,
0001
0010
0100
1000
0010
0100
0001
0010
,
0100
1000
0001
0100
0001
1000
0001
0010
,
0001
0100
1000
0100
0010
1000
0001
0010
,
0100
1000
0010
0001
0010
1000
0100
0001
,
0100
0000
0010
0000
0001
0000
0000
1000
0001
0000
0000
0100
0001
0000
1000
0000
,
0200
0310
0011
0000
0001
0000
1001
1000
,
0010
0100
0101
0001
0010
1000
0010
0001
,
1000
0010
0110
0000
0100
0001
0010
0100
,
1000
0010
1010
1000
0100
0001
0100
1000
,
0001
0000
0100
0000
0101
0000
0001
0000
1000
0000
0001
0000
0100
0000
0001
1000
,
0001
0000
0000
0000
0011
0000
0010
0000
0001
0000
1000
0000
0010
0000
0100
0001
,
0100
0001
1001
1000
0100
0001
0100
0010
,
0001
0000
1000
0000
1010
0000
0010
0000
0100
0000
0001
0000
1000
0001
1000
0000
,
0100
0010
0011
0001
1000
0010
0001
0010
,
1000
0000
0001
0000
0011
0000
0010
0000
0100
0000
1000
0000
0001
0100
0001
0000
,
1000
0100
0020
0000
0000
0000
0000
0000
,
0000
0000
0000
0000
0031
0000
0000
1000
0000
0000
0001
0000
0100
0000
0010
0000
,
1000
0000
0100
0000
0010
0000
0000
0001
0000
0000
1000
0000
0001
0000
0100
0000
,
0010
0000
1000
0000
0100
0000
0000
0010
0000
0000
0100
0000
1000
0000
0001
0000
,
0100
0000
0010
0000
1000
0000
0000
0001
0000
0000
0010
0000
0001
0000
0100
0000
,
0010
0001
0010
1000
0100
0010
0001
1000
,
0010
0100
1000
0100
0001
1000
0100
0010
,
0001
0010
1000
0010
0100
1000
0010
0100
,
0001
0000
0010
0000
0100
0000
0001
0000
0100
0000
1000
0001
1000
0000
0001
0000
,
0100
0000
0010
0000
1010
0000
0000
1000
0000
0000
0001
0000
0010
0000
0001
0000
,
1000
0000
0010
0000
0100
0000
0000
0001
0000
0000
0010
0000
0100
0000
0010
0000
,
0001
0000
1000
0000
0010
0000
0000
0100
0001
0000
1000
0000
0100
0000
0000
0010
,
0001
0000
0000
1000
0000
0000
0010
0000
0000
0100
0000
0000
0001
0000
0000
0010
0000
0000
0100
0000
1000
0000
0100
0000
,
1000
0000
0001
0000
0100
0000
0001
0000
0000
1000
0000
0000
0100
0000
0000
0000
0000
0000
0110
0000
0000
0010
0000
0000
,
0001
0000
1001
1000
0010
0001
0010
1000
,
0001
0010
0110
0100
1000
0010
0001
0010
,
1000
0100
0010
0001
1000
0100
0001
1000
,
0010
0000
0001
0000
1000
0000
0000
0001
0100
0000
0000
0001
1000
0001
1000
0001
,
2000
3200
0000
0000
,
0000
0000
0000
0000
,
0000
0000
0000
0000
,
0000
0000
0000
0000
,
0000
0000
0000
0000
,
0000
0320
0000
0000
,
0000
0230
2300
3020
,
0230
0000
1300
0100
0010
1000
0001
0010
,
0100
1000
0020
0000
0000
0000
0230
0000
,
0000
0000
0000
0000
,
0300
0000
0000
0000
;

//---------------dance-single - ----------------
#NOTES:
     dance-single:
     :
     Hard:
     17:
     0.749404,1.093779,0.130761,0.238447,0.734570,682.000000,665.000000,17.000000,31.000000,0.000000,0.000000,0.749404,1.093779,0.130761,0.238447,0.734570,682.000000,665.000000,17.000000,31.000000,0.000000,0.000000:
0000
0000
0000
0000
,
0000
0000
0000
0000
,
0000
0000
0000
0000
,
0000
0000
0000
0000
,
0000
0000
0000
0000
,
1000
0010
0100
0001
1000
0100
0010
0001
,
0100
0010
1000
0001
0010
0100
1000
0010
,
0100
0001
1000
0100
0010
1000
0010
0001
,
1000
0000
0000
0010
0000
0000
0100
0000
0001
1000
0000
0001
0100
0000
0010
1000
,
0001
0010
0100
0001
0100
1000
0001
0100
,
0010
1000
0100
0001
0100
0010
0001
1000
,
0010
0100
1000
0100
0001
0010
0100
1000
,
0001
0100
0000
0001
1000
0100
0000
1000
0001
0100
0000
0001
1000
0100
1000
0000
,
0001
0100
1000
0100
0001
0010
0100
0001
,
0100
1000
0001
0100
1000
0100
0010
1000
,
0001
0010
0001
0010
0100
1000
0100
1000
0001
0100
0001
0100
0010
1000
0010
1000
,
0001
0000
0000
1000
0000
0000
0000
0000
0000
0001
0000
0000
1000
0000
0000
0010
0000
0000
0000
0000
0000
1000
0000
0000
0001
0000
0000
0000
0010
0000
0000
0000
0100
0000
0000
0000
2000
0000
0000
3000
0000
0000
0000
0000
0000
0000
0000
0000
,
2001
3200
0320
0032
,
0203
0000
2300
3200
0320
0000
2030
0000
,
3002
0000
0013
0100
2000
0000
3020
0000
0130
1000
0100
0010
2000
0000
3002
0000
,
0023
0000
0130
1000
0020
0000
0031
0010
2000
0000
3200
0000
0320
0000
0032
0000
,
1003
0000
0000
0010
0000
0000
1000
0000
0010
0000
0000
1000
0000
0000
0010
0000
1000
0000
0000
0001
0000
0000
1000
0000
0001
0000
0000
1000
0000
0000
0001
0000
,
1000
0000
0000
0100
0000
0000
1000
0000
0100
0000
0000
0010
0000
0000
0100
0000
0010
0000
0000
0000
0001
0000
0010
0000
0100
0000
0001
0000
0100
0000
0010
0000
,
0001
1000
0001
1000
0001
0100
0001
0100
0010
1000
0010
1000
0001
0010
0001
0010
,
0100
0000
0001
0000
0100
0000
0010
0000
0001
0000
1000
0000
0010
0000
0001
0000
0010
0000
0100
0000
0001
0000
1000
0000
0001
1000
0001
1000
0001
1000
0001
1000
,
0000
0000
0000
0000
1001
0000
1000
0001
0000
0000
1000
0100
1000
0000
0010
0000
,
0100
0000
0001
0000
1000
0000
0100
1000
0100
0000
1000
0001
1000
0000
0001
0000
,
0100
0000
0010
0000
1000
0000
0100
0010
0000
0000
0001
1000
0001
0000
1000
0100
,
0000
0000
1000
0001
1000
0000
0010
0100
0000
0000
0001
1000
0001
0000
0010
0000
,
0100
1000
0100
1000
0100
0000
0010
0000
0100
0000
1000
0001
1000
0000
0001
0000
,
0100
0000
0010
1000
0010
0000
0100
0000
0001
0000
0010
0100
0010
0000
0001
0000
,
1000
0000
0010
0100
0010
0000
1000
0000
0001
0100
0001
0100
0010
0000
1000
0000
,
0001
0010
0001
0010
0100
0000
0001
0000
0100
0000
1000
0000
0001
0100
0001
0100
,
0010
1000
0010
1000
0001
0000
1000
0001
0000
0000
1000
0010
1000
0000
0100
0000
,
0010
0000
0001
0000
1000
0000
0010
1000
0010
0000
1000
0001
1000
0000
0001
0000
,
0010
0000
0100
0000
1000
0000
0010
0100
0000
0000
0001
1000
0001
0000
1000
0010
,
0000
0000
1000
0001
1000
0000
0100
0010
0100
0000
1000
0001
1000
0000
0100
0000
,
1000
0001
1000
0001
1000
0000
0100
1000
0001
0000
0100
0001
1000
0000
0100
0000
,
1000
0001
0100
0000
0010
1000
0010
1000
0010
0000
0100
0000
0001
1000
0001
1000
,
0100
0000
0010
0000
0001
1000
0001
1000
0010
0100
0010
0100
0001
1000
0001
1000
,
0100
1000
0100
1000
0010
0000
0100
0001
0010
0000
0100
1000
0010
0000
0100
0000
,
0101
0000
0000
0000
1001
0000
0000
1000
0100
0000
0010
0000
0011
0000
0001
0000
,
0100
0000
0010
0000
1010
0000
1000
0000
0100
0010
0001
0000
0011
0000
0010
0000
,
1000
0000
0010
0000
0011
0000
0000
0001
1000
0000
0010
0000
0110
0000
0100
0000
,
0001
0000
0010
0000
0110
0000
0100
1000
0001
0000
0100
0000
0110
0000
0010
0000
,
1000
0000
0100
0000
0110
0000
0000
0010
0001
0000
0000
1000
0010
1000
0001
0000
,
0100
0010
1010
1000
0100
0001
0100
0010
,
0001
1000
0010
1000
0001
0000
0100
0000
1000
0000
0100
0000
0010
0000
1000
0000
,
0100
0000
0001
0000
0100
0000
0010
0000
0001
0000
1000
0001
0100
0000
0001
0000
,
0010
0100
1000
0001
0100
0000
0001
1000
0100
0000
0010
0001
1000
0000
0010
0100
,
0001
0000
1000
0100
0010
0001
0010
0001
1000
0010
1000
0010
0100
0001
0010
0100
,
1000
0001
0100
0010
2000
0000
0000
0000
0000
0000
0000
0000
0000
0000
0000
0000
,
0000
0000
0000
0000
3001
0000
0100
0001
0000
1000
0001
0000
0100
0000
1000
0000
,
0100
0000
0001
0000
1000
0000
0100
1000
0000
0001
1000
0000
0010
0000
0001
0000
,
0010
0000
0100
0000
0001
0000
1000
0100
0000
1000
0010
0000
0100
0000
1000
0000
,
0100
0000
0001
0000
0010
0000
0100
1000
0000
0001
1000
0000
0100
0000
0001
0000
,
0100
0000
1000
0000
0100
1000
0001
0000
0100
0000
0001
0000
1000
0100
0010
0000
,
0001
0000
1000
0000
0010
0100
0001
0000
1000
0000
0100
0000
0010
0100
1000
0000
,
0001
0000
0100
0000
0010
1000
0001
0000
0010
0000
0100
0000
0010
0001
1000
0000
,
0010
1000
0001
0010
0100
0000
0000
0010
0001
0000
0000
1000
0001
0000
0100
0000
,
0010
0000
1000
0000
1001
0000
0001
0010
0000
0001
0100
0000
0010
0000
1000
0000
,
0001
0010
0100
0000
0010
0000
0001
1000
0000
0001
0100
0000
0010
0000
1000
0000
,
0100
0010
0001
0000
1000
0000
0001
0100
0001
0000
1000
0000
0001
0000
1000
0100
,
1000
0000
0000
0000
0000
0000
0001
0000
0000
0100
0000
0000
0010
0000
0000
0000
0000
0000
1000
0000
0000
0001
0000
0000
1000
0000
0000
0000
0000
0000
0100
0000
0000
0000
0000
0000
1000
0000
0000
0000
0010
0000
0000
0000
0100
0000
0000
0000
,
0001
0000
0000
0000
0010
0000
0000
0000
0100
0000
0000
0000
1000
0000
0000
0000
0000
0000
0001
0000
0000
0100
0000
0000
0010
0000
0000
0000
0000
0000
1000
0000
0000
0000
0000
0000
1001
0000
0000
0000
0000
0000
0001
0000
0000
1000
0000
0000
,
0010
0000
1000
0000
0010
0100
1000
0100
0010
0000
1000
0000
1010
0000
0010
0000
,
0110
0100
0001
0010
1000
0001
0100
1000
,
0010
0000
0100
0000
0001
0010
0100
0010
0001
1000
0010
1000
0001
0100
0001
1000
,
0100
1000
0010
0100
0001
0000
1000
0010
0001
0000
0010
1000
0001
1000
0100
0010
,
0002
0023
0000
0000
,
0000
0000
0000
0000
,
0000
0000
0000
0000
,
0000
0000
0000
0000
,
0000
0000
0000
0000
,
0000
0230
0000
0000
,
0000
0320
0032
2003
,
3020
0000
0031
0010
0100
0001
0100
0010
,
1000
0001
0020
0000
0000
0000
0230
0000
,
0000
0000
0000
0000
,
0300
0000
0000
0000
;

//---------------dance-single - ----------------
#NOTES:
     dance-single:
     Braving the Biting Cold:
     Challenge:
     18:
     0.923020,1.458372,0.084610,0.292290,1.346071,840.000000,829.000000,11.000000,38.000000,0.000000,0.000000,0.923020,1.458372,0.084610,0.292290,1.346071,840.000000,829.000000,11.000000,38.000000,0.000000,0.000000:
0000
0000
0000
0000
,
0000
0000
0000
0000
,
0000
0000
0000
0000
,
0000
0000
0000
0000
,
0000
0000
0000
0000
,
1000
0001
0100
0000
0010
0000
1000
0000
0100
0010
0001
0000
1000
0000
0010
0000
,
0100
0001
1000
0000
0100
0000
1000
0000
0001
0100
0010
0000
1000
0000
0001
0000
,
0100
0001
1000
0100
0001
0100
1000
0010
,
0100
0001
0000
1000
0100
0000
0010
0000
0100
0001
0000
0100
1000
0000
0001
0000
,
0100
0001
1000
0000
0100
0000
0010
0000
0100
1000
0001
0000
0100
0000
0010
0000
,
1000
0001
0010
0000
0100
0000
0010
0000
0001
0100
0010
0000
1000
0000
0100
0000
,
0010
0100
1000
0000
0001
0000
0100
0000
0010
1000
0001
0000
0010
0000
0100
0010
,
0001
0000
0000
0000
0200
0300
0000
0000
0000
0000
0000
0000
0200
0300
0000
0000
1000
0000
0000
0000
0020
0030
0000
0000
0000
0000
0000
0000
0020
0030
0000
0000
0001
0000
0000
0000
0200
0300
0000
0000
0000
0000
0000
0000
0200
0300
0000
0000
1000
0000
0000
0000
0100
0000
0000
0000
0001
0000
0000
0000
0100
0000
0000
0000
,
0010
0000
0001
0000
1000
0010
0100
0010
1000
0000
0001
0000
0010
0100
0010
0001
,
0100
0000
0001
0000
1000
0010
0100
0010
1000
0000
0001
0000
0010
0100
1000
0100
,
0010
0001
0100
0010
1000
0001
0010
0100
0001
0100
0010
0001
1000
0010
0100
0001
,
1000
0000
0000
0000
0000
0000
0000
0000
0000
0000
0000
0000
0200
0000
0000
0300
0000
0000
0000
0000
0000
0000
0000
0000
0000
0000
0000
0000
0000
0000
0000
0000
0000
0000
0000
0000
0200
0000
0000
0300
0000
0000
0000
0000
0000
0000
0000
0000
0001
0000
0000
0000
0000
0000
0000
0000
0000
0000
0000
0000
0020
0000
0000
0030
0000
0000
0000
0000
0000
0000
0000
0000
0000
0000
0000
0000
0000
0000
0000
0000
0000
0000
0000
0000
0020
0000
0000
0030
0000
0000
0000
0000
0000
0000
0000
0000
1000
0000
0000
0000
0000
0000
0000
0000
0000
0000
0000
0000
0000
0000
0000
0000
0010
0000
0000
0000
0000
0000
0000
0000
0000
0000
0000
0000
0000
0000
0000
0000
0100
0000
0000
0000
0000
0000
0000
0000
0000
0000
0000
0000
0000
0000
0000
0000
0202
0000
0000
0000
0000
0000
0000
0000
0000
0000
0000
0000
0303
0000
0000
0000
0000
0000
0000
0000
0000
0000
0000
0000
0000
0000
0000
0000
0000
0000
0000
0000
0000
0000
0000
0000
0000
0000
0000
0000
0000
0000
0000
0000
0000
0000
0000
0000
,
1002
0203
0320
0032
,
0023
0000
2030
3200
0320
0000
0032
0000
,
0203
0000
0310
1000
0200
0000
0320
0000
1030
0010
0001
1000
0010
0100
0001
0010
,
0200
0000
1300
0010
0001
0010
1000
0001
0020
0000
0230
0000
2300
0000
3002
0000
,
0103
0000
0000
0001
0000
0000
0100
0000
0001
0000
0000
0010
0000
0000
0100
0000
1000
0000
0000
0001
0000
0000
1000
0000
0001
0000
0000
0100
0000
0000
0010
0000
,
1000
0000
0000
0100
0000
0000
0010
0000
0001
0000
0000
1000
0000
0000
0001
0000
1000
0000
0010
0000
1000
0000
0100
0000
0001
0000
0100
0000
1000
0000
0001
0000
,
0100
0010
0001
0010
1000
0001
0010
1000
0010
0100
1000
0010
0001
0010
1000
0001
,
1000
0010
1000
0010
0100
0010
0100
0010
0100
0001
0100
0001
1000
0001
1000
0001
1000
0100
1000
0100
0010
0001
0010
0001
1000
0010
1000
0010
0100
0001
0100
0001
,
0000
0000
0000
0000
1000
0000
0001
0000
0010
0000
0100
1000
0001
0000
0010
0000
,
0001
1000
0010
0100
0001
0000
0010
0100
1000
0000
0001
0100
0010
0000
1000
0000
,
0100
0010
0001
1000
0010
0000
0100
0000
0001
0010
0100
0010
0001
0000
1000
0000
,
0001
0100
0010
0100
0001
0000
0100
0000
0001
0010
0100
0001
0100
0010
0001
1000
,
0010
0100
0001
1000
0100
0000
0010
0100
1000
0001
0100
0001
1000
0000
0010
0100
,
0001
1000
0100
0010
0001
0000
0010
0100
1000
0001
0100
0001
1000
0000
0100
0010
,
0001
0100
0010
1000
0001
0000
0100
0001
0010
0100
1000
0001
0100
0010
1000
0100
,
0010
0001
0100
0010
0000
0001
0010
1000
0001
1000
0100
0010
0001
0100
0010
1000
,
0001
0010
0001
1000
0100
0000
1000
0000
0100
0000
0010
0001
1000
0000
0100
0000
,
1000
0001
0100
0010
1000
0000
0100
0010
0001
0000
1000
0010
0100
0000
0001
0000
,
0010
0100
1000
0001
0100
0000
0010
1000
0001
0010
0100
1000
0001
0000
0100
0010
,
1000
0001
0010
0001
0100
0010
0100
0001
1000
0100
0010
0001
1000
0010
0100
0010
,
1000
0001
0010
0100
1000
0000
0010
0100
0001
0100
0010
1000
0001
0010
0100
0010
,
0001
1000
0100
0010
1000
0010
0100
1000
0001
0100
0010
1000
0100
0010
0001
1000
,
0100
1000
0010
0100
0001
0010
0100
1000
0001
0100
0010
1000
0100
0010
0001
1000
,
0001
1000
0010
0100
1000
0100
0010
1000
0001
0010
0100
1000
0010
0000
1000
0100
,
0010
0001
0100
0010
1000
0000
0001
0010
0100
0000
1000
0010
0100
0000
1000
0000
,
0100
0000
0000
0001
0000
0000
0101
0000
0000
0100
0000
0000
0001
1000
0001
1000
0000
0000
1100
0000
0000
0100
0000
0000
,
0010
0000
0001
0000
0101
0000
0100
0001
0010
0000
0100
0000
1100
0000
1000
0000
,
0001
0000
0000
0100
0000
0000
0101
0000
0000
0001
1000
0001
1000
0000
0000
0100
0000
0000
0110
0000
0000
0010
0000
0000
,
1000
0000
0010
0000
0011
0000
0001
1000
0010
0000
1000
0001
0010
0001
0100
0010
,
0001
0000
0010
0100
0001
0000
1000
0000
0100
1000
0010
1000
0100
0010
0100
0001
,
0100
1000
0001
0100
0010
1000
0001
0010
0001
0100
0010
1000
0100
0010
0100
1000
,
0010
0100
0001
1000
0100
1000
0001
0100
0010
1000
0001
0010
1000
0010
0001
1000
,
0010
0100
0001
0010
0100
1000
0001
0100
0001
0010
0100
1000
0001
0100
0001
1000
,
0100
0010
0001
0100
0010
0001
0010
0100
0001
1000
0001
0100
1000
0100
0001
0010
,
0100
1000
0001
0100
0020
0000
0000
0000
0000
0000
0000
0000
0000
0000
0000
0000
,
0000
0000
0000
0000
1030
0000
0001
0100
0000
0001
0010
0000
0100
1000
0001
0000
,
0100
0001
1000
0000
0010
0000
0100
0001
0000
1000
0100
0000
0010
0001
1000
0000
,
0010
1000
0001
0000
0100
0000
0001
1000
0000
0001
0010
0000
0100
1000
0001
0000
,
0100
0001
1000
0000
0100
0000
0010
0001
0000
1000
0010
0100
0001
0000
0010
0100
,
1000
0000
0001
0100
0010
1000
0001
1000
0100
0010
0001
0010
0100
0000
1000
0001
,
0100
0000
0010
1000
0100
0010
0001
0100
0001
1000
0100
0010
0001
0000
0100
0001
,
1000
0000
0100
0010
0001
0100
0010
1000
0100
0010
0100
1000
0001
0100
0001
0010
,
0100
1000
0001
0100
0010
0000
1000
0001
0010
0000
0100
1000
0010
0000
0100
0001
,
0010
0000
0100
0000
1000
0000
0001
0100
0000
0001
1000
0000
0100
0010
0001
0010
,
0100
1000
0001
0100
0010
0000
0100
0001
0000
1000
0100
0000
0010
0100
1000
0001
,
0100
0001
0010
0100
1000
0000
0010
0100
1000
0100
0010
1000
0001
0000
0010
0100
,
1000
0000
0000
0010
0000
0000
0100
0000
0000
0001
0000
0000
0010
0000
0000
0001
0000
0000
0100
0000
0000
0010
0000
0000
1000
0000
0000
0100
0000
0000
0010
0000
0000
0001
0000
0000
1000
0000
0000
0000
0100
0000
0000
0000
0001
0000
0000
0000
,
0100
0000
0000
0000
0010
0000
0000
0000
0001
0000
0000
0000
1000
0000
0000
0000
0000
0000
0001
0000
0000
0100
0000
0000
0010
0000
0000
0000
0000
0000
0001
0000
0000
0000
0000
0000
0010
0000
0000
0100
0000
0000
0001
0000
0000
1000
0000
0000
,
0100
0000
0010
0000
1000
0010
0001
1000
0010
0000
0100
0000
1100
0000
0100
0000
,
0110
0000
0010
0000
1000
0001
0100
0001
0010
0000
0100
1000
0001
0000
0010
0100
,
0010
0001
0100
0010
1000
0010
0100
0010
0001
0010
0100
0010
1000
0001
0010
0100
,
0001
0100
0010
0001
1000
0010
0001
0010
0100
0001
0010
0100
0001
0100
1000
0001
,
0100
1000
0100
0001
0020
0000
0000
0000
0000
0000
0000
0000
0000
0000
0000
0000
,
0000
0000
0000
0000
,
0000
0000
0000
0000
,
0000
0000
0000
0000
,
0000
0000
0000
0000
,
0000
0230
0000
0000
,
0000
2300
3002
0023
,
0230
0000
0301
0100
1000
0010
0001
0010
,
0100
0001
0020
0000
0000
0000
0230
0000
,
0000
0000
0000
0000
,
0300
0000
0000
0000
;
