#TITLE:snow motion;
#SUBTITLE:;
#ARTIST:こふ;
#TITLETRANSLIT:;
#SUBTITLETRANSLIT:;
#ARTISTTRANSLIT:kohu;
#GENRE:;
#CREDIT:;
#BANNER:snow motion.png;
#BACKGROUND:snow motion-bg.png;
#LYRICSPATH:;
#CDTITLE:../_YSD cdtitles/ysd xmas2023 cdtitle.png;
#MUSIC:snow motion.ogg;
#OFFSET:-0.049000;
#SAMPLESTART:21.243000;
#SAMPLELENGTH:21.215000;
#SELECTABLE:YES;
#DISPLAYBPM:90.500000:181.000000;
#BPMS:0.000000=181.000000
,192.000000=90.500000
,208.000000=181.000000
,304.000000=90.500000
,304.250000=181.000000
,304.500000=362.000000
,305.000000=181.000000
;
#STOPS:
;
#BGCHANGES:;
#KEYSOUNDS:;
#ATTACKS:;

//---------------dance-single - ----------------
#NOTES:
     dance-single:
     :
     Beginner:
     5:
     0.199951,0.277861,0.074538,0.008282,0.000000,169.000000,160.000000,9.000000,1.000000,0.000000,0.000000,0.199951,0.277861,0.074538,0.008282,0.000000,169.000000,160.000000,9.000000,1.000000,0.000000,0.000000:
0000
0000
0000
0000
,
0000
0000
0000
0000
,
0000
0000
0000
0000
,
0000
0000
0000
0000
,
1000
0000
0000
0000
,
0001
0000
0000
0000
,
0100
0000
0000
0000
,
0001
0000
0000
0000
,
1001
0000
1000
0000
,
0001
0000
1000
0000
,
0010
0000
1000
0000
,
0010
0000
1000
0000
,
0010
0000
0100
0000
,
0001
0000
0100
0000
,
0001
0000
0000
0000
1000
0000
0000
1001
,
0000
0000
0000
1001
0000
0000
0000
0000
,
1001
0000
1000
0000
,
0100
0000
0010
0000
,
0001
0000
0100
0000
,
0010
0000
1000
0000
,
0001
0000
1000
0000
,
0100
0000
0010
0000
,
0001
0000
1000
0000
,
0001
0000
0100
0000
,
0010
0000
1000
0000
,
0100
0000
0010
0000
,
0001
0000
0100
0000
,
0010
0000
1000
0000
,
0001
0000
0010
0000
,
0100
0000
1000
0000
,
0100
0000
0000
0000
0010
0000
0000
0001
,
0000
0000
0000
1001
0000
0000
0000
0000
,
1000
0000
0000
0000
,
0001
0000
0000
0000
,
0100
0000
0000
0000
,
0001
0000
0000
0000
,
0010
0000
0000
0000
,
0100
0000
0000
0000
,
1000
0000
0000
0000
,
0001
0000
0000
0000
,
1001
0000
1000
0000
,
0001
0000
0100
0000
,
0010
0000
0100
0000
,
0001
0000
1000
0000
,
0100
0000
0010
0000
,
0001
0000
0100
0000
,
0010
0000
1000
0000
,
0001
0000
1000
0000
,
1001
0000
0001
0000
,
0100
0000
0001
0000
,
1000
0000
0100
0000
,
0010
0000
0001
0000
,
1001
0000
1000
0000
,
0001
0000
0100
0000
,
0001
0000
1000
0000
,
0100
0000
0010
0000
,
0001
0000
0100
0000
,
0010
0000
1000
0000
,
0001
0000
0010
0000
,
0001
0000
1000
0000
,
0010
0000
0100
0000
,
0001
0000
1000
0000
,
0100
0000
0010
0000
,
0001
0000
0100
0000
,
0010
0000
0100
0000
,
0001
0000
1000
0000
,
0100
0000
0000
0000
0010
0000
0000
0001
,
0000
0000
0000
1001
0000
0000
0000
0000
,
1000
0000
0010
0000
,
1000
0000
0001
0000
,
0010
0000
0001
0000
,
1000
1000
1000
0000
,
0100
0000
0010
0000
,
0001
0000
1000
1000
,
1000
0000
0001
0001
,
0001
0000
0010
0010
,
0020
0000
0030
0000
0000
0000
0000
0001
,
0000
0001
0000
0001
0000
0001
0000
0000
,
1000
0000
0000
0000
0010
0000
0000
0100
,
0000
0100
0000
0100
0000
0100
0000
0000
,
0001
0000
0000
0001
0000
0000
0000
1000
,
0000
0010
0000
1000
0000
0010
0000
0000
,
0100
0000
0000
0001
0000
0000
0000
1000
,
0000
0001
0000
1000
0000
0001
0000
1000
;

//---------------dance-single - ----------------
#NOTES:
     dance-single:
     :
     Easy:
     8:
     0.392803,0.486981,0.082820,0.488637,0.066256,332.000000,322.000000,10.000000,59.000000,0.000000,0.000000,0.392803,0.486981,0.082820,0.488637,0.066256,332.000000,322.000000,10.000000,59.000000,0.000000,0.000000:
0000
0000
0000
0000
,
0000
0000
0000
0000
,
0000
0000
0000
0000
,
0000
0000
0000
0000
,
1000
0000
1000
0000
0000
0001
0000
0001
,
0000
0001
0000
0001
0000
0001
0000
0000
,
0010
0100
1000
0001
,
0100
0010
0001
0010
,
1000
0000
1000
0000
0000
0100
0000
0010
,
0000
0010
0000
0010
0000
0010
0000
0000
,
0001
0000
0001
0000
0000
0100
0000
0010
,
0000
0010
0000
0010
0000
0010
0000
0000
,
1000
0000
1000
0000
0000
0100
0000
0010
,
0000
0010
0000
0010
0000
0010
0000
0000
,
0001
0000
0100
0000
1000
0000
0000
0100
,
0000
0001
0000
1001
0000
0000
0002
0000
,
2003
0000
0000
0000
3002
0000
0000
0013
,
0000
0100
0000
0010
0000
0001
0000
2000
,
0000
0000
0001
0000
3020
0000
0000
0130
,
0000
0001
0000
1000
0000
0100
0000
0020
,
0000
0000
0001
0000
0230
0000
0000
1300
,
0000
0001
0000
0100
0000
0001
0000
0020
,
0000
0000
0100
0000
0001
0000
0130
2000
,
0000
0010
0100
3001
,
0200
0000
0000
0000
0302
0000
0000
0013
,
0000
0100
0000
1000
0000
0010
0000
0200
,
0000
0000
0010
0000
0302
0000
0000
0013
,
0000
0100
0000
0010
0000
1000
0000
0000
,
0020
0000
0000
0032
0000
1003
0000
0020
,
0000
0032
0000
0023
0000
0230
0000
0302
,
0000
0000
1003
0001
0000
0100
0000
0110
,
0000
0101
0000
2001
0000
3010
0000
1000
,
0000
0000
0002
0000
0003
0001
0000
0001
,
0000
0000
0000
1000
0000
0100
0000
0100
,
0000
0000
0000
0010
0000
0001
0010
0001
,
0000
0001
0000
0002
0000
0003
0000
0001
,
0000
1000
0000
0000
0000
1000
0000
1000
,
0000
0000
0100
0000
0000
0010
0000
0010
,
0000
0000
0001
1000
0000
1000
0001
1000
,
0000
0001
0000
0001
0200
0000
0320
0000
,
1030
0001
0100
0010
,
1000
0001
1000
0000
0100
0000
0010
0000
,
0000
0001
0000
1000
0001
0000
0100
0000
,
0001
1000
0001
0000
1000
0100
1000
0000
,
0000
0001
0000
0001
1000
0000
0100
0000
,
0010
0001
0010
0000
0100
0000
1000
0000
,
0001
0100
0001
0000
1000
0000
0100
0000
,
1000
0001
1000
0000
0001
0000
0100
0000
,
0020
0000
0000
0000
2030
0000
0000
3002
0000
0000
0000
0000
0013
0000
0100
0000
,
1000
0000
0001
0000
0200
0000
0000
0310
0000
1000
0000
0001
0000
0010
0000
0100
,
2000
0000
0000
3001
0200
0000
0000
0310
,
1000
0000
0001
0000
0010
0000
0000
0100
0000
1000
0000
0001
0000
0100
0000
0001
,
2000
0000
0000
0000
3002
0000
0000
0103
,
0000
0010
0000
0100
0000
0001
0000
2000
,
0000
0000
0001
0000
3200
0000
0000
0310
,
0000
0001
0000
1000
0000
0010
0000
0200
,
0000
0000
0001
0000
0320
0000
0000
1030
,
0000
0001
0000
0010
0000
0001
0000
0200
,
0000
0000
0010
0000
0001
0000
0310
2000
,
0000
0100
0010
3001
,
0020
0000
0000
0000
0032
0000
0000
0103
,
0000
0010
0000
1000
0000
0100
0000
0020
,
0000
0000
0100
0000
0032
0000
0000
0103
,
0000
0010
0000
0100
0000
1000
0000
0000
,
0200
0000
0000
0302
0000
1003
0000
0200
,
0000
0302
0000
0203
0000
0320
0000
0032
,
0000
0000
1003
0001
0000
0010
0000
0110
,
0000
1001
0000
2100
0000
3010
0000
1000
,
0001
0000
0000
0000
0010
0000
0000
0000
0001
0000
0000
1000
0000
0000
0000
0000
,
0001
0000
0000
0000
0100
0000
0000
0000
0001
0000
0000
1000
0000
0000
0000
0000
,
0100
0000
0000
0000
0010
0000
0000
0000
0100
0000
0000
1000
0000
0000
0000
0000
,
0001
0100
0001
0000
1000
0100
1000
0000
,
0001
0000
0000
0000
0100
0000
0000
0000
0010
0000
0000
1000
0000
0000
0000
0000
,
0001
0000
0010
0000
0100
1000
0100
0000
,
1000
0001
1000
0000
0001
0100
0001
1000
,
0000
1000
0001
0000
0010
0100
0010
0000
,
0002
0000
0000
0000
2003
3000
0000
0000
0000
0000
0001
0000
0100
0000
0002
0000
,
0000
2003
0000
3200
0000
0320
0000
0032
,
0000
0000
1003
0010
0000
0100
0000
0001
,
0000
0010
0000
0100
0000
0010
0000
0001
,
1000
0000
0001
0100
0000
0001
0000
1000
,
0000
0100
0000
0001
0000
0100
0000
1000
,
0000
0000
0001
0100
0000
0010
0000
0110
,
0000
0101
0000
0012
0000
0103
0000
0001
,
1000
0000
0000
0000
;

//---------------dance-single - ----------------
#NOTES:
     dance-single:
     :
     Medium:
     12:
     0.552527,0.591334,0.132512,0.538329,0.132512,467.000000,451.000000,16.000000,65.000000,0.000000,0.000000,0.552527,0.591334,0.132512,0.538329,0.132512,467.000000,451.000000,16.000000,65.000000,0.000000,0.000000:
0000
0000
0000
0000
,
0000
0000
0000
0000
,
0000
0000
0000
0000
,
0000
0000
0000
0000
,
1000
0000
1000
0000
0000
0100
0000
0100
,
0000
0100
0000
0100
0000
0100
0000
0100
,
1000
0001
0100
1000
,
0100
0001
0010
0100
,
1100
0000
1000
0000
0000
0001
0000
0100
,
0000
0100
0000
0100
0000
0100
0000
0100
,
0010
0000
0010
0000
0000
1000
0000
0100
,
0000
0100
0000
0100
0000
0100
0000
0100
,
0010
0000
0010
0000
0000
0001
0000
0100
,
0000
0100
0000
0100
0000
0100
0000
0100
,
0001
0010
0100
0010
0001
1000
0010
0100
,
0000
0101
0000
1001
0000
1000
0200
0000
,
0320
0000
0001
0000
0230
0000
1300
0002
,
0000
0100
0000
1000
0000
0010
0000
2003
,
0010
0000
0100
0000
3002
0000
1003
0020
,
0000
0100
0000
1000
0000
0100
0000
2030
,
0001
0000
0100
0000
3002
0000
0103
0002
,
0000
0010
0000
0100
0000
1000
0000
0203
,
0001
0000
0001
0000
0000
0310
1000
0002
,
0000
0100
0000
1000
0000
0013
0100
1000
,
0002
0000
0100
0000
2003
0000
3100
0020
,
0000
0001
0000
0100
0000
0001
0000
0230
,
1000
0000
0010
0000
2300
0000
3001
0200
,
0000
0010
0000
1000
0000
0010
0000
0301
,
2000
0000
3100
0020
0000
0130
0000
0002
,
0000
0203
0000
2300
0000
3002
0000
0103
,
0020
0000
0031
0010
0000
1000
0000
1010
,
0000
1001
0000
0011
0000
0110
0000
1100
,
0000
1000
0001
1000
0001
1000
0001
1000
,
0100
0010
0100
0010
0001
1000
0001
1000
,
0000
0001
0100
0001
0100
0001
0100
0001
,
1000
0100
1000
0100
0010
0001
0010
0001
,
0000
1000
0001
1000
0001
1000
0001
1000
,
0010
0100
0010
0100
0001
1000
0001
1000
,
0000
0001
0100
0001
0100
0001
0100
0010
,
1000
0100
0010
0100
1000
0002
0100
0000
,
0013
0001
1000
0001
0200
0000
2300
0000
,
3100
0001
1000
0100
0010
0001
2000
0000
,
3000
0001
0100
1000
0100
0001
2000
0000
,
3100
0010
0001
0100
0010
1000
0100
0010
,
0000
0001
1000
0001
0200
0000
0320
0000
,
1030
0000
0100
0000
0001
0000
0100
0000
0010
0000
0001
0000
0000
1000
0000
0001
,
0000
0100
0000
0000
0001
0000
0010
0000
0100
0000
1000
0000
0010
0000
0001
0000
,
0010
1000
0100
0001
0100
1000
0010
0100
,
0001
0000
0001
0000
0000
0001
0000
0100
0000
0100
0000
0100
0000
0100
0000
0100
,
0010
0000
0010
0000
0000
0010
0000
1000
0000
1000
0000
1000
0000
1000
0000
1000
,
0100
0000
0100
0000
0000
0100
0000
0010
0000
0010
0000
0010
0000
0010
0000
0010
,
0001
0000
0001
0000
0000
0001
0000
0100
0000
0100
0000
0100
0000
0100
0000
0100
,
0020
0000
1000
0000
0230
0000
0301
2000
,
0000
0100
0000
0001
0000
0010
0000
3002
,
0010
0000
0100
0000
2003
0000
3001
0020
,
0000
0100
0000
0001
0000
0100
0000
0032
,
1000
0000
0100
0000
2003
0000
3100
2000
,
0000
0010
0000
0100
0000
0001
0000
3200
,
1000
0000
1000
0000
0000
0310
0001
2000
,
0000
0100
0000
0001
0000
3010
0100
0001
,
2000
0000
0100
0000
3002
0000
0103
0020
,
0000
1000
0000
0100
0000
1000
0000
0230
,
0001
0000
0010
0000
0302
0000
1003
0200
,
0000
0010
0000
0001
0000
0010
0000
1300
,
0002
0000
0103
0020
0000
0130
0000
2000
,
0000
3200
0000
0302
0000
2003
0000
3100
,
0010
0001
0010
1000
0010
0001
0000
0101
,
0000
1010
0000
1001
0000
0011
0000
0001
,
1000
0000
0001
0000
0100
0000
0001
0000
1000
0000
0000
0100
0000
0000
0010
0000
,
0001
0000
1000
0000
0001
0000
0010
0000
0001
0000
0000
0100
0000
0000
0001
0000
,
1000
0000
0100
0000
1000
0000
0010
0000
1000
0000
0000
0100
0000
0000
0010
0000
,
1000
0010
0001
0100
0010
0001
0010
1000
,
0100
0000
0010
0000
0100
0000
1000
0000
0001
0000
0000
0100
0000
0000
0001
0000
,
0010
0100
0010
0001
1000
0010
0100
1000
,
0100
0001
0010
0100
1000
0001
0100
2000
,
0000
3100
0001
0010
0100
1000
0001
0100
,
0020
0000
0000
0000
2030
3000
0000
0000
0000
0000
0100
0000
0001
0000
0200
0000
,
0000
2300
0000
3020
0000
0032
0000
0013
,
0200
0000
0301
1000
0100
0010
0001
0100
,
0001
0010
0001
1000
0010
0100
0001
0010
,
0200
0000
1300
0001
0000
0100
0000
1000
,
0100
0001
1000
0100
0001
0100
1000
0020
,
0000
0000
0031
0010
0000
1000
0000
1100
,
0000
0110
0000
0011
0000
1001
0000
0001
,
1000
0000
0000
0000
;

//---------------dance-single - ----------------
#NOTES:
     dance-single:
     :
     Hard:
     14:
     0.661376,0.834824,0.124230,0.712251,0.327138,559.000000,544.000000,15.000000,86.000000,0.000000,0.000000,0.661376,0.834824,0.124230,0.712251,0.327138,559.000000,544.000000,15.000000,86.000000,0.000000,0.000000:
// measure 0
0000
0000
0000
0000
,  // measure 1
0000
0000
0000
0000
,  // measure 2
0000
0000
0000
0000
,  // measure 3
0000
0000
0000
0000
,  // measure 4
0001
0100
0001
0000
0000
0100
0000
0100
,  // measure 5
0000
0100
0000
0100
0000
0100
0000
0100
,  // measure 6
0001
1000
0001
0000
1000
0010
1000
0000
,  // measure 7
0001
0010
0100
0000
1000
0010
0100
0000
,  // measure 8
0001
0010
0001
0000
1000
0010
1000
0100
,  // measure 9
0010
0100
1000
0100
0010
0100
1000
0100
,  // measure 10
0010
0001
1000
0000
0001
0100
0001
0010
,  // measure 11
0100
0010
0001
0010
0100
0010
0001
0010
,  // measure 12
0100
1000
0001
0000
1000
0100
1000
0010
,  // measure 13
0100
0010
1000
0010
0001
0010
0100
0010
,  // measure 14
1000
0010
1000
0000
0001
0100
0000
0001
1000
0000
0100
1000
0100
0000
0010
0000
,  // measure 15
0000
0011
0000
1001
0000
1000
0020
0000
,  // measure 16
0230
0000
0001
0000
0320
1000
0000
0230
,  // measure 17
0000
0001
0000
0010
0000
1000
0000
0302
,  // measure 18
1000
0000
0010
0000
0203
0001
0000
0320
,  // measure 19
0000
0001
0000
0100
0000
1000
0000
0130
,  // measure 20
0002
0000
0010
0000
2003
0100
0000
3020
,  // measure 21
0000
0100
0000
0001
0000
0100
0000
1030
,  // measure 22
0002
0000
0010
0000
0103
0001
1000
0200
,  // measure 23
0000
0010
0000
1000
0000
0310
0001
1000
,  // measure 24
0020
0000
0100
0000
2030
0001
0000
3200
,  // measure 25
0000
0010
0000
0001
0000
0010
0000
1300
,  // measure 26
0002
0000
0010
0000
2003
0001
0000
3200
,  // measure 27
0000
0001
0000
0010
0000
1000
0000
0310
,  // measure 28
0002
0000
1003
0020
0000
0130
0000
2000
,  // measure 29
0000
3200
0000
0302
0000
0023
0000
1030
,  // measure 30
0010
0001
1000
0020
0000
0130
0000
0101
,  // measure 31
0000
1001
0000
1100
0000
1010
0000
1001
,  // measure 32
0000
1000
0001
1000
0001
1000
0001
1000
,  // measure 33
0100
0010
0100
0010
1000
0010
0100
0010
,  // measure 34
0000
0001
1000
0001
1000
0001
1000
0001
,  // measure 35
0010
0100
0010
0100
0001
0100
0010
0100
,  // measure 36
0000
1000
0010
1000
0010
1000
0010
1000
,  // measure 37
0100
0010
0100
0010
1000
0010
0100
0010
,  // measure 38
0000
0001
0100
0001
0100
0001
0100
0001
,  // measure 39
0010
0100
0100
0100
1000
0001
0100
0000
,  // measure 40
0001
1000
1000
1000
0200
0000
0302
0000
,  // measure 41
0103
0010
0100
0000
1000
0100
1000
0000
0001
0000
0100
0000
0020
0000
0000
0000
,  // measure 42
0030
0000
1000
0001
1000
0000
0100
0000
0010
0001
0010
0001
0020
0000
0000
0000
,  // measure 43
0130
1000
0100
0000
1000
0001
1000
0000
0001
0100
0001
0000
1000
0100
1000
0000
,  // measure 44
0000
0001
0001
0001
0200
0000
0320
0000
,  // measure 45
1030
0000
0001
0010
0001
0000
1000
0100
1000
0100
0000
1000
0001
1000
0000
1000
,  // measure 46
0000
0001
0000
0100
0001
0000
0010
0000
0100
0000
1000
0000
1000
0100
1000
0000
,  // measure 47
0001
0100
0001
0000
1000
0000
0100
0000
1000
0001
1000
0000
0010
0000
0100
0000
,  // measure 48
0002
0000
0000
0000
0203
0000
0000
0320
0000
0000
0000
0000
2030
0000
3200
0000
,  // measure 49
0310
0000
0100
1000
0001
0100
0001
0020
0000
0130
1000
0020
0000
0031
0010
1000
,  // measure 50
0200
0000
0000
0000
0000
0000
1300
0010
0002
0000
0000
0000
0000
0000
0013
1000
,  // measure 51
0100
0010
0001
0100
0010
1000
0100
0020
0000
0001
0000
0100
0000
0001
0000
0130
,  // measure 52
2000
0000
0001
0000
3200
1000
0000
0320
,  // measure 53
0000
0001
0000
0100
0000
1000
0000
0032
,  // measure 54
1000
0000
0100
0000
0023
0001
0000
0230
,  // measure 55
0000
0001
0000
0010
0000
1000
0000
0310
,  // measure 56
0002
0000
0100
0000
2003
0010
0000
3200
,  // measure 57
0000
0010
0000
0001
0000
0010
0000
1300
,  // measure 58
0002
0000
0100
0000
0013
0001
1000
0020
,  // measure 59
0000
0100
0000
1000
0000
0130
0001
1000
,  // measure 60
0200
0000
0000
0000
0010
0000
0000
0000
2300
0000
0001
0000
0000
0000
3001
0100
,  // measure 61
0001
0000
1000
0000
0100
0000
0010
0001
0010
0000
0100
0000
1000
0000
0002
0000
,  // measure 62
0100
0000
0000
0000
0010
0000
0000
0000
2003
0000
0010
0000
0000
0000
3001
0010
,  // measure 63
0001
0000
1000
0000
0010
0000
0100
0001
0100
0000
0010
0000
1000
0000
0001
0000
,  // measure 64
2000
0000
3001
0020
0000
0130
0000
0002
,  // measure 65
0000
0203
0000
2300
0000
3020
0000
0031
,  // measure 66
0010
0000
0100
0000
0001
0000
1000
0000
0100
1000
0100
1000
0100
0000
1000
0000
,  // measure 67
0000
1001
0000
0101
0000
0110
0000
0010
,  // measure 68
1000
0000
0001
0000
0010
0000
0001
0000
1000
0002
0000
0203
0000
0000
0302
0000
,  // measure 69
1003
0000
0100
0000
0010
0000
0100
0000
1000
0002
0000
0203
0000
0000
0301
1000
,  // measure 70
0001
0000
0010
0000
0100
0000
0010
0000
0001
2000
0000
3020
0000
0000
0230
0000
,  // measure 71
1300
0000
0100
0000
0001
1000
0001
0000
1000
0200
0000
0320
0000
0000
0032
0000
,  // measure 72
1003
0000
0010
0000
0100
0000
0010
0000
1000
0002
0000
0023
0000
0000
0230
0000
,  // measure 73
1300
0000
0001
0000
0100
0000
0001
0000
1000
0100
1000
0000
0001
0100
0001
0000
,  // measure 74
1000
0010
1000
0000
0001
0010
0001
0000
1000
0100
0010
0000
0001
0010
0200
0000
,  // measure 75
0000
0000
0301
0000
0100
0010
0001
0000
1000
0001
1000
0000
0001
0100
0001
0100
,  // measure 76
0020
0000
0000
0000
2030
3000
0000
0000
0000
0000
0100
0000
0001
0000
0200
0000
,  // measure 77
0000
2300
0000
3020
0000
0032
0000
0013
,  // measure 78
0200
0000
0301
1000
0100
0010
0001
1000
,  // measure 79
0001
0100
0010
0000
1000
0010
0100
0000
0001
0010
0100
0000
1000
0100
0010
0000
,  // measure 80
0002
0000
0000
0000
0013
0000
1000
0000
0000
0000
0010
0000
0000
0000
0001
0010
,  // measure 81
0100
0000
1000
0010
0100
0000
0001
0010
0100
0000
1000
0010
0100
0000
0002
0000
,  // measure 82
0000
0013
1000
0010
0000
0001
0000
0101
,  // measure 83
0000
1010
0000
1100
0000
0011
0000
0001
,  // measure 84
1001
0000
0000
0000
;

//---------------dance-single - ----------------
#NOTES:
     dance-single:
     :
     Challenge:
     16:
     0.822283,1.008746,0.165640,0.612867,0.633572,695.000000,675.000000,20.000000,74.000000,0.000000,0.000000,0.822283,1.008746,0.165640,0.612867,0.633572,695.000000,675.000000,20.000000,74.000000,0.000000,0.000000:
0000
0000
0000
0000
,
0000
0000
0000
0000
,
0000
0000
0000
0000
,
0000
0000
0000
0000
,
1000
0100
1000
0000
0001
0100
0000
0100
,
0000
0100
0000
0100
0001
0100
0000
0100
,
0010
1000
0001
1000
0100
0010
0001
0100
,
0001
0010
0100
1000
0001
0100
0001
0010
,
0100
1000
0001
0000
1000
0001
0100
0010
,
1000
0010
0001
0010
1000
0010
0100
0010
,
1000
0001
0100
0000
0001
0010
0001
0100
,
0010
0100
1000
0100
0001
0100
0010
0100
,
0001
0000
1000
0100
0000
1000
0000
0000
0001
0000
0100
0001
0000
0100
0000
0000
,
0001
0000
1000
0100
0000
1000
0100
0000
0010
0001
1000
0001
0100
0000
0010
1000
,
0001
1000
0100
0000
0010
0001
0000
1000
0010
0001
0010
0100
0001
0000
0101
0000
,
0000
1100
0000
1010
0000
0011
0001
0000
,
0102
0000
0000
0000
1000
0000
0000
0000
0023
0000
0100
0000
0000
0000
0031
1000
,
0100
0000
0010
0000
0001
0000
1000
0010
0100
0000
0001
0000
1000
0000
0200
0000
,
0010
0000
0000
0000
1000
0000
0000
0000
0320
0000
0001
0000
0000
0000
0130
1000
,
0001
0000
0010
0000
0001
0000
0100
0010
1000
0000
0001
0000
1000
0000
0020
0000
,
0100
0000
0000
0000
1000
0000
0000
0000
0230
0000
0001
0000
0000
0000
0310
1000
,
0001
0000
0010
0000
0100
0000
1000
0001
0100
0000
0001
0000
0010
0000
0200
0000
,
1000
0000
0001
0000
1300
0010
0100
0002
,
0000
1000
0000
0100
0000
0013
0100
1000
,
0020
0000
0000
0000
0100
0000
0000
0000
2030
0000
0001
0000
0000
0000
3100
0010
,
0001
0000
1000
0000
0001
0000
0100
0010
1000
0000
0001
0000
0100
0000
0020
0000
,
1000
0000
0000
0000
0100
0000
0000
0000
2030
0000
0001
0000
0000
0000
3100
0010
,
0001
0000
1000
0000
0010
0000
0100
0001
0010
0000
0100
0000
1000
0000
0100
0000
,
0002
0000
0103
2000
0000
3001
0010
2000
,
0000
3020
0000
0032
0000
0203
0000
2300
,
0000
0000
3100
0010
1000
0100
0010
0011
,
0000
0101
0000
1010
0000
1100
0000
1001
,
0000
1000
1000
1000
1000
1000
1000
1000
,
0100
0010
0010
0010
1000
0010
0010
0010
,
0000
0001
0001
0001
0001
0001
0001
0001
,
0100
0010
0010
0010
0001
0010
0010
0010
,
0000
1000
1000
1000
1000
1000
1000
1000
,
0010
0100
0100
0100
1000
0100
0100
0100
,
0000
0001
0001
0001
0001
0001
0001
0001
,
0010
0100
0100
0100
1000
0010
0002
0000
,
0013
1000
1000
1000
0200
0000
0302
0000
,
0103
0010
0001
1000
0010
0100
0001
0010
0200
0000
2300
0000
3002
0000
0000
0000
,
0003
0000
0100
0100
1000
0000
0020
0000
0130
0100
1000
0001
2000
0000
0000
0000
,
3100
0100
0002
0000
0103
0100
2000
0000
3001
0100
0001
0010
0100
1000
0020
0000
,
0030
0100
0100
0100
0002
0000
0023
0000
,
0031
0000
0100
0100
1000
0000
0010
0010
0001
1000
0001
0010
0100
0001
0000
0001
,
0000
0100
0010
0001
1000
0000
0001
0010
0100
0000
0100
0000
0010
0010
1000
0000
,
0001
0010
0100
1000
0010
0100
0001
1000
0100
0010
1000
0010
0100
1000
0001
0100
,
0020
0000
0000
0000
2030
0000
0000
3200
0000
0000
0000
0000
0302
0000
0203
0000
,
0320
0000
0031
0100
0010
1000
0100
0020
0000
0031
1000
0020
0000
0031
0010
1000
,
0200
0000
0010
0000
0000
0001
0000
0010
0000
1000
0000
0010
0000
0001
0000
0310
,
0001
0100
0010
1000
0100
0010
0001
0020
0000
1000
0000
0100
0000
0001
0000
0130
,
2000
0000
0000
0000
0100
0000
0000
0000
3002
0000
0000
0000
0103
0000
0010
1000
,
0001
0000
0010
0000
0100
0000
1000
0010
0100
0000
0001
0000
1000
0000
0200
0000
,
1000
0000
0000
0000
0001
0000
0000
0000
0320
0000
0000
0000
0031
0000
1000
0010
,
0100
0000
0001
0000
0010
0000
0100
1000
0001
0000
0100
0000
0010
0000
2000
0000
,
0100
0000
0000
0000
0010
0000
0000
0000
3002
0000
0000
0000
0013
0000
0100
1000
,
0001
0000
0100
0000
0010
0000
1000
0001
0010
0000
0100
0000
1000
0000
0020
0000
,
0100
0000
0001
0000
1030
0001
0010
0200
,
0001
0000
0010
0000
1300
0001
0100
0010
,
1000
0000
0100
0000
0010
0000
0100
0000
1000
0000
0010
0000
0100
0000
0001
1000
,
0100
0000
1000
0001
0100
0000
0010
1000
0001
0000
0010
0100
1000
0000
0010
0100
,
0001
0000
1000
0000
0100
0000
0010
0000
0001
0000
0100
0000
0010
0000
1000
0001
,
0010
0000
0100
1000
0010
0000
0100
0001
1000
0000
0100
1000
0010
0000
0100
0001
,
1000
0000
0100
0000
0010
0000
0001
0000
0100
0000
0010
0000
0100
0000
1000
0100
,
0010
0000
1000
0001
0010
0000
0100
1000
0001
0000
0100
0001
0010
0000
1000
0010
,
0100
0000
1000
0000
0010
0000
0100
0000
0001
0010
0100
1000
0010
0100
0001
0000
,
0000
0000
0101
0000
0000
0000
0110
0000
0010
0000
1010
0000
1000
0001
0010
0001
,
1000
0000
0001
0000
0100
0000
0001
0000
1000
0200
0000
0320
0000
0000
0032
0000
,
0103
0000
0010
0000
0100
0000
0001
0000
1000
0200
0000
0320
0000
0130
1000
0001
,
0100
0000
0010
0000
1000
0000
0010
0000
0100
0002
0000
2003
0000
0000
3200
0000
,
0310
1000
0010
0000
0100
1000
0001
0100
0010
2000
0000
3200
0000
0000
0320
0000
,
0031
0000
0100
0000
0010
0000
0100
0000
0001
2000
0000
3200
0000
0000
0320
0000
,
0130
0000
1000
0000
0001
0000
1000
0010
0100
0001
1000
0100
0010
0001
1000
0001
,
0100
0001
1000
0100
0010
0100
1000
0010
0100
0001
1000
0001
0010
0100
0002
0000
,
0000
0000
0103
0000
0010
0001
1000
0100
0010
0001
0100
0001
1000
0100
1000
0010
,
0002
0000
0000
0000
0023
0030
0000
0000
1000
0000
0100
0000
0001
0000
0200
0000
,
1300
0000
0020
0000
0130
0000
0002
0000
0013
0000
2000
0000
3010
0000
0100
1000
,
0002
0000
0013
0100
1000
0010
0100
0001
,
1000
0100
0010
0001
0100
0001
1000
0100
0010
0100
1000
0001
0100
0001
0010
0100
,
2000
0000
0000
0000
3010
0000
0001
0000
0000
0000
0010
0000
0000
0000
1000
0100
,
0001
0100
0010
0001
1000
0010
0001
0010
0100
0001
0010
0100
1000
0010
0002
0000
,
0000
0013
1000
0001
0000
0011
0000
1010
,
0000
1001
0000
0011
0010
0110
0000
1100
,
1001
0000
0000
0000
;
