#TITLE:resoLve;
#SUBTITLE:;
#ARTIST:Halv;
#TITLETRANSLIT:;
#SUBTITLETRANSLIT:;
#ARTISTTRANSLIT:;
#GENRE:Renaissance Hardcore;
#CREDIT:;
#BANNER:resoLve.png;
#BACKGROUND:resoLve-bg.png;
#LYRICSPATH:;
#CDTITLE:../_YSD cdtitles/ysd sum mem cdtitle.png;
#MUSIC:resoLve.ogg;
#OFFSET:-0.060000;
#SAMPLESTART:62.013000;
#SAMPLELENGTH:20.230000;
#SELECTABLE:YES;
#DISPLAYBPM:94.910004:189.820007;
#BPMS:0.000000=189.820007
,66.000000=94.910004
,67.000000=189.820007
,97.000000=94.910004
,98.000000=379.640015
,99.000000=189.820007
,128.000000=94.910004
,159.000000=47.455002
,159.750000=94.910004
,159.875000=47.455002
,159.937500=23.726999
,160.000000=189.820007
,224.000000=94.910004
,239.500000=189.820007
,239.750000=94.910004
,239.875000=47.455002
,240.000000=189.820007
,334.000000=94.910004
;
#STOPS:98.000000=0.079021,
98.500000=0.079023
;
#BGCHANGES:;
#KEYSOUNDS:;
#ATTACKS:;

//---------------dance-single - ----------------
#NOTES:
     dance-single:
     :
     Beginner:
     5:
     0.181521,0.324441,0.178201,0.000000,0.000000,164.000000,141.000000,23.000000,0.000000,0.000000,0.000000,0.181521,0.324441,0.178201,0.000000,0.000000,164.000000,141.000000,23.000000,0.000000,0.000000,0.000000:
// measure 0
0000
0000
0000
0000
,  // measure 1
0000
0000
0000
0000
,  // measure 2
0000
0000
0000
0000
,  // measure 3
0000
0000
0000
0000
,  // measure 4
0000
0000
0000
0000
,  // measure 5
1000
0000
0000
0000
,  // measure 6
0001
0000
0000
0000
,  // measure 7
0100
0000
0000
0000
,  // measure 8
0001
0000
0000
0000
,  // measure 9
1001
0000
0001
0000
,  // measure 10
0110
0000
0100
0000
,  // measure 11
1001
0000
1000
0000
,  // measure 12
0110
0000
0010
0000
,  // measure 13
1001
0000
0000
0000
,  // measure 14
0110
0000
0000
0000
,  // measure 15
1001
0000
0000
0000
,  // measure 16
0000
0000
0000
1001
,  // measure 17
0000
0000
0000
0001
,  // measure 18
0000
0000
0000
0100
,  // measure 19
0000
0000
0000
0001
,  // measure 20
0000
0000
0000
1000
,  // measure 21
0000
0000
0000
0100
,  // measure 22
0000
0000
0000
0010
,  // measure 23
0000
0000
0000
0001
,  // measure 24
0000
0000
1000
0000
,  // measure 25
0000
0000
0001
0000
,  // measure 26
0000
0000
0100
0000
,  // measure 27
0100
0000
0010
0000
,  // measure 28
0010
0000
1000
0000
,  // measure 29
0000
0000
0100
0000
,  // measure 30
0000
0000
0010
0000
,  // measure 31
0010
0000
0001
0000
,  // measure 32
0000
1001
0000
0001
,  // measure 33
0000
0100
0000
0010
,  // measure 34
0000
1000
0000
0100
,  // measure 35
0000
0010
0000
0001
,  // measure 36
0000
1001
0000
1000
,  // measure 37
0000
0010
0000
0100
,  // measure 38
0000
0001
0000
0010
,  // measure 39
0000
0100
0000
1000
,  // measure 40
0001
0000
0001
0000
,  // measure 41
0010
0000
0010
0000
,  // measure 42
0001
0000
0001
0000
,  // measure 43
1000
0000
0010
0010
,  // measure 44
0010
0000
0010
0000
,  // measure 45
0100
0000
0100
0000
,  // measure 46
0001
0000
0001
0000
,  // measure 47
0010
0000
0100
0100
,  // measure 48
0100
0000
0000
0000
,  // measure 49
1000
0000
0000
0000
,  // measure 50
0001
0000
0001
0000
,  // measure 51
0100
0000
0010
0010
,  // measure 52
0010
0000
0010
0000
,  // measure 53
1000
0000
1000
0000
,  // measure 54
0100
0000
0100
0000
,  // measure 55
0010
0000
0000
0000
,  // measure 56
1001
0000
0001
0000
,  // measure 57
0010
0000
0100
0000
,  // measure 58
1000
0000
0010
0000
,  // measure 59
0100
0000
0001
0000
,  // measure 60
1000
0000
1000
0000
,  // measure 61
0001
0000
0001
0000
,  // measure 62
0100
0100
0100
0000
,  // measure 63
0001
0001
0001
0000
,  // measure 64
1000
0000
1000
0000
,  // measure 65
0100
0100
0100
0000
,  // measure 66
0010
0010
0010
0000
,  // measure 67
0100
0000
0000
0000
,  // measure 68
0010
0000
0010
0000
,  // measure 69
0001
0000
0001
0000
,  // measure 70
1000
0000
1000
0000
,  // measure 71
0010
0000
0010
0000
,  // measure 72
0100
0000
0100
0000
,  // measure 73
0001
0000
0001
0000
,  // measure 74
1000
0000
1000
0000
,  // measure 75
0100
0000
0100
0000
,  // measure 76
0110
0000
0110
0000
,  // measure 77
1001
0000
1001
0000
,  // measure 78
0110
0000
1001
0000
,  // measure 79
0110
0000
1001
0000
,  // measure 80
1001
0000
0010
0000
,  // measure 81
1001
0000
0110
0000
,  // measure 82
1001
0000
0010
0000
,  // measure 83
0100
0000
0000
0010
;

//---------------dance-single - ----------------
#NOTES:
     dance-single:
     :
     Easy:
     10:
     0.421705,0.519106,0.286671,0.178201,0.000000,381.000000,344.000000,37.000000,23.000000,0.000000,0.000000,0.421705,0.519106,0.286671,0.178201,0.000000,381.000000,344.000000,37.000000,23.000000,0.000000,0.000000:
0000
0000
0000
0000
,
0000
0000
0000
0000
,
0000
0000
0000
0000
,
0000
0000
0000
0000
,
0000
0000
0000
0000
,
1000
0001
0010
0000
,
0100
1000
0001
0100
,
0001
1000
0100
0000
,
0010
0100
1000
0001
,
0101
0100
0101
0001
,
1001
1000
1100
0100
,
0110
0010
0011
0001
,
1001
1000
1010
0010
,
0110
0100
0001
1000
,
1100
0100
0010
0001
,
1001
1000
0010
0100
,
0002
0000
0003
1000
,
0100
0010
0001
0100
,
0001
1000
0100
0010
,
0100
1000
0001
0100
,
0001
0010
0100
1000
,
0001
0100
0001
1000
,
0100
1000
0001
0010
,
0100
1000
0020
0000
,
0000
0030
0200
0301
,
1000
0100
1000
0001
,
0100
1000
0100
0001
,
1000
0001
1000
0000
0100
0000
0010
0000
,
0001
1000
0001
0000
1000
0000
0010
0000
,
0100
0010
1000
0001
,
0100
0000
1000
0000
0100
0010
0100
0000
,
0001
1000
0002
0000
0000
0000
0000
0000
,
0003
2000
3020
0230
,
0301
1000
0100
0010
0002
0000
0000
0000
,
0103
0010
1000
0001
0020
0000
0130
1000
,
0001
0100
1000
0100
0002
0000
0000
0000
,
0000
0023
0230
2300
,
3001
0100
0010
1000
0200
0000
0000
0000
,
0310
0001
1000
0010
0200
0000
0301
1000
,
0100
0001
0100
1000
0002
0000
0003
0000
,
1000
0000
0001
0000
0010
0000
0100
1000
,
0100
0000
0010
0000
0001
0000
1000
0010
,
1000
0000
0010
0000
0100
0000
0001
1000
,
0001
0000
1000
0000
0100
0010
0100
0010
,
0100
0000
1000
0000
0001
0000
0100
0010
,
0100
0000
0010
0000
1000
0000
0001
0010
,
0001
0000
0010
0000
0100
0000
1000
0001
,
1000
0000
0001
0000
0100
0001
0100
0001
,
0100
0000
0010
0000
1000
0000
0001
0010
,
0001
0000
1000
0000
0010
0000
0100
0001
,
0100
0000
0001
0000
1000
0000
0001
0010
,
0001
0000
0010
0000
0100
1000
0100
1000
,
0100
0000
0010
0000
0001
0000
1000
0010
,
1000
0010
0100
0001
,
1000
0001
1000
0000
0100
0010
0100
0000
,
2000
0000
0000
0000
,
3002
0000
0203
0000
0310
1000
0001
0010
,
0100
1000
0002
0000
0000
0000
0013
0100
,
1000
0001
0200
0000
0310
1000
0001
0010
,
1000
0010
0200
0000
0000
0000
0300
0000
,
1000
0001
1000
0001
1000
0000
1001
0000
,
0001
0010
0100
0000
1000
0000
1001
0000
,
0001
0100
0010
0100
0001
0000
1001
0000
,
1000
0100
0010
1000
0010
0000
0011
0000
,
0001
1000
0010
0000
0100
0010
0001
0010
,
1000
0010
0100
0000
1000
0100
0001
1000
,
0100
0010
0001
0000
1000
0000
1010
0000
,
0010
0000
0000
0100
0000
0000
1001
0000
,
0001
1000
1100
0000
,
0001
0100
0101
0000
,
1000
0010
0110
0000
,
0001
0010
0110
0000
,
1000
0001
0110
0000
,
0001
1000
0110
0000
,
1000
0100
0011
0000
,
0001
0100
1010
0000
,
1001
0001
1010
0001
,
0101
1000
1100
0010
,
0101
1000
0110
1000
,
0101
1000
0110
1000
,
1001
0001
0010
0100
,
1001
0001
0110
1000
,
0011
0001
1000
0001
,
0200
0000
0000
0000
0301
1000
0100
0000
;

//---------------dance-single - ----------------
#NOTES:
     dance-single:
     :
     Medium:
     14:
     0.586623,0.681327,0.147209,0.371897,0.340906,530.000000,511.000000,19.000000,48.000000,0.000000,0.000000,0.586623,0.681327,0.147209,0.371897,0.340906,530.000000,511.000000,19.000000,48.000000,0.000000,0.000000:
0000
0000
0000
0000
,
0000
0000
0000
0000
,
0000
0000
0000
0000
,
0000
0000
0000
0000
,
0000
0000
0000
0000
,
1000
0010
1000
0001
0000
0100
0001
0100
,
0000
0001
1000
0000
0100
0000
0010
0000
,
0001
1000
0001
0100
0000
0010
1000
0010
,
0000
1000
0100
0000
0001
0100
1000
0000
,
1010
0000
0000
0000
0010
0000
0100
0000
0101
0000
0000
0001
0000
0000
1000
0000
,
1100
0000
0000
0100
0000
0000
0010
0000
0000
0011
0000
0000
0001
0000
1000
0000
,
1010
0000
0000
0000
0010
0000
1000
0000
1100
0000
0000
0100
0000
0000
0010
0000
,
0011
0000
0000
0001
0000
0000
1000
0000
0000
0010
0000
0000
0001
0000
0010
0000
,
1000
0001
0100
0001
0000
1000
0100
0001
,
0100
0010
0001
0000
1000
0010
0100
0000
,
0001
0010
0100
0001
0100
1000
0001
0100
,
0020
0000
0000
0000
0000
0000
0000
0000
1030
0001
1000
0001
0100
0000
0010
0000
,
1000
0000
0001
0010
0100
0000
0010
0001
,
1000
0000
0010
0100
0001
0000
1000
0100
,
0010
0000
0100
1000
0010
0000
0100
0001
,
1000
0000
0100
0010
0001
0000
1000
0010
,
0100
0000
0001
1000
0100
0000
0010
0100
,
1000
0000
0001
0100
0010
0000
1000
0100
,
0010
0000
0001
0100
0010
2000
0000
0000
,
0000
0000
0000
0000
3001
0100
0001
0200
0000
0000
0000
0000
0310
0000
1000
0000
,
0001
0010
0100
0000
0010
0001
1000
0010
,
0100
0010
1000
0000
0001
0010
0100
1000
,
0010
1000
0001
0000
1000
0100
0010
0001
,
0100
0001
1000
0000
0001
0100
0001
1000
,
0100
1000
0010
0000
1000
0001
0010
0001
,
0100
0010
1000
0000
0001
0010
1000
0010
,
0100
1000
0001
0200
0000
0000
0000
0000
,
0301
1000
0001
1000
0002
0000
0000
0000
0203
0000
0000
0000
0320
0000
0000
2030
,
0000
0000
3020
0000
0130
0001
1000
0002
0000
0000
0000
0000
0000
0000
0000
0000
,
0023
0000
0230
0000
2300
0000
3001
0200
0000
0000
0000
0000
0302
0000
0000
2003
,
0000
0000
3200
0000
0301
0100
1000
0002
0000
0000
0000
0000
0000
0000
0000
0000
,
0000
0000
0000
0000
0203
0000
0000
0320
0000
0000
2030
0000
0000
3200
0000
0000
,
1300
0000
0200
0000
0310
0100
1000
0002
0000
0000
0000
0000
0000
0000
0000
0000
,
0203
0000
0320
0000
2030
0000
3100
2000
0000
3020
0000
0000
0230
0000
0000
0302
,
0000
0000
0013
0000
0010
0001
0100
0002
0000
0000
0000
0000
0003
0000
0000
1001
,
1000
0000
0000
0010
0000
0000
0100
0000
0000
0001
0000
0000
1000
0000
0100
0000
,
0010
0000
0000
0100
0000
0000
1000
0000
0000
0001
0000
0000
0100
0000
0010
0000
,
0010
0000
0000
0010
0000
0000
1000
0000
0000
0010
0000
0000
1000
0000
0100
0000
,
0010
0000
0000
0100
0000
0000
0010
0000
1000
0000
0010
0000
0001
0000
1000
0000
,
0001
0000
0000
0010
0000
0000
0001
0000
0000
0100
0000
0000
0010
0000
1000
0000
,
0001
0000
0000
0010
0000
0000
0001
0000
0000
1000
0000
0000
0010
0000
0100
0000
,
0100
0000
0000
0100
0000
0000
0001
0000
0000
0100
0000
0000
0010
0000
1000
0000
,
0100
0000
0000
0010
0000
0000
0100
0000
0001
0000
0100
0000
1000
0000
0010
0000
,
0100
0000
0000
0001
1000
0000
0100
0000
0000
0010
0000
0000
0001
0000
1000
0000
,
0010
0000
0000
0100
0001
0000
0000
1000
0000
0000
0100
0000
0010
0000
0001
0000
,
0001
0000
0000
0001
1000
0000
0010
0000
0000
0100
0000
0000
1000
0000
0100
0000
,
0001
0000
0000
1000
0001
0000
0010
0000
0100
0000
0010
0000
0001
0000
1000
0000
,
0010
0000
0000
0100
0001
0000
1000
0000
0000
0100
0000
0000
0010
0000
0001
0000
,
0100
0000
0000
0010
1000
0000
0001
0000
0000
0010
0000
0000
0001
0000
0100
0000
,
0010
0001
0010
1000
0000
0100
0010
0002
,
0000
0000
0000
0000
1003
0010
0100
0001
,
2000
0000
0000
0000
3200
0000
0000
0000
0320
0000
0000
0230
0000
0000
2300
0000
,
3001
0100
0001
2000
0000
0000
0000
0000
0000
0000
0000
0000
3200
0000
0320
0000
,
0032
0000
0103
0020
0000
0000
0000
0000
2030
0000
0000
3020
0000
0000
0230
0000
,
1300
0100
0001
2000
0000
0000
0000
0000
0000
0000
0000
0000
3000
0000
1001
0000
,
1000
0000
0010
0000
0001
0000
0010
0100
0001
0000
0000
0010
0100
0000
1000
0000
,
0001
0000
0100
0000
0010
0000
1000
0100
0000
0001
0000
0000
0100
0000
0010
0000
,
0001
0000
0000
0001
1000
0000
0001
0000
0000
0000
0100
0000
0010
1000
0001
0000
,
0010
0000
0000
0100
1000
0000
0001
0000
0000
0100
0000
0000
0010
1000
0001
0000
,
0010
0000
0000
0010
0100
0000
0001
0000
0010
0000
0001
0000
1000
0000
0010
0000
,
0100
0001
1000
0000
0100
0000
0010
0000
0001
1000
0001
1000
0001
0000
1000
0000
,
0001
0000
0000
0100
0010
0000
0001
0000
0000
0010
0000
0000
1000
0000
0100
0000
,
0010
0000
0000
0001
0000
0000
0010
0000
0000
0100
0000
0000
1100
0000
0000
0000
,
1000
0001
0100
0001
0000
1000
0100
1000
,
0000
0001
0100
0000
0010
1000
0001
0000
,
0010
0100
0010
0001
0000
1000
0010
1000
,
0000
0001
0010
0000
1000
0010
0001
0000
,
1000
0010
0100
0010
0000
1000
0001
1000
,
0000
0100
0010
0000
0001
0010
0001
1000
,
0010
0100
0010
1000
0000
0001
0010
0001
,
0000
1000
0001
0100
1000
0100
0001
1000
,
1001
0000
0000
0000
0001
0000
0010
0000
0110
0000
0000
0100
0000
0000
1000
0000
,
1001
0000
0000
0001
0000
0000
0101
0000
0000
0100
0000
0000
0010
0000
1000
0000
,
1100
0000
0000
0000
0100
0000
0010
0000
1001
0000
0000
0001
0000
0000
0100
0000
,
0110
0000
0000
0010
0000
0000
1010
0000
0000
1000
0000
0000
0100
0000
0010
0000
,
1001
0000
0001
0100
0010
0000
1000
0100
,
0001
0000
0100
1000
0010
0100
0001
1000
,
0100
0000
0001
0000
1000
0000
0010
0000
0001
0000
1000
0000
0001
0100
0001
0100
,
0002
0000
0000
0000
0000
0000
0000
0000
1003
0100
0010
0001
0100
0000
0000
0000
;

//---------------dance-single - ----------------
#NOTES:
     dance-single:
     Course of Action:
     Hard:
     16:
     0.774785,0.940880,0.309914,0.418384,0.670189,700.000000,660.000000,40.000000,54.000000,0.000000,0.000000,0.774785,0.940880,0.309914,0.418384,0.670189,700.000000,660.000000,40.000000,54.000000,0.000000,0.000000:
0000
0000
0000
0000
,
0000
0000
0000
0000
,
0000
0000
0000
0000
,
0000
0000
0000
0000
,
0000
0000
0000
0000
,
1000
0001
0010
0001
0000
1000
0010
1000
,
0000
0001
0010
0100
0010
1000
0010
0001
,
1000
0001
0100
0001
0000
1000
0100
1000
,
0000
0001
0100
0010
0001
0010
1000
0001
,
1001
0000
0000
0000
1000
0001
1000
0001
1000
0000
0000
1100
0000
0000
0100
0000
,
0110
0000
0000
0011
0000
0000
1001
0000
0000
1010
0000
0000
1000
0000
0100
0000
,
1100
0000
0000
0000
1000
0001
1000
0001
1000
0000
0000
1010
0000
0000
0010
0000
,
0110
0000
0000
0101
0000
0000
0011
0000
0000
0010
0000
0000
0100
0000
1000
0000
,
1001
0001
0100
0010
0001
0010
1000
0100
,
0110
0010
0001
0010
0011
0001
0100
0010
,
1000
0010
0100
0001
1000
0100
0010
0001
2000
0000
0000
0000
3020
0000
0000
0000
,
0230
0000
0000
0000
0000
0000
0000
0000
0301
0010
0100
1000
0001
0000
0100
0000
,
0010
0100
0001
1000
0100
1000
0001
0010
,
0100
0010
0001
1000
0010
0100
0001
1000
,
0100
0010
0001
1000
0010
0100
0001
1000
,
0100
0010
0100
1000
0010
1000
0001
0010
,
0100
1000
0001
0100
0001
1000
0100
1000
,
0001
0100
0001
0010
0100
1000
0001
0100
,
0010
1000
0100
0010
0001
2000
0000
0000
,
0000
0000
0000
0000
3100
0010
0001
1000
0010
0000
0010
0000
1010
0000
0000
0000
,
1000
0001
0100
0010
0100
0001
0010
0001
,
1000
0000
0010
0000
0100
0000
0001
0000
1000
0100
0010
0100
1000
0000
0001
0000
,
0100
0010
1000
0010
0100
0000
0001
1000
0100
1000
0001
1000
0100
0000
1000
0010
,
0100
0001
0100
0001
1000
0100
1000
0100
0010
0000
0001
0000
0100
0000
0010
0000
,
1000
0000
0010
0000
0001
0000
0010
0000
1000
0001
0010
0000
0100
0000
0001
0000
,
0100
0010
0001
0000
1000
0000
0010
0000
0100
0001
0010
0001
1000
0000
0010
0100
,
0001
1000
0100
0010
0001
0000
1000
0020
0000
0000
0000
0000
0000
0000
0000
0000
,
1030
0100
0010
0001
0200
0000
0000
0000
0320
0000
0000
0000
0230
0000
0000
2300
,
0000
0000
3200
0000
0301
0100
0001
2000
0000
0000
0000
0000
0000
0000
0000
0000
,
3002
0000
0023
0000
0230
0000
1300
0020
0000
0000
0000
0000
0230
0000
0000
0320
,
0000
0000
0032
0000
0013
1000
0001
0020
0000
0000
0000
0000
0000
0000
0000
0000
,
0000
0000
0000
0000
0032
0000
0000
2003
0000
0000
3020
0000
0000
0230
0000
0000
,
0302
0000
0023
0000
0130
1000
0100
0020
0000
0000
0000
0000
0000
0000
0000
0000
,
0032
0000
2003
0000
3020
0000
1030
0002
0000
0023
0000
0000
0230
0000
0000
2300
,
0000
0000
3010
0000
0010
0100
0001
0200
0000
0000
0000
0000
0300
0000
0000
1001
,
1000
0000
0001
0100
0000
0001
1000
0000
0001
0010
0000
0001
0100
0000
0001
0000
,
1000
0000
0100
0010
0000
0100
1000
0000
0001
0100
0000
0001
0010
0000
0100
0000
,
0100
0000
1000
0001
0000
1000
0010
0000
0100
0001
0000
1000
0001
0010
0100
1000
,
0010
0000
1000
0001
0000
1000
0100
0000
0001
0000
0100
0000
1000
0000
0001
0000
,
0100
0000
0001
0010
0000
0001
1000
0000
0010
1000
0000
0001
1000
0000
0100
0000
,
0010
0000
0001
0100
0000
0001
1000
0000
0001
0010
0000
0001
0100
0000
0010
0000
,
0010
0000
1000
0001
0000
1000
0100
0000
0010
0001
0000
1000
0001
0010
0100
1000
,
0010
0000
0100
0001
0000
0010
0001
0000
2000
0000
3020
0000
0230
0000
0302
0000
,
1003
0000
0001
0100
0000
0001
0010
0000
0100
1000
0000
0001
0100
0000
0010
0000
,
1000
0000
0001
0100
0000
0001
0010
0000
0001
1000
0000
0100
0010
0000
0001
0000
,
0001
0000
1000
0100
0000
0010
1000
0000
0010
0100
0000
1000
0001
0100
0010
1000
,
0100
0000
1000
0100
0000
1000
0001
0000
0010
0000
0100
0000
1000
0000
0001
0000
,
0100
0000
0001
0010
0000
0001
0100
0000
0001
1000
0000
0100
0010
0000
0001
0000
,
1000
0000
0010
1000
0000
0100
1000
0000
0001
0010
0000
0100
1000
0000
0001
0000
,
0100
0010
0001
0010
1000
0001
0010
0100
,
2000
0000
0000
0000
3001
0100
0010
0001
,
0020
0000
0000
0000
2030
0000
0000
0000
3200
0000
0000
0320
0000
0000
0230
0000
,
1300
0100
0010
0200
0000
0000
0000
0000
0000
0000
0000
0000
2300
0000
3002
0000
,
0023
0000
0031
0200
0000
0000
0000
0000
0302
0000
0000
0023
0000
0000
2030
0000
,
3010
0001
1000
0020
0000
0000
0000
0000
0000
0000
0000
0000
0030
0000
1001
0000
,
1000
0100
0010
0001
0100
0001
1000
0100
0010
0000
0001
0100
0000
0001
1000
0000
,
0100
0000
1000
0000
0001
0000
1000
0010
0000
0001
0000
0000
0010
0000
1000
0000
,
0100
0000
1000
0001
0000
1000
0001
0000
1000
0100
0000
1000
0001
0000
0010
0000
,
0100
0000
0010
0001
0000
1000
0010
0000
0100
0001
0000
1000
0100
0010
0100
1000
,
0010
0000
1000
0010
0000
1000
0001
0000
0010
0000
1000
0000
0010
0000
0001
0000
,
0100
0001
0010
0100
1000
0000
0010
0000
0100
1000
0100
0001
1000
0100
0010
0001
,
0100
0000
0001
1000
0000
0001
0010
0000
0100
1000
0000
0001
1000
0000
0010
0000
,
0100
0000
0001
1000
0000
0001
0010
0000
0100
1000
0000
0000
1010
0000
0010
0000
,
1000
0100
1000
0010
0110
0100
0001
0100
,
0000
0001
0010
0100
1100
1000
0100
0001
,
0100
1000
0100
0010
0011
0001
0100
0001
,
0000
1000
0010
0001
0011
0010
0100
0001
,
1000
0001
0100
0001
1001
1000
0100
1000
,
0000
0001
0100
0010
0110
0100
1000
0100
,
0001
1000
0010
1000
1100
0100
1000
0100
,
0000
1000
0010
0001
0011
0010
1000
0010
,
1010
0000
0000
0000
1000
0001
1000
0001
1000
0000
0000
1010
0000
0000
0001
0000
,
0011
0000
0000
1100
0000
0000
1001
0000
0000
0101
0000
0000
1000
0000
0100
0000
,
0110
0000
0000
0000
0010
0001
0010
0001
0010
0000
0000
0110
0000
0000
0100
0000
,
1001
0000
0000
0011
0000
0000
0101
0000
0000
0100
0000
0000
0010
0000
1000
0000
,
1001
0001
0010
0100
0001
0100
1000
0010
,
0110
0100
1000
0100
0110
0010
1000
0100
,
0010
0001
0100
0001
1000
0010
0100
0001
1000
0100
1000
0001
0100
0001
0010
0100
,
2000
0000
0000
0000
0000
0000
0000
0000
3001
1000
0100
0001
0100
0000
0000
0000
;
