#VERSION:0.83;
#TITLE:o i i a i o o o o o i a i;
#SUBTITLE:[MODS];
#ARTIST:黑瘦的鱼头;
#TITLETRANSLIT:;
#SUBTITLETRANSLIT:;
#ARTISTTRANSLIT:Hei shou de yu tou;
#GENRE:Memetrance;
#ORIGIN:Shitpost Release (2023);
#TAGS:;
#CREDIT:;
#BANNER:o i i a i o o o o o i a i.png;
#BACKGROUND:o i i a i o o o o o i a i-bg.png;
#PREVIEWVID:;
#JACKET:o i i a i o o o o o i a i-jacket.png;
#CDIMAGE:;
#DISCIMAGE:;
#LYRICSPATH:;
#CDTITLE:../_YSD cdtitles/ysd cc3 cdtitle.png;
#MUSIC:o i i a i o o o o o i a i.ogg;
#OFFSET:-0.120000;
#SAMPLESTART:0.120000;
#SAMPLELENGTH:5.600000;
#SELECTABLE:YES;
#DISPLAYBPM:150.000000;
#BPMS:0.000000=150.000000
,148.062500=42069.000000
,739.000000=150.000000
;
#STOPS:;
#DELAYS:;
#WARPS:;
#TIMESIGNATURES:0.000000=3=4
,15.000000=4=4
;
#TICKCOUNTS:0.000000=4
;
#COMBOS:0.000000=1
;
#SPEEDS:0.000000=1.000000=0.000000=0
;
#SCROLLS:0.000000=0.250000
,4.000000=0.000000
,7.000000=0.250000
,12.500000=0.000000
,14.500000=1.000000
,107.000000=1000.000000
,107.250000=0.100000
,107.500000=0.200000
,107.750000=0.300000
,108.000000=0.400000
,108.250000=0.500000
,108.500000=0.600000
,108.750000=0.700000
,109.000000=0.800000
,109.250000=0.900000
,109.500000=1.000000
;
#XSCROLLS:0.000000=0.000000 ;
#FAKES:;
#LABELS:0.000000=Song Start
;
#BGCHANGES:;
#KEYSOUNDS:;
#ATTACKS: TIME=0.000000:LEN=5.920000:MODS=*100000 100% Stealth: TIME=0.120000:LEN=5.920000:MODS=*10000 -157.079633% ConfusionOffset, *100000 75% Flip, *100000 -125% Invert, *100000 100% Stealth: TIME=0.720000:LEN=5.920000:MODS=*12 No Stealth: TIME=1.720000:END=2.720000:MODS=*12 25% Flip, *12 -75% Invert: TIME=2.720000:END=2.920000:MODS=*12 75% Flip, *12 -125% Invert: TIME=5.120000:LEN=5.920000:MODS=*12 No Flip, *16 No Invert: TIME=5.720000:LEN=5.920000:MODS=*16 No ConfusionOffset:
;

//---------------dance-single - XO----------------
#NOTEDATA:;
#CHARTNAME:Chart Without Footswitches;
#CHARTHASH:1105392305;
#STEPSTYPE:dance-single;
#BANNER:;
#DESCRIPTION:XO;
#CHARTSTYLE:;
#DIFFICULTY:Hard;
#METER:17;
#METERF:0.000000;
#LASTSECONDHINT:60.187809;
#RADARVALUES:1.071049,4.903132,0.016587,0.431263,1.849456,452.000000,451.000000,1.000000,26.000000,0.000000,0.000000,0.000000,0.000000,0.000000,1.071049,4.903132,0.016587,0.431263,1.849456,452.000000,451.000000,1.000000,26.000000,0.000000,0.000000,0.000000,0.000000,0.000000;
#CREDIT:YOSEFU;
#DISPLAYBPM:150.000000;
#NOTES:
0000
0000
0000
0000
,
0000
0000
0000
0000
,
0000
0000
0000
0000
,
0000
0000
0000
0000
0000
0000
0000
0000
0000
0000
0000
0000
1000
0000
0001
0100
,
0020
0000
1030
0100
0010
0100
1000
0010
0100
0001
0100
0010
1000
0000
0001
0010
,
0200
0000
0000
0000
1300
0000
0001
0000
0010
0000
0100
0000
0010
0000
0001
0000
1000
0000
0010
0100
0010
0000
1000
0000
0001
0000
0000
0000
0010
0000
0100
0000
,
1000
0000
0100
0010
0001
0100
0010
0100
0001
0010
0100
1000
0010
0000
0100
0001
,
2000
0000
3001
0010
0100
0010
0001
0100
0001
0010
0100
1000
0002
0000
0013
0001
,
0200
0000
0310
1000
0001
0010
0001
0100
0010
1000
0001
0010
0002
0000
0103
0010
,
2000
0000
0000
0000
3100
0000
0010
0000
0001
0000
1000
0000
0010
0000
1000
0000
0001
0000
0100
0010
0100
0000
0001
0000
2000
0000
0000
0000
3100
0000
0010
0000
,
0002
0000
1003
0001
0100
0010
1000
0010
0100
0001
0010
0100
2000
0000
3010
1000
,
0200
0000
1300
0001
0100
0010
1000
0001
0010
0100
1000
0010
1000
0000
0010
0100
,
0001
0010
0100
1000
0001
0100
0010
0100
0002
0000
1003
0100
0002
0000
0103
0000
,
0010
0000
0001
0000
0100
0000
0001
0000
1000
0000
0000
0000
0100
0000
0001
0000
0100
0000
1000
0000
0001
1000
0001
0000
0100
0000
0000
0000
0010
0000
0100
0000
,
0001
0010
0100
1000
0001
1000
0001
0100
1000
0100
0010
1000
0200
0000
0301
0000
,
0100
1000
0001
0000
0100
0001
0010
0100
0001
0100
1000
0001
1000
0000
0100
0010
,
0001
0100
0010
1000
0001
1000
0010
0100
1000
0100
0001
0010
0200
0000
0301
0000
,
0100
0000
0010
0000
0001
0000
1000
0000
0001
0000
0000
0000
0010
0000
1000
0000
0010
0000
0001
0000
1000
0010
1000
0000
0100
0000
0000
0000
0010
0000
0001
0000
,
1000
0010
0100
0001
1000
0001
0100
0010
0001
0000
0010
0100
0001
1000
0100
0001
,
0100
1000
0001
0100
1000
0100
0010
1000
0001
0000
0000
0000
0100
0001
0010
0100
,
1000
0010
0100
0001
1000
0100
0010
0001
0100
0010
1000
0001
0100
0001
0010
0100
,
1000
0001
0100
0001
1000
0100
0010
0100
1000
0000
0000
0000
0100
0010
0001
0100
,
0010
1000
0001
0010
0100
1000
0010
0100
0001
0010
0100
1000
0001
0100
0001
0010
,
0100
1000
0001
0100
0001
1000
0100
1000
0010
0000
0000
0000
0100
0010
1000
0100
,
0010
0001
0100
0010
1000
0100
0010
0001
1000
0100
0001
0100
1000
0001
0100
0010
,
1000
0100
0001
0100
1000
0010
0100
0001
0010
0000
0000
0000
0100
0010
0001
1000
,
0100
0010
0001
0100
1000
0100
0010
1000
0100
0001
0100
0010
0002
0003
0000
0000
,
0000
0000
0000
0000
0000
0000
0000
0000
0000
0000
0000
0000
0000
0000
0000
0000
0000
0000
0100
0000
0000
0010
0000
0000
1000
0000
0000
0100
0000
0000
0010
0000
0000
0001
0000
0000
0100
0000
0000
0000
0001
0000
0000
0000
0010
0000
0000
0000
,
1000
0010
0100
1000
0001
0100
0010
1000
0100
0002
0103
1000
,
0010
0000
0100
0000
0001
0000
1000
0000
0100
0000
0010
0000
0100
0000
1000
0001
1000
0000
0001
0000
0100
0000
0010
0000
,
0002
0013
1000
0100
0010
0100
0002
0103
0010
0001
1000
0001
,
1000
0010
0002
0013
1000
0001
0200
0000
0000
0301
0100
0010
,
0002
0013
0100
0001
1000
0100
0010
0001
0100
2000
3100
0010
,
1000
0000
0100
0000
0010
0000
0001
0000
0100
0000
0010
0000
0100
0000
0001
1000
0001
0000
0010
0000
0100
0000
0010
0000
,
1000
0010
0100
1000
0001
0010
2000
3010
0100
1000
0001
0010
,
1000
0000
0000
0000
0001
0000
0000
0000
0100
0000
0000
0000
1000
0000
0000
0000
0001
0000
0000
0000
0010
0000
0000
0000
0100
0000
0000
0000
0000
0000
0000
0000
0000
0000
0000
0000
1000
0000
0000
0001
0000
0000
0100
0000
0000
0010
0000
0000
,
0001
0010
1000
0001
0010
0100
0001
0100
1000
0010
0001
0010
1000
0100
0010
0001
,
2002
0000
0000
0000
,
0000
0000
0000
0000
,
0000
0000
0000
0000
,
0000
0000
0000
0000
,
0000
0000
0000
0000
,
0000
0000
0000
0000
,
0000
0000
0000
0000
,
0000
0000
0000
0000
,
0000
0000
0000
0000
,
0000
0000
0000
0000
,
0000
0000
0000
0000
,
0000
0000
0000
0000
,
0000
0000
0000
0000
,
0000
0000
0000
0000
,
0000
0000
0000
0000
,
0000
0000
0000
0000
,
0000
0000
0000
0000
,
0000
0000
0000
0000
,
0000
0000
0000
0000
,
0000
0000
0000
0000
,
0000
0000
0000
0000
,
0000
0000
0000
0000
,
0000
0000
0000
0000
,
0000
0000
0000
0000
,
0000
0000
0000
0000
,
0000
0000
0000
0000
,
0000
0000
0000
0000
,
0000
0000
0000
0000
,
0000
0000
0000
0000
,
0000
0000
0000
0000
,
0000
0000
0000
0000
,
0000
0000
0000
0000
,
0000
0000
0000
0000
,
0000
0000
0000
0000
,
0000
0000
0000
0000
,
0000
0000
0000
0000
,
0000
0000
0000
0000
,
0000
0000
0000
0000
,
0000
0000
0000
0000
,
0000
0000
0000
0000
,
0000
0000
0000
0000
,
0000
0000
0000
0000
,
0000
0000
0000
0000
,
0000
0000
0000
0000
,
0000
0000
0000
0000
,
0000
0000
0000
0000
,
0000
0000
0000
0000
,
0000
0000
0000
0000
,
0000
0000
0000
0000
,
0000
0000
0000
0000
,
0000
0000
0000
0000
,
0000
0000
0000
0000
,
0000
0000
0000
0000
,
0000
0000
0000
0000
,
0000
0000
0000
0000
,
0000
0000
0000
0000
,
0000
0000
0000
0000
,
0000
0000
0000
0000
,
0000
0000
0000
0000
,
0000
0000
0000
0000
,
0000
0000
0000
0000
,
0000
0000
0000
0000
,
0000
0000
0000
0000
,
0000
0000
0000
0000
,
0000
0000
0000
0000
,
0000
0000
0000
0000
,
0000
0000
0000
0000
,
0000
0000
0000
0000
,
0000
0000
0000
0000
,
0000
0000
0000
0000
,
0000
0000
0000
0000
,
0000
0000
0000
0000
,
0000
0000
0000
0000
,
0000
0000
0000
0000
,
0000
0000
0000
0000
,
0000
0000
0000
0000
,
0000
0000
0000
0000
,
0000
0000
0000
0000
,
0000
0000
0000
0000
,
0000
0000
0000
0000
,
0000
0000
0000
0000
,
0000
0000
0000
0000
,
0000
0000
0000
0000
,
0000
0000
0000
0000
,
0000
0000
0000
0000
,
0000
0000
0000
0000
,
0000
0000
0000
0000
,
0000
0000
0000
0000
,
0000
0000
0000
0000
,
0000
0000
0000
0000
,
0000
0000
0000
0000
,
0000
0000
0000
0000
,
0000
0000
0000
0000
,
0000
0000
0000
0000
,
0000
0000
0000
0000
,
0000
0000
0000
0000
,
0000
0000
0000
0000
,
0000
0000
0000
0000
,
0000
0000
0000
0000
,
0000
0000
0000
0000
,
0000
0000
0000
0000
,
0000
0000
0000
0000
,
0000
0000
0000
0000
,
0000
0000
0000
0000
,
0000
0000
0000
0000
,
0000
0000
0000
0000
,
0000
0000
0000
0000
,
0000
0000
0000
0000
,
0000
0000
0000
0000
,
0000
0000
0000
0000
,
0000
0000
0000
0000
,
0000
0000
0000
0000
,
0000
0000
0000
0000
,
0000
0000
0000
0000
,
0000
0000
0000
0000
,
0000
0000
0000
0000
,
0000
0000
0000
0000
,
0000
0000
0000
0000
,
0000
0000
0000
0000
,
0000
0000
0000
0000
,
0000
0000
0000
0000
,
0000
0000
0000
0000
,
0000
0000
0000
0000
,
0000
0000
0000
0000
,
0000
0000
0000
0000
,
0000
0000
0000
0000
,
0000
0000
0000
0000
,
0000
0000
0000
0000
,
0000
0000
0000
0000
,
0000
0000
0000
0000
,
0000
0000
0000
0000
,
0000
0000
0000
0000
,
0000
0000
0000
0000
,
0000
0000
0000
0000
,
0000
0000
0000
0000
,
0000
0000
0000
0000
,
0000
0000
0000
0000
,
0000
0000
0000
0000
,
0000
0000
0000
0000
,
0000
0000
0000
0000
,
0000
0000
0000
0000
,
0000
0000
0000
0000
,
0000
0000
0000
0000
,
0000
0000
0000
0000
,
0000
0000
0000
0000
,
0000
0000
0000
0000
,
0000
0000
0000
0000
,
0000
0000
0000
3003
;

//---------------dance-single - FS+, XO----------------
#NOTEDATA:;
#CHARTNAME:This exists...;
#CHARTHASH:4050579598;
#STEPSTYPE:dance-single;
#BANNER:;
#DESCRIPTION:FS+, XO;
#CHARTSTYLE:;
#DIFFICULTY:Challenge;
#METER:18;
#METERF:0.000000;
#LASTSECONDHINT:60.187809;
#RADARVALUES:1.071049,4.903132,0.016587,0.431263,2.106555,452.000000,451.000000,1.000000,26.000000,112.000000,0.000000,0.000000,0.000000,0.000000,1.071049,4.903132,0.016587,0.431263,2.106555,452.000000,451.000000,1.000000,26.000000,112.000000,0.000000,0.000000,0.000000,0.000000;
#CREDIT:回転猫;
#DISPLAYBPM:150.000000;
#NOTES:
// measure 0
0000
0000
0000
0000
,  // measure 1
0000
0000
0000
0000
,  // measure 2
0000
0000
0000
0000
,  // measure 3
0000
0000
0000
0000
0000
0000
0000
0000
0000
0000
0000
0000
0000
0000
0000
0000
0000
0000
0000
0000
0000
0000
0000
0000
1000
0000
0000
0000
0100
M000
0100
0000
,  // measure 4
0020
0000
0000
0000
1030
0000
0100
0000
0010
0000
0100
0000
01M0
0000
0100
0000
0001
0000
0100
0000
010M
0000
0100
0000
1000
0000
0000
0000
0010
M000
0010
0000
,  // measure 5
0200
0000
0000
0000
1300
0000
0100
0000
0010
0000
0100
0000
01M0
0000
0100
0000
0001
0000
0100
0010
0100
0000
1000
0000
0001
0000
0000
0000
0010
000M
0010
0000
,  // measure 6
0100
0000
0000
0000
0010
0000
1000
0000
0001
0000
0010
0000
001M
0000
0010
0000
1000
0000
0010
0000
M010
0000
0010
0000
0100
0000
0000
0000
0010
0M00
0010
0000
,  // measure 7
2000
0000
3001
0100
0010
0100
01M0
0100
1000
0100
M100
0100
0002
0000
0013
001M
,  // measure 8
0200
0000
0310
1000
0001
0010
001M
0010
1000
0010
M010
0010
0002
0000
0103
010M
,  // measure 9
0020
0000
0000
0000
0031
0000
1000
0000
0010
0000
0100
0000
01M0
0000
0100
0000
1000
0000
0100
0010
0100
0000
0001
0000
2000
0000
0000
0000
3100
0000
M100
0000
,  // measure 10
0020
0000
1030
0001
0010
0100
01M0
0100
0001
0100
010M
0100
2000
0000
3010
M010
,  // measure 11
0200
0000
0000
0000
1300
0000
0001
0000
0100
0000
0010
0000
0M10
0000
0010
0000
1000
0000
0100
0000
M100
0000
0100
0000
1000
0000
0000
0000
0010
M000
0010
0000
,  // measure 12
0001
0000
0100
000M
0100
0000
1000
0000
0001
0000
0010
0000
001M
0000
0010
0000
0002
0000
0000
0000
1003
0000
0100
0000
0002
0000
0000
0000
0103
0000
0000
0000
,  // measure 13
0010
0000
0M10
0000
0010
0000
0010
0000
1000
0000
0000
0000
0100
0000
0001
0000
0100
0000
1000
0000
0001
1000
0001
0000
0100
0000
0000
0000
0010
0M00
0010
0000
,  // measure 14
0001
0000
0100
000M
0100
0000
1000
0000
0001
0000
1000
0000
0001
0000
0100
0000
1000
0000
0100
0000
0010
0000
1000
0000
0200
0000
0000
0000
0301
0000
0000
0000
,  // measure 15
0100
0000
1000
0000
0001
0000
0000
0000
0100
0000
010M
0000
0100
0000
0100
0000
0100
0000
0100
0000
0100
0000
0100
0000
1000
0000
0000
0000
0100
M000
0100
0000
,  // measure 16
0001
0000
0010
000M
0010
0000
1000
0000
0001
0000
1000
0000
0010
0000
0100
0000
1000
0000
0100
0000
0001
0000
0010
0000
0200
0000
0000
0000
0301
0000
0000
0000
,  // measure 17
0100
0000
010M
0000
0100
0000
0100
0000
0001
0000
0000
0000
0010
0000
1000
0000
0010
0000
0001
0000
1000
0010
1000
0000
0100
0000
0000
0000
0010
0M00
0010
0000
,  // measure 18
1000
0000
0100
M000
0100
0000
0001
0000
1000
0000
0001
0000
0100
0000
0010
0000
0001
0000
0000
0000
0010
0000
0100
0000
0001
0000
1000
0000
0100
0000
0001
0000
,  // measure 19
0100
1000
0001
0100
1000
0100
0010
1000
0001
0000
0000
0000
0100
010M
01M0
M100
,  // measure 20
01M0
010M
M100
01M0
010M
01M0
M100
010M
01M0
M100
01M0
010M
M100
01M0
010M
01M0
,  // measure 21
M100
010M
01M0
M100
01M0
010M
01M0
010M
1000
0000
0000
0000
0100
M100
01M0
010M
,  // measure 22
01M0
M100
010M
01M0
M100
01M0
010M
M100
01M0
010M
01M0
M100
010M
01M0
M100
01M0
,  // measure 23
010M
0000
M100
0000
01M0
0000
010M
0000
01M0
0000
M100
0000
01M0
0000
M100
0000
0001
0000
0000
0000
0000
0000
0000
0000
0100
000M
0100
0000
1000
0000
0010
M000
,  // measure 24
0010
0000
0001
0000
0100
000M
0100
0000
1000
0000
0010
M000
0010
0000
0001
0000
1000
0000
0100
0000
0001
0000
0100
0000
1000
0000
0001
0000
0010
000M
0010
0000
,  // measure 25
1000
0100
0001
0100
1000
0010
M010
0010
0100
0000
0000
0000
0010
0M10
0010
1000
,  // measure 26
0100
0010
0001
0100
1000
0100
0010
1000
0100
0001
0100
0010
0002
0003
0000
0000
,  // measure 27
0000
0000
0000
0000
0000
0000
0000
0000
0000
0000
0000
0000
0000
0000
0000
0000
0000
0000
0000
0000
0000
0000
0000
0000
0000
0000
0000
0000
0000
0000
0000
0000
0000
0000
0000
0000
0000
0000
0000
0000
0000
0000
0000
0000
0000
0000
0000
0000
0000
0000
0000
0000
0000
0000
0000
0000
0000
0000
0000
0000
0000
0000
0000
0000
0000
0000
0000
0000
0000
0000
0000
0000
0100
0000
0000
0000
0000
0000
000M
0000
0000
0000
0000
0000
0100
0000
0000
0000
0000
0000
0000
0000
0000
0000
0000
0000
1000
0000
0000
0000
0000
0000
0000
0000
0000
0000
0000
0000
0100
0000
0000
0000
0000
0000
0000
0000
0000
0000
0000
0000
0010
0000
0000
0000
0000
0000
0000
0000
0000
0000
0000
0000
0001
0000
0000
0000
0000
0000
0000
0000
0000
0000
0000
0000
0100
0000
0000
0000
0000
0000
0000
0000
0000
0000
0000
0000
0000
0000
0000
0000
0001
0000
0000
0000
0000
0000
0000
0000
0000
0000
0000
0000
0000
0000
0000
0000
0010
0000
0000
0000
0000
0000
0000
0000
0000
0000
0000
0000
0000
0000
0000
0000
,  // measure 28
1000
0000
0010
0000
0100
00M0
0100
0000
0001
0000
0010
000M
0010
0000
1000
0000
0100
0000
0002
0000
0103
0000
1000
0000
,  // measure 29
0010
0000
0100
0000
0001
0000
1000
0000
0100
0000
M100
0000
0100
0000
1000
0001
1000
0000
0001
0000
0100
0000
0010
0000
,  // measure 30
0002
0000
0013
0000
1000
0000
0100
0000
0010
0M00
0010
0000
0002
0000
0013
0000
0100
000M
0100
0000
1000
0000
0001
0000
,  // measure 31
1000
0000
0100
0000
0002
0000
0103
0000
1000
0000
0100
M000
0200
0000
0000
0000
0000
0000
0301
0000
0100
0000
0010
0000
,  // measure 32
0002
0000
0013
0000
0100
000M
0100
0000
1000
0000
0010
M000
0010
0000
0001
0000
0100
0000
2000
0000
3100
0000
0010
0000
,  // measure 33
1000
0000
0100
0000
0010
0000
0001
0000
0100
0000
010M
0000
0100
0000
0001
1000
0001
0000
0010
0000
0100
0000
0010
0000
,  // measure 34
1000
0000
0010
0000
0100
00M0
0100
0000
0001
0000
0010
0000
2000
0000
3010
0000
0100
00M0
0100
0000
0001
0000
0010
0000
,  // measure 35
1000
0000
0000
0000
0000
0000
0000
0000
0000
0000
0000
0000
0000
0000
0000
0000
0001
0000
0000
0000
0000
0000
0000
0000
0000
0000
0000
0000
0000
0000
0000
0000
0100
0000
0000
0000
0000
0000
0000
0000
0000
0000
0000
0000
0000
0000
0000
0000
1000
0000
0000
0000
0000
0000
0000
0000
0000
0000
0000
0000
0000
0000
0000
0000
0001
0000
0000
0000
0000
0000
0000
0000
0000
0000
0000
0000
0000
0000
0000
0000
0010
0000
0000
0000
0000
0000
0000
0000
0000
0000
0000
0000
0000
0000
0000
0000
0100
0000
0000
0000
0000
0000
0000
0000
0000
0000
0000
0000
0000
0000
0000
0000
0000
0000
0000
0000
0000
0000
0000
0000
0000
0000
0000
0000
0000
0000
0000
0000
0000
0000
0000
0000
0000
0000
0000
0000
0000
0000
0000
0000
0000
0000
0000
0000
1000
0000
0000
0000
0000
0000
0000
0000
0000
0000
0000
0000
0001
0000
0000
0000
0000
0000
0000
0000
0000
0000
0000
0000
0100
0000
0000
0000
0000
0000
000M
0000
0000
0000
0000
0000
0100
0000
0000
0000
0000
0000
0000
0000
0000
0000
0000
0000
,  // measure 36
1000
0000
0010
0000
0100
00M0
0100
0000
1000
0000
0001
0000
0010
000M
0010
0000
1000
0000
0001
0000
0100
000M
0100
0000
1000
0000
0001
0000
0010
000M
0010
0000
,  // measure 37
2002
0000
0000
0000
,  // measure 38
0000
0000
0000
0000
,  // measure 39
0000
0000
0000
0000
,  // measure 40
0000
0000
0000
0000
,  // measure 41
0000
0000
0000
0000
,  // measure 42
0000
0000
0000
0000
,  // measure 43
0000
0000
0000
0000
,  // measure 44
0000
0000
0000
0000
,  // measure 45
0000
0000
0000
0000
,  // measure 46
0000
0000
0000
0000
,  // measure 47
0000
0000
0000
0000
,  // measure 48
0000
0000
0000
0000
,  // measure 49
0000
0000
0000
0000
,  // measure 50
0000
0000
0000
0000
,  // measure 51
0000
0000
0000
0000
,  // measure 52
0000
0000
0000
0000
,  // measure 53
0000
0000
0000
0000
,  // measure 54
0000
0000
0000
0000
,  // measure 55
0000
0000
0000
0000
,  // measure 56
0000
0000
0000
0000
,  // measure 57
0000
0000
0000
0000
,  // measure 58
0000
0000
0000
0000
,  // measure 59
0000
0000
0000
0000
,  // measure 60
0000
0000
0000
0000
,  // measure 61
0000
0000
0000
0000
,  // measure 62
0000
0000
0000
0000
,  // measure 63
0000
0000
0000
0000
,  // measure 64
0000
0000
0000
0000
,  // measure 65
0000
0000
0000
0000
,  // measure 66
0000
0000
0000
0000
,  // measure 67
0000
0000
0000
0000
,  // measure 68
0000
0000
0000
0000
,  // measure 69
0000
0000
0000
0000
,  // measure 70
0000
0000
0000
0000
,  // measure 71
0000
0000
0000
0000
,  // measure 72
0000
0000
0000
0000
,  // measure 73
0000
0000
0000
0000
,  // measure 74
0000
0000
0000
0000
,  // measure 75
0000
0000
0000
0000
,  // measure 76
0000
0000
0000
0000
,  // measure 77
0000
0000
0000
0000
,  // measure 78
0000
0000
0000
0000
,  // measure 79
0000
0000
0000
0000
,  // measure 80
0000
0000
0000
0000
,  // measure 81
0000
0000
0000
0000
,  // measure 82
0000
0000
0000
0000
,  // measure 83
0000
0000
0000
0000
,  // measure 84
0000
0000
0000
0000
,  // measure 85
0000
0000
0000
0000
,  // measure 86
0000
0000
0000
0000
,  // measure 87
0000
0000
0000
0000
,  // measure 88
0000
0000
0000
0000
,  // measure 89
0000
0000
0000
0000
,  // measure 90
0000
0000
0000
0000
,  // measure 91
0000
0000
0000
0000
,  // measure 92
0000
0000
0000
0000
,  // measure 93
0000
0000
0000
0000
,  // measure 94
0000
0000
0000
0000
,  // measure 95
0000
0000
0000
0000
,  // measure 96
0000
0000
0000
0000
,  // measure 97
0000
0000
0000
0000
,  // measure 98
0000
0000
0000
0000
,  // measure 99
0000
0000
0000
0000
,  // measure 100
0000
0000
0000
0000
,  // measure 101
0000
0000
0000
0000
,  // measure 102
0000
0000
0000
0000
,  // measure 103
0000
0000
0000
0000
,  // measure 104
0000
0000
0000
0000
,  // measure 105
0000
0000
0000
0000
,  // measure 106
0000
0000
0000
0000
,  // measure 107
0000
0000
0000
0000
,  // measure 108
0000
0000
0000
0000
,  // measure 109
0000
0000
0000
0000
,  // measure 110
0000
0000
0000
0000
,  // measure 111
0000
0000
0000
0000
,  // measure 112
0000
0000
0000
0000
,  // measure 113
0000
0000
0000
0000
,  // measure 114
0000
0000
0000
0000
,  // measure 115
0000
0000
0000
0000
,  // measure 116
0000
0000
0000
0000
,  // measure 117
0000
0000
0000
0000
,  // measure 118
0000
0000
0000
0000
,  // measure 119
0000
0000
0000
0000
,  // measure 120
0000
0000
0000
0000
,  // measure 121
0000
0000
0000
0000
,  // measure 122
0000
0000
0000
0000
,  // measure 123
0000
0000
0000
0000
,  // measure 124
0000
0000
0000
0000
,  // measure 125
0000
0000
0000
0000
,  // measure 126
0000
0000
0000
0000
,  // measure 127
0000
0000
0000
0000
,  // measure 128
0000
0000
0000
0000
,  // measure 129
0000
0000
0000
0000
,  // measure 130
0000
0000
0000
0000
,  // measure 131
0000
0000
0000
0000
,  // measure 132
0000
0000
0000
0000
,  // measure 133
0000
0000
0000
0000
,  // measure 134
0000
0000
0000
0000
,  // measure 135
0000
0000
0000
0000
,  // measure 136
0000
0000
0000
0000
,  // measure 137
0000
0000
0000
0000
,  // measure 138
0000
0000
0000
0000
,  // measure 139
0000
0000
0000
0000
,  // measure 140
0000
0000
0000
0000
,  // measure 141
0000
0000
0000
0000
,  // measure 142
0000
0000
0000
0000
,  // measure 143
0000
0000
0000
0000
,  // measure 144
0000
0000
0000
0000
,  // measure 145
0000
0000
0000
0000
,  // measure 146
0000
0000
0000
0000
,  // measure 147
0000
0000
0000
0000
,  // measure 148
0000
0000
0000
0000
,  // measure 149
0000
0000
0000
0000
,  // measure 150
0000
0000
0000
0000
,  // measure 151
0000
0000
0000
0000
,  // measure 152
0000
0000
0000
0000
,  // measure 153
0000
0000
0000
0000
,  // measure 154
0000
0000
0000
0000
,  // measure 155
0000
0000
0000
0000
,  // measure 156
0000
0000
0000
0000
,  // measure 157
0000
0000
0000
0000
,  // measure 158
0000
0000
0000
0000
,  // measure 159
0000
0000
0000
0000
,  // measure 160
0000
0000
0000
0000
,  // measure 161
0000
0000
0000
0000
,  // measure 162
0000
0000
0000
0000
,  // measure 163
0000
0000
0000
0000
,  // measure 164
0000
0000
0000
0000
,  // measure 165
0000
0000
0000
0000
,  // measure 166
0000
0000
0000
0000
,  // measure 167
0000
0000
0000
0000
,  // measure 168
0000
0000
0000
0000
,  // measure 169
0000
0000
0000
0000
,  // measure 170
0000
0000
0000
0000
,  // measure 171
0000
0000
0000
0000
,  // measure 172
0000
0000
0000
0000
,  // measure 173
0000
0000
0000
0000
,  // measure 174
0000
0000
0000
0000
,  // measure 175
0000
0000
0000
0000
,  // measure 176
0000
0000
0000
0000
,  // measure 177
0000
0000
0000
0000
,  // measure 178
0000
0000
0000
0000
,  // measure 179
0000
0000
0000
0000
,  // measure 180
0000
0000
0000
0000
,  // measure 181
0000
0000
0000
0000
,  // measure 182
0000
0000
0000
0000
,  // measure 183
0000
0000
0000
0000
,  // measure 184
0000
0000
0000
3003
;
