#VERSION:0.83;
#TITLE:nostos;
#SUBTITLE:-ark remix-;
#ARTIST:Se-U-Ra + しーけー;
#TITLETRANSLIT:;
#SUBTITLETRANSLIT:;
#ARTISTTRANSLIT:Se-U-Ra + CK;
#GENRE:;
#CREDIT:;
#MUSIC:nostos -ark remix-.ogg;
#BANNER:nostos -ark remix-.png;
#BACKGROUND:nostos -ark remix--bg.png;
#JACKET:nostos -ark remix--jacket.png;
#DISCIMAGE:;
#CDIMAGE:;
#SELECTABLE:YES;
#LYRICSPATH:;
#CDTITLE:../_YSD cdtitles/ysd forgor cdtitle.png;
#SAMPLESTART:74.838997;
#SAMPLELENGTH:18.584999;
#OFFSET:-0.909;
#BPMS:0.000=205.000,
189.000=200.000,
201.000=190.000,
207.000=180.000,
213.000=102.500,
225.000=153.750,
237.000=205.000,
301.000=135.000,
307.000=180.000,
311.000=190.000,
313.000=200.000,
315.000=307.500,
338.000=300.000,
338.750=290.000,
339.500=280.000,
340.250=270.000,
341.000=260.000,
341.750=250.000,
342.500=240.000,
343.250=230.000,
344.000=220.000,
344.750=210.000,
345.500=200.230,
348.000=205.000
;
#STOPS:;
#WARPS:;
#DELAYS:;
#SPEEDS:0.000=1.000=0.000=0;
#SCROLLS:0.000=1.000;
#TICKCOUNTS:0.000=4;
#TIMESIGNATURES:0.000=3=4,
213.000=2=4,
225.000=3=4,
237.000=4=4,
301.000=3=4,
307.000=4=4,
315.000=3=4
;
#LABELS:0.000=Song Start;
#COMBOS:0.000=1;
#FAKES:;
#BGCHANGES:;
#FGCHANGES:;
#ATTACKS:;
#TAGS:;
#PREVIEWVID:;
#DISPLAYBPM:102.500000:307.500000;
#KEYSOUNDS:;

//---------------dance-single - ---------------
#NOTEDATA:;
#CHARTNAME:;
#CHARTSTYLE:;
#CREDIT:YOSEFU;
#STEPSTYPE:dance-single;
#DESCRIPTION:;
#DIFFICULTY:Beginner;
#METER:5;
#METERF:0;
#RADARVALUES:0.226270,0.315878,0.242983,0.044997,0.022498,176.000000,149.000000,27.000000,5.000000,0.000000,0.000000,0.000000,0.000000,0.000000,0.226270,0.315878,0.242983,0.044997,0.022498,176.000000,149.000000,27.000000,5.000000,0.000000,0.000000,0.000000,0.000000,0.000000;
#CHARTHASH:153523291;
#BANNER:;
#LASTSECONDHINT:107.290024;
#DISPLAYBPM:102.500000:307.500000;
#NOTES:
// measure 0
0000
0000
0000
0000
,  // measure 1
0000
0000
0000
0000
,  // measure 2
0000
0000
0000
0000
,  // measure 3
0000
0000
0000
1001
,  // measure 4
0000
0000
0001
0000
,  // measure 5
0000
0100
0000
0000
,  // measure 6
0010
0010
0010
0010
,  // measure 7
0000
0000
1000
0000
,  // measure 8
0000
0001
0000
0000
,  // measure 9
0010
0000
0000
0100
,  // measure 10
0000
0000
1001
0000
,  // measure 11
0000
0110
0000
0000
,  // measure 12
0001
0000
0000
0110
,  // measure 13
0000
0000
1000
0000
,  // measure 14
0000
2002
0000
0000
,  // measure 15
3003
0000
0000
0001
,  // measure 16
0000
0000
0000
0000
0001
0000
0000
0000
0000
0000
0000
0000
1000
0000
0000
0000
0000
0000
0000
0000
0000
1000
0000
0000
,  // measure 17
0000
1001
0000
0000
,  // measure 18
0001
0000
0000
0100
,  // measure 19
0000
0000
0010
0010
,  // measure 20
0000
1000
0000
0000
,  // measure 21
0100
0000
0000
0010
,  // measure 22
0010
0000
0001
0001
,  // measure 23
0001
0001
0000
0000
,  // measure 24
0100
0000
0000
0010
,  // measure 25
0000
0000
1000
1000
,  // measure 26
0000
1001
0000
0000
,  // measure 27
1000
0000
0000
0001
,  // measure 28
0000
0000
0110
0000
,  // measure 29
0000
1001
0000
0000
,  // measure 30
0110
0000
0000
1001
,  // measure 31
0000
0000
0110
0000
,  // measure 32
0000
0110
0000
0000
,  // measure 33
1001
0000
0000
1001
,  // measure 34
0000
0000
0001
0001
,  // measure 35
0000
1001
0000
0000
,  // measure 36
1000
0000
0000
0110
,  // measure 37
0000
0000
0001
0001
,  // measure 38
0000
1000
0000
0000
,  // measure 39
0100
0000
0000
0010
,  // measure 40
0000
0000
0001
0001
,  // measure 41
0001
0001
0000
0000
,  // measure 42
1000
0000
0000
0010
,  // measure 43
0000
0000
0100
0000
,  // measure 44
0000
0110
0000
0000
,  // measure 45
1001
0000
0000
0110
,  // measure 46
0000
0000
1001
0000
,  // measure 47
0000
1000
0000
0000
,  // measure 48
0100
0000
0000
1000
,  // measure 49
0000
0000
0001
0001
,  // measure 50
0000
0100
0000
0000
,  // measure 51
0010
0000
0000
1000
,  // measure 52
1000
0000
0100
0000
,  // measure 53
0000
0010
0000
0001
,  // measure 54
0000
0100
0000
0001
,  // measure 55
0000
0010
0000
0100
,  // measure 56
0000
0000
0000
0000
1000
0000
0000
0000
0000
0000
0000
0000
0000
0001
0000
0000
,  // measure 57
0001
0000
0000
0000
0000
0000
0000
0000
0000
1000
0000
0000
1000
0000
0000
0000
,  // measure 58
0000
0000
0000
0000
0000
0001
0000
0000
0001
0000
0000
0000
0000
0000
1000
0000
,  // measure 59
0000
1000
0000
0000
1000
0000
0000
0000
0000
0000
0000
0000
0010
0000
0000
0000
,  // measure 60
0000
0100
0100
0100
,  // measure 61
0000
0001
0000
1000
,  // measure 62
1000
2000
0000
0000
,  // measure 63
3000
0100
0000
0010
,  // measure 64
0000
0001
0001
0001
,  // measure 65
0000
1000
0000
0010
,  // measure 66
0000
0100
0000
0001
,  // measure 67
0001
0001
0000
0010
,  // measure 68
0000
0100
0100
0100
,  // measure 69
0000
1000
0000
0001
,  // measure 70
0001
0002
0000
0000
,  // measure 71
0003
0100
0000
0010
,  // measure 72
0000
0100
0000
0001
,  // measure 73
0000
0010
0000
0100
,  // measure 74
0000
1001
0000
1001
,  // measure 75
0000
0000
1001
0000
0000
0001
0000
0000
,  // measure 76
0100
0000
0000
0010
0000
0000
1000
0000
,  // measure 77
0000
0100
0000
0110
,  // measure 78
0000
1001
0000
0001
,  // measure 79
0000
0000
0100
0000
,  // measure 80
0000
0010
0000
0000
,  // measure 81
1000
0000
0000
0001
,  // measure 82
0000
0000
0010
0000
,  // measure 83
0000
0100
0000
0000
,  // measure 84
1000
0000
1001
0000
,  // measure 85
0000
0000
0000
0000
,  // measure 86
0000
0000
0000
0000
,  // measure 87
0020
0000
0000
0030
;

//---------------dance-single - ---------------
#NOTEDATA:;
#CHARTNAME:;
#CHARTSTYLE:;
#CREDIT:YOSEFU;
#STEPSTYPE:dance-single;
#DESCRIPTION:;
#DIFFICULTY:Easy;
#METER:12;
#METERF:0;
#RADARVALUES:0.439683,0.647954,0.422970,0.683951,0.035997,342.000000,295.000000,47.000000,76.000000,0.000000,0.000000,0.000000,0.000000,0.000000,0.439683,0.647954,0.422970,0.683951,0.035997,342.000000,295.000000,47.000000,76.000000,0.000000,0.000000,0.000000,0.000000,0.000000;
#CHARTHASH:3563218385;
#BANNER:;
#LASTSECONDHINT:109.924164;
#DISPLAYBPM:102.500000:307.500000;
#NOTES:
// measure 0
0000
0000
0000
0000
,  // measure 1
0000
0000
0000
0000
,  // measure 2
0000
0000
0000
0000
,  // measure 3
0000
0000
0000
1001
,  // measure 4
0010
0100
1001
0001
,  // measure 5
0100
0110
1000
0001
,  // measure 6
0110
1100
1001
0001
,  // measure 7
0100
0020
2030
3200
,  // measure 8
0302
0103
1000
0001
,  // measure 9
0100
0010
1000
1001
,  // measure 10
0001
0010
0110
0000
,  // measure 11
1001
1000
0010
0100
,  // measure 12
0001
0010
1000
0010
,  // measure 13
0001
0100
2000
3200
,  // measure 14
0302
0023
0000
0000
,  // measure 15
0000
0000
0000
0230
,  // measure 16
0000
0000
0000
0000
,  // measure 17
1300
0000
0002
0000
0203
0000
0300
0100
,  // measure 18
0001
0000
0001
1000
0001
0000
1000
0000
,  // measure 19
0100
1000
0100
0000
2000
0000
3002
0000
,  // measure 20
0003
0100
0020
1030
,  // measure 21
0001
0010
0002
0000
1003
0000
0010
0100
,  // measure 22
0010
0000
1000
0000
0001
0010
0002
0000
,  // measure 23
0003
0000
2000
0000
3200
0000
0300
0100
,  // measure 24
0010
0000
0010
0001
0010
0000
0001
0000
,  // measure 25
1000
0010
1000
0000
0001
0000
0020
0000
,  // measure 26
0030
0100
1100
1000
,  // measure 27
0001
0000
0101
0000
0001
0000
1000
0010
,  // measure 28
0000
1000
0001
0000
1001
0000
0000
0000
,  // measure 29
0000
0000
1100
0000
0000
0110
0000
0000
,  // measure 30
0012
1000
0003
0101
,  // measure 31
0000
0110
0000
0000
2010
0000
0001
0000
,  // measure 32
3000
0000
1100
0000
0000
0110
0000
0000
,  // measure 33
0012
0100
0003
0101
,  // measure 34
0000
0110
0000
0000
1001
0000
0110
0000
,  // measure 35
1001
0000
2000
0000
3200
0000
0300
1000
,  // measure 36
0002
0000
0103
0001
0100
0000
0001
0000
,  // measure 37
1000
0000
0100
0000
0010
0001
0020
0000
,  // measure 38
0030
0100
2000
3010
,  // measure 39
0100
0001
0200
0000
0310
0000
1000
0100
,  // measure 40
1000
0000
0001
0000
0100
0010
0200
0000
,  // measure 41
0301
0000
2000
0000
3200
0000
0300
0010
,  // measure 42
0001
0000
1000
0001
1000
0000
0001
0000
,  // measure 43
0100
0001
0100
0000
0010
0000
2000
0000
,  // measure 44
3000
0001
0010
0110
,  // measure 45
1000
0000
0010
0000
0110
0000
0001
1000
,  // measure 46
0001
1000
2002
0000
,  // measure 47
3003
2000
3002
0003
,  // measure 48
0200
0300
0020
2030
,  // measure 49
3000
0000
0002
0000
0013
0100
0020
0000
,  // measure 50
0031
0000
0001
0000
2000
0000
3001
0100
,  // measure 51
0002
0023
0230
1300
,  // measure 52
0020
0000
0130
0001
0200
0000
0000
0302
,  // measure 53
0000
1003
0100
0010
,  // measure 54
0001
0100
1000
0100
,  // measure 55
0010
1000
0100
0010
,  // measure 56
0001
0000
0000
0000
1001
0000
0000
0000
0000
0000
0000
1000
0000
1000
0000
0000
,  // measure 57
0110
0000
0000
0000
0000
0000
0000
0001
0000
0001
0000
0000
0110
0000
0000
1000
,  // measure 58
0000
0000
0001
0000
0000
1001
0000
0000
0011
0000
0000
0110
0000
0000
0200
0000
,  // measure 59
0000
2300
0000
0000
3001
0000
0000
0000
0100
0000
0000
0000
1000
0000
0000
0000
,  // measure 60
0100
0001
1000
0100
,  // measure 61
0010
1000
0010
0110
,  // measure 62
1100
2002
0000
0000
,  // measure 63
3003
0001
0100
0010
,  // measure 64
1000
0100
0001
0100
,  // measure 65
1000
0001
0100
1000
,  // measure 66
0100
0020
0030
0110
,  // measure 67
0101
1001
1000
0100
,  // measure 68
0001
0100
1000
0010
,  // measure 69
0100
0001
0010
1000
,  // measure 70
0010
2002
0000
0000
,  // measure 71
3003
2000
0000
3020
,  // measure 72
0000
0230
0000
0302
,  // measure 73
0000
0023
0000
0230
,  // measure 74
0300
1100
0000
0101
,  // measure 75
0000
0000
1002
0000
0000
2003
0000
0000
,  // measure 76
3020
0000
0000
0230
0000
0000
0302
0000
,  // measure 77
0000
0023
0030
1100
,  // measure 78
0000
1010
0000
1000
,  // measure 79
0100
0020
0031
0100
,  // measure 80
0020
1030
0100
0020
,  // measure 81
0031
0100
0020
0130
,  // measure 82
0001
0020
0130
1000
,  // measure 83
0020
0130
0001
0020
,  // measure 84
0130
1000
0020
0030
,  // measure 85
0000
0000
0000
0000
,  // measure 86
0000
0000
0000
0000
,  // measure 87
0200
0000
0000
0000
,  // measure 88
0000
0000
0000
0000
,  // measure 89
0000
0000
0000
0000
,  // measure 90
0300
0000
0000
0000
;

//---------------dance-single - ---------------
#NOTEDATA:;
#CHARTNAME:;
#CHARTSTYLE:;
#CREDIT:YOSEFU;
#STEPSTYPE:dance-single;
#DESCRIPTION:;
#DIFFICULTY:Medium;
#METER:14;
#METERF:0;
#RADARVALUES:0.627384,0.809942,0.143990,0.728948,0.449968,488.000000,472.000000,16.000000,81.000000,0.000000,0.000000,0.000000,0.000000,0.000000,0.627384,0.809942,0.143990,0.728948,0.449968,488.000000,472.000000,16.000000,81.000000,0.000000,0.000000,0.000000,0.000000,0.000000;
#CHARTHASH:2707385567;
#BANNER:;
#LASTSECONDHINT:109.924164;
#DISPLAYBPM:102.500000:307.500000;
#NOTES:
// measure 0
0000
0000
0000
0000
,  // measure 1
0000
0000
0000
0000
,  // measure 2
0000
0000
0000
0000
,  // measure 3
0000
0000
0000
1001
,  // measure 4
0001
0000
0001
0010
0000
0001
0100
0000
0010
0001
0000
0000
,  // measure 5
0010
0100
0001
1000
0000
0000
0100
0010
0001
1000
0000
0000
,  // measure 6
1010
1001
0011
0110
,  // measure 7
0100
0000
0100
2000
0000
0000
3020
0000
0000
0032
0000
0000
,  // measure 8
0023
0000
0000
1030
0000
0000
0001
0000
1000
0100
0000
0000
,  // measure 9
0010
0000
0000
0001
1000
0010
0100
0000
0000
0001
0000
0000
,  // measure 10
0010
0000
0010
0100
0000
0000
1000
0000
1010
0000
0000
0000
,  // measure 11
0010
0000
1000
0001
0000
0000
0010
0000
0100
1000
0000
0000
,  // measure 12
0001
0000
1000
0010
0000
1000
0001
0000
0000
0010
0000
0001
,  // measure 13
1000
0000
0001
0010
0000
0001
0200
0000
0000
2300
0000
0000
,  // measure 14
3200
0302
0000
0000
,  // measure 15
0000
0000
0000
1003
,  // measure 16
0000
0000
0000
0000
0100
0000
0010
0000
0000
0000
0000
0000
0001
0000
0000
0001
0000
0000
0000
0000
0000
1000
0000
0000
,  // measure 17
1000
0010
0200
0000
0302
0000
0003
0010
,  // measure 18
0200
0000
1300
0001
0100
0001
0010
0100
,  // measure 19
1000
1000
0010
0100
0001
1000
0200
0000
,  // measure 20
0300
0000
0010
0100
2000
0000
3001
0100
,  // measure 21
0010
1000
0200
0000
1300
0001
0010
0001
,  // measure 22
1000
0001
0100
1000
0100
0001
2000
0000
,  // measure 23
3100
0010
0002
0000
0203
0000
0300
0010
,  // measure 24
1000
0000
0001
0010
0100
0010
0001
1000
,  // measure 25
0010
0010
0100
0001
0010
0100
2000
0000
,  // measure 26
3000
0000
0001
0100
0020
0000
1030
0100
,  // measure 27
0010
0100
2000
0000
3001
0100
0010
0100
,  // measure 28
0001
0010
0100
0001
0100
1000
0010
0000
,  // measure 29
0100
0001
1000
1000
0000
0001
0001
0000
,  // measure 30
1000
0000
0001
0100
0001
0000
1000
0000
0100
0000
0010
0000
0001
0000
0001
0000
,  // measure 31
0000
0000
1000
0000
1000
0000
0000
0000
0010
0000
0100
0001
0100
0000
0010
0000
,  // measure 32
1000
0001
0010
0010
0000
0100
0100
0000
,  // measure 33
1000
0000
0001
0100
0001
0000
1000
0000
0100
0000
0010
0000
0001
0000
0001
0000
,  // measure 34
0000
1000
1000
0000
1010
0000
0110
0000
,  // measure 35
0101
0000
0002
0000
0023
0000
0030
0100
,  // measure 36
0020
0000
0031
1000
0010
0100
0001
0010
,  // measure 37
0200
0000
1300
0001
0100
0001
0020
0000
,  // measure 38
0030
0000
0100
1000
0002
0000
0103
0001
,  // measure 39
1000
0100
0020
0000
0130
1000
0001
0100
,  // measure 40
0010
1000
0100
0001
0100
1000
0002
0000
,  // measure 41
0103
0010
2000
0000
3200
0000
0300
1000
,  // measure 42
0002
0000
0103
0010
0100
0001
1000
0100
,  // measure 43
0010
0010
0001
0100
0010
1000
0002
0000
,  // measure 44
0003
0000
0010
0100
1000
0000
1100
0000
,  // measure 45
0100
0010
0001
0000
1001
0000
1000
0010
,  // measure 46
0100
0010
1000
0100
0001
0100
2000
0000
,  // measure 47
3002
0000
0203
0000
0320
0000
0030
1000
,  // measure 48
0002
0003
0020
0230
,  // measure 49
0300
0000
0010
0001
1000
0010
0200
0000
,  // measure 50
0302
0000
1003
0100
0200
0000
1300
0001
,  // measure 51
0200
0000
0320
0000
2030
0000
3100
0010
,  // measure 52
0020
0000
0031
1000
0020
0000
0000
0230
,  // measure 53
0000
0000
0000
0301
0000
0000
1000
0000
0000
0100
0001
0100
,  // measure 54
1000
0000
0000
0001
0000
0000
0100
0000
0000
0010
1000
0100
,  // measure 55
0010
0000
0000
0001
0000
0000
0100
0000
0000
0010
1000
0100
,  // measure 56
0001
0000
0000
0000
0100
0000
0000
0000
0000
0000
0000
0000
1001
0000
0000
0000
0000
0000
0000
0000
0000
0001
0000
0000
0000
0000
0000
0010
0000
0000
0000
0000
0000
0100
0000
0000
0000
0000
0000
1100
0000
0000
0000
0000
0000
0000
0000
0000
,  // measure 57
1001
0000
0000
0001
0000
0100
0000
0010
0000
1010
0000
0000
1000
0001
0000
1000
,  // measure 58
0000
0010
0000
0100
0000
0101
0000
0000
0001
1000
0000
0001
0000
0010
0200
0000
,  // measure 59
0000
0000
0000
2300
0000
0000
0000
0000
0000
0000
0000
0000
3200
0000
0000
0000
0000
0000
0000
0000
0000
0000
0000
0000
1300
0000
0000
0000
0000
0000
0000
0000
0001
0000
0000
0000
0200
0000
0000
0000
0000
0000
0000
0000
0000
0000
0000
0000
,  // measure 60
0301
0000
1000
0200
0000
0000
1300
0000
0001
0200
0000
0000
,  // measure 61
0301
0000
0100
0020
0000
0000
1030
0000
0001
0010
0000
0001
,  // measure 62
1000
0000
0001
0200
0000
0000
0000
0000
0000
0000
0000
0000
,  // measure 63
0310
0000
0000
2000
0000
0000
3001
0000
1000
0200
0000
0000
,  // measure 64
0310
0000
0100
2000
0000
0000
3001
0000
0100
0002
0000
0000
,  // measure 65
1003
0000
0100
0020
0000
0000
0030
0000
0200
0000
0000
2300
,  // measure 66
0000
0000
3001
0200
0000
0000
0300
0001
0010
0200
0000
0000
,  // measure 67
2300
0000
0000
3002
0000
0000
0103
0000
0001
0020
0000
0000
,  // measure 68
0130
0000
1000
0002
0000
0000
0103
0000
0010
2000
0000
0000
,  // measure 69
3100
0000
0010
0002
0000
0000
1003
0000
0010
0100
0000
0001
,  // measure 70
0100
0000
1000
0200
0000
0000
0000
0000
0000
0000
0000
0000
,  // measure 71
0301
0000
0000
1000
0000
0001
0000
1000
0000
0010
0000
0001
,  // measure 72
0000
0010
0000
1000
0000
0001
0000
1000
0000
0100
0000
0001
,  // measure 73
0000
0100
0000
1000
0001
1000
0000
0001
0000
0100
0000
0010
,  // measure 74
0000
1000
0000
0001
1000
0001
0000
0010
0000
0100
0000
1000
,  // measure 75
0000
0000
0001
0000
0000
0000
1000
0000
0000
0000
0000
0000
0000
0000
0000
0001
0000
0000
0100
0000
0000
0010
0000
0000
,  // measure 76
1000
0000
0000
0000
0000
0000
0000
0000
0000
0100
0000
0000
0010
0000
0000
0001
0000
0000
1000
0000
0010
0000
0100
0000
,  // measure 77
0000
0001
0000
1000
0000
0100
0000
0010
0000
0001
0100
0001
,  // measure 78
0000
0000
1000
0000
0000
0000
0001
0000
0010
0000
0001
0000
0000
0000
1000
0000
0000
0000
0001
0000
0000
0100
0000
0000
,  // measure 79
0001
0000
0020
0000
0031
1000
0001
0000
,  // measure 80
0020
0000
0130
1000
0100
0000
0020
0000
,  // measure 81
0031
0100
0001
0000
0020
0000
0130
1000
,  // measure 82
0001
0000
0020
0000
0130
1000
0001
0000
,  // measure 83
0020
0000
0031
0100
0001
0000
0020
0000
,  // measure 84
0130
1000
0100
1000
0020
0000
0000
0000
,  // measure 85
0000
0000
0000
0000
,  // measure 86
0000
0000
0000
0000
,  // measure 87
0230
0000
0000
0000
,  // measure 88
0000
0000
0000
0000
,  // measure 89
0000
0000
0000
0000
,  // measure 90
0300
0000
0000
0000
;

//---------------dance-single - ---------------
#NOTEDATA:;
#CHARTNAME:;
#CHARTSTYLE:;
#CREDIT:YOSEFU;
#STEPSTYPE:dance-single;
#DESCRIPTION:;
#DIFFICULTY:Hard;
#METER:16;
#METERF:0;
#RADARVALUES:0.745661,0.971931,0.197986,0.503964,0.778445,580.000000,558.000000,22.000000,56.000000,0.000000,0.000000,0.000000,0.000000,0.000000,0.745661,0.971931,0.197986,0.503964,0.778445,580.000000,558.000000,22.000000,56.000000,0.000000,0.000000,0.000000,0.000000,0.000000;
#CHARTHASH:1582847376;
#BANNER:;
#LASTSECONDHINT:109.924164;
#DISPLAYBPM:102.500000:307.500000;
#NOTES:
// measure 0
0000
0000
0000
0000
,  // measure 1
0000
0000
0000
0000
,  // measure 2
0000
0000
0000
0000
,  // measure 3
0000
0000
0000
1001
,  // measure 4
1000
0100
1000
0010
0000
0100
0010
0000
0100
1000
0000
0000
,  // measure 5
0100
0010
1000
0001
0000
0000
0100
0001
0010
0100
1000
0010
,  // measure 6
0100
0000
0001
1000
0000
0000
1100
0000
0000
0110
0000
0000
,  // measure 7
0010
0001
1000
0010
0000
0000
0200
0000
0000
2300
0000
0000
,  // measure 8
3200
0000
0301
1000
0000
0000
0100
0010
0001
1000
0000
0010
,  // measure 9
0200
0000
0000
0301
0010
0100
1000
0000
0001
1000
0000
0000
,  // measure 10
0100
0010
0001
1000
0000
0000
1010
0000
1001
0000
0000
0001
,  // measure 11
0010
0100
1000
0001
0000
0000
0100
0001
0010
0100
0000
1000
,  // measure 12
0001
0000
0100
0010
0000
0000
0001
0010
0100
0001
1000
0100
,  // measure 13
0010
0001
0010
0100
0000
1000
0001
0100
0001
0100
0010
1000
,  // measure 14
0001
0010
0100
2000
0000
0000
0000
0000
0000
0000
0000
0000
,  // measure 15
0000
0000
0000
3001
,  // measure 16
0000
0000
0000
0000
0000
0000
0000
0000
0100
0000
0000
0000
0001
0000
0000
0000
0000
0000
0000
0000
0000
0000
0000
0000
1000
0000
0000
0001
0000
0000
1000
0000
0000
0000
0000
0000
0000
0000
0000
0000
0000
0000
0001
0000
0000
1000
0000
0000
,  // measure 17
0001
0000
0200
0000
0320
0000
0000
1030
,  // measure 18
0001
0000
0000
0000
0010
0100
0010
0000
0001
0000
1000
0000
0010
0000
0100
0000
,  // measure 19
0001
0001
0010
0100
1000
0001
0200
0000
,  // measure 20
0300
0000
0010
1000
0200
0000
1300
0010
,  // measure 21
0100
0001
0020
0000
0031
1000
0010
1000
,  // measure 22
0100
1000
0010
0001
0010
0100
0001
0000
,  // measure 23
1000
0100
1000
0100
0020
0000
0000
0000
0032
0000
0000
0000
0003
0000
1000
0000
,  // measure 24
0010
0000
0000
0000
0100
0001
0100
0000
0001
0000
1000
0000
0100
0000
0010
0000
,  // measure 25
0001
0001
0100
0010
1000
0001
0020
0000
,  // measure 26
0030
0000
0100
1000
0001
0000
0101
0000
,  // measure 27
0100
0000
0001
0000
0010
0000
0100
0000
1000
0000
0000
0000
0001
0100
0001
0000
,  // measure 28
0000
0000
1000
0100
1000
0000
0000
0000
0001
0000
1000
0000
0200
0000
0000
0000
,  // measure 29
0300
0000
0010
0010
0000
0001
0001
0000
,  // measure 30
1000
0000
0001
0100
0010
0100
0001
0000
1000
0000
0000
0000
0100
0000
0100
0000
,  // measure 31
0000
0000
0010
0000
0010
0000
0000
0000
0001
0000
1000
0010
0100
0010
1000
0000
,  // measure 32
0001
0000
1000
1000
0000
0100
0100
0000
,  // measure 33
1000
0000
0001
0100
0010
0100
0001
0000
1000
0000
0000
0000
0100
0000
0100
0000
,  // measure 34
0000
0010
0010
0000
0011
0000
1001
0000
,  // measure 35
1010
0000
2000
0000
3002
0000
0003
0010
,  // measure 36
0100
0000
0000
0000
1000
0001
1000
0000
0001
0000
0100
0000
0010
0000
1000
0000
,  // measure 37
0002
0000
0013
0100
1000
0010
0200
0000
,  // measure 38
0300
0000
0001
1000
0200
0000
0310
0001
,  // measure 39
1000
0010
0200
0000
0301
0010
0100
0010
,  // measure 40
0001
1000
0010
0001
0010
0100
0001
0000
,  // measure 41
1000
0010
0100
0010
2000
0000
0000
0000
3002
0000
0000
0000
0003
0000
0010
0000
,  // measure 42
0100
0000
0000
0000
1000
0001
1000
0000
0001
0000
0100
0000
0010
0000
1000
0000
,  // measure 43
0100
0100
0010
0001
0100
0010
2000
0000
,  // measure 44
3000
0000
1010
1000
0001
0000
1001
0000
,  // measure 45
0011
0000
0001
0000
1000
0000
0000
0000
1001
0000
0000
0000
0001
0100
0001
0000
,  // measure 46
0000
0000
1000
0100
1000
0000
0000
0000
0001
0000
0100
0000
1000
0000
0100
0000
,  // measure 47
0001
0000
2000
0000
3200
0000
0000
0301
,  // measure 48
0200
0000
2300
3020
,  // measure 49
0000
0000
0130
0001
0010
0100
2000
0000
,  // measure 50
3001
0000
0001
0100
0200
0000
1300
0100
,  // measure 51
0020
0000
2030
0000
3002
0000
0013
0100
,  // measure 52
0200
0000
1300
0001
0200
0000
0000
0320
,  // measure 53
0000
0000
0000
0000
0000
0000
1030
0000
0000
0000
0001
0010
0100
0000
0000
0000
1000
0001
0100
0000
0010
0000
1000
0000
,  // measure 54
0001
0000
0010
0100
0000
0000
1000
0000
0000
0000
0001
0100
0010
0000
0000
0000
0001
0000
0010
0000
1000
0000
0001
0000
,  // measure 55
0010
0000
0000
0000
0000
0000
0100
0000
0000
0000
1000
0001
0100
0000
0000
0000
0010
1000
0001
0000
1000
0000
0010
0000
,  // measure 56
0001
0000
0000
0000
0010
0000
0100
0000
0000
0000
0000
0000
0001
0000
0000
1000
0000
0000
0000
0000
0000
0100
0000
0000
0000
0000
0000
0010
0000
0000
0000
0000
0000
0011
0000
0000
0000
0000
0000
1100
0000
0000
0000
0000
0000
0000
0000
0000
,  // measure 57
1000
0010
0000
0100
0000
0001
0000
0101
0000
1010
0000
0000
1000
0100
0000
0010
,  // measure 58
0000
0001
1000
0010
0000
1010
0000
0000
1000
0001
1000
0100
0010
0001
2000
0000
,  // measure 59
0000
0000
0000
3020
0000
0000
0000
0000
0000
0000
0000
0000
0230
0000
0000
0000
0000
0000
0000
0000
0000
0000
0000
0000
0310
0000
0000
0000
0100
0000
0000
0000
1000
0000
0000
0000
0200
0000
0000
0000
0000
0000
0000
0000
0000
0000
0000
0000
,  // measure 60
0310
1000
0001
0010
0000
0000
0010
0100
1000
0001
0000
0000
,  // measure 61
0001
0000
0100
0020
0000
0000
1030
0000
0100
0010
0000
0001
,  // measure 62
1000
0000
0010
0200
0000
0000
0301
0010
0100
1000
0000
0001
,  // measure 63
0100
0000
0000
0001
0000
0000
0001
0010
0100
1000
0000
0000
,  // measure 64
1000
0000
0001
0100
0000
0000
0001
0000
0001
0010
0000
0000
,  // measure 65
0100
1000
0001
0200
0000
0000
0310
0000
0002
0000
0000
0023
,  // measure 66
0000
0000
1030
0002
0000
0000
0003
0010
0100
1000
0000
0000
,  // measure 67
0010
0000
0000
0200
0000
0000
0310
0001
0010
0200
0000
0000
,  // measure 68
0301
0010
0100
1000
0000
1000
0001
0100
0010
1000
0000
0000
,  // measure 69
1000
0000
0100
0010
0000
0000
0001
0000
0100
0010
0000
0001
,  // measure 70
0010
0000
1000
0001
0000
0000
0010
0100
0010
0001
0000
1000
,  // measure 71
0001
0000
0000
0100
0001
1000
0000
0100
0000
0010
0000
1000
,  // measure 72
0000
0010
0000
0001
0100
0010
0000
1000
0000
0010
0000
0001
,  // measure 73
0000
0010
0000
0100
0001
1000
0000
0100
0000
0010
0000
1000
,  // measure 74
0000
0010
0000
0100
1000
0001
0000
0101
0000
0100
0000
0010
,  // measure 75
0000
0000
0000
0000
1010
0000
0000
0000
0000
0000
0000
0000
1000
0000
0000
0010
0000
0000
0100
0000
0000
0000
0000
0000
0001
0000
0000
0000
0000
0000
0010
0000
0000
0000
0000
0000
1000
0000
0000
0000
0000
0000
0010
0000
0000
0000
0000
0000
,  // measure 76
0001
0000
0000
1000
0000
0000
0010
0000
0000
0000
0000
0000
0001
0000
0000
0000
0000
0000
0010
0000
0000
0000
0000
0000
1000
0000
0000
0000
0000
0000
0001
0000
0000
0000
0000
0000
0010
0000
0000
0000
0100
0000
0000
0000
1000
0000
0000
0000
,  // measure 77
0001
0100
0000
0010
0000
1000
0000
0001
0000
1000
0100
0010
,  // measure 78
0000
0000
1001
0000
0000
0000
0001
0000
0100
0000
0010
0000
0000
0000
1001
0000
0000
0000
1000
0000
0000
0001
0000
0000
,  // measure 79
1000
0001
0020
0000
0031
1000
0001
1000
,  // measure 80
0020
0000
1030
0100
1000
0100
0020
0000
,  // measure 81
0031
0100
0001
0100
0020
0000
0130
0001
,  // measure 82
1000
0100
0020
0000
0130
1000
0001
0100
,  // measure 83
0020
0000
0130
0001
1000
0100
0010
0001
,  // measure 84
0100
0010
1000
0001
0020
0000
0000
0000
,  // measure 85
0000
0000
0000
0000
,  // measure 86
0000
0000
0000
0000
,  // measure 87
0230
0000
0000
0000
,  // measure 88
0000
0000
0000
0000
,  // measure 89
0000
0000
0000
0000
,  // measure 90
0300
0000
0000
0000
;

//---------------dance-single - ---------------
#NOTEDATA:;
#CHARTNAME:Where All Memories Return...;
#CHARTSTYLE:;
#CREDIT:Yosefu's Memories;
#STEPSTYPE:dance-single;
#DESCRIPTION:;
#DIFFICULTY:Challenge;
#METER:18;
#METERF:0;
#RADARVALUES:0.914078,1.093422,0.314978,0.611957,1.102422,711.000000,676.000000,35.000000,68.000000,0.000000,0.000000,0.000000,0.000000,0.000000,0.914078,1.093422,0.314978,0.611957,1.102422,711.000000,676.000000,35.000000,68.000000,0.000000,0.000000,0.000000,0.000000,0.000000;
#CHARTHASH:1004311518;
#BANNER:;
#LASTSECONDHINT:109.924164;
#DISPLAYBPM:102.500000:307.500000;
#NOTES:
// measure 0
0000
0000
0000
0000
,  // measure 1
0000
0000
0000
0000
,  // measure 2
0000
0000
0000
0000
,  // measure 3
0000
0000
0000
1001
,  // measure 4
0001
0100
0010
0001
0000
0010
0100
0000
0001
1000
0100
0010
,  // measure 5
0001
0100
0010
1000
0000
0000
0010
1000
0100
0010
0001
0100
,  // measure 6
0010
0000
1000
0010
0000
1000
0100
0000
0000
1001
0000
0000
,  // measure 7
1000
0010
0100
1000
0100
0010
1000
0000
0001
1000
0000
0100
,  // measure 8
0010
0000
0001
0100
0000
0000
0001
0100
0001
0010
0000
0100
,  // measure 9
1000
0010
0100
0001
1000
0100
1000
0000
0010
0200
0000
0000
,  // measure 10
0301
0010
0100
0001
0000
0100
1000
0000
1001
0000
0000
0001
,  // measure 11
0100
0010
1000
0200
0000
0310
0001
1000
0010
0100
0001
0010
,  // measure 12
0100
1000
0001
0100
0000
0010
0001
0010
0100
0001
0010
0100
,  // measure 13
1000
0001
0100
0010
0100
1000
0100
0001
1000
0100
0010
0001
,  // measure 14
0100
0010
1000
0200
0000
0000
0000
0000
0000
0000
0000
0000
,  // measure 15
0000
0000
0000
0310
,  // measure 16
0000
0000
0000
0000
0000
0000
0000
0000
0001
0000
0000
0000
1000
0000
0000
0000
0000
0000
0000
0000
0000
0000
0000
0000
0010
0000
0000
1000
0000
0000
0001
0000
0000
0000
0000
0000
0000
0000
0000
0000
0000
0000
0010
0000
0000
0100
0000
0000
,  // measure 17
1000
0001
0101
0100
0020
0000
1030
0001
,  // measure 18
0020
0000
0000
0000
0031
0100
0001
0010
0100
0000
0010
0000
0001
0000
1000
0001
,  // measure 19
0010
0000
0010
0000
0100
0000
1000
0000
0100
0000
0010
0001
1000
0000
0010
0000
,  // measure 20
0100
0000
0001
0000
1000
0000
0100
1000
0002
0000
0000
0000
0103
0000
0010
0000
,  // measure 21
1000
0000
0100
0010
0002
0000
0000
0000
1003
0000
0100
0000
0010
0000
0100
0000
,  // measure 22
0001
0000
0100
1000
0001
0000
0100
0000
1000
0000
0100
0010
2000
0000
3001
0010
,  // measure 23
0100
1000
0010
1000
0001
0000
0100
0000
0020
0000
0000
0000
1030
0000
0100
0000
,  // measure 24
0020
0000
0000
0000
0031
0100
0001
0010
0100
0000
0010
0000
0001
0000
1000
0010
,  // measure 25
0100
0000
0100
0000
1000
0000
0100
0000
0001
0000
0010
0100
1000
0000
0001
0000
,  // measure 26
0100
0010
1010
0001
0011
0000
1010
0100
,  // measure 27
1001
0000
0100
0000
0011
0000
1000
0000
1010
0000
0010
0000
0100
0001
0010
0000
,  // measure 28
1000
0000
0010
0100
1000
0001
0100
0000
0101
0000
0001
0000
0020
0000
0000
0000
,  // measure 29
0031
0100
0010
1000
0001
0000
0011
0000
0000
0000
1000
0000
1010
0000
0000
0000
,  // measure 30
1001
0000
1000
0100
0010
0001
0100
0010
1000
0001
0010
0100
1000
0000
1100
0000
,  // measure 31
0000
0000
0001
0000
0101
0000
0000
0000
1001
0000
0001
0010
0100
1000
0010
0100
,  // measure 32
0001
1000
0100
0010
0001
0000
0011
0000
0000
0000
1000
0000
1010
0000
0000
0000
,  // measure 33
1001
0000
1000
0010
0100
0001
0010
0100
1000
0001
0100
0010
1000
0000
1010
0000
,  // measure 34
0000
0001
0011
0000
1100
0000
0101
0000
,  // measure 35
1001
0000
1200
0000
0320
0000
0030
0010
,  // measure 36
0002
0000
0000
0000
1003
0010
1000
0100
0010
0000
0100
0000
1000
0000
0001
0100
,  // measure 37
0020
0000
0000
0000
0031
0000
0010
0000
1000
0000
0100
0010
0001
0000
1000
0000
,  // measure 38
0100
0000
0010
0000
0001
0000
1000
0010
0200
0000
0000
0000
0310
0000
1000
0000
,  // measure 39
0001
0000
0010
0100
2000
0000
0000
0000
3010
0000
0100
0000
1000
0000
0100
0000
,  // measure 40
0010
0000
0100
0000
0001
0000
1000
0000
0010
0000
1000
0001
0020
0000
0000
0000
,  // measure 41
1030
0010
0100
1000
0001
0000
1000
0001
0020
0000
0000
0000
0130
0000
1000
0000
,  // measure 42
0020
0000
0000
0000
1030
0100
1000
0001
0100
0000
0001
0000
0010
0000
0001
1000
,  // measure 43
0100
0000
0100
0000
0001
0000
0100
0000
1000
0000
0010
0100
0001
0000
1000
0000
,  // measure 44
0100
0010
0011
0100
1001
0000
0011
0000
,  // measure 45
1100
0000
0001
0000
0101
0000
0100
0000
0010
0000
0100
0000
1000
0100
0010
0000
,  // measure 46
1000
0000
0100
0010
0001
0100
0001
0000
1000
0000
0010
0000
0200
0000
0000
0000
,  // measure 47
1300
0100
0010
1000
0002
0000
0000
0000
0203
0000
0000
0000
0300
0000
1000
0000
,  // measure 48
0200
0300
0020
2030
,  // measure 49
3000
0000
0100
1000
0010
0100
0002
0000
,  // measure 50
1003
0000
1000
0100
0100
0000
1000
0010
,  // measure 51
0200
0000
0302
0000
0023
0000
0130
1000
,  // measure 52
2000
0000
3001
0100
0020
0000
0000
2030
,  // measure 53
0000
0000
0000
0000
0000
0000
3001
0000
0000
0000
0100
0010
1000
0000
0000
0000
0001
0010
0100
0000
0001
0000
0100
0000
,  // measure 54
1000
0000
0000
0000
0001
1000
0001
1000
0000
0000
0000
0000
0010
0000
0000
0000
0000
0000
0000
0000
0100
0000
0001
0000
0010
0000
0000
0000
0000
0000
0000
0000
1000
0000
0000
0000
0010
0000
0000
0000
0100
0000
0000
0000
1000
0000
0000
0000
,  // measure 55
0010
0000
0000
0000
0000
0000
0100
0000
0000
0000
0010
1000
0100
0000
0000
0000
0010
0001
1000
0000
0010
0000
0100
0000
,  // measure 56
1000
0000
0000
0000
0100
0010
0100
0010
0000
0000
0000
0000
1000
0000
0000
0001
0000
0000
0000
0000
0000
0100
0000
0000
0000
0000
0000
0010
0000
0000
1000
0000
0000
0100
0000
0000
0000
0000
0000
0010
0000
0000
0000
0000
0000
0000
0000
0000
,  // measure 57
1000
0010
0000
0100
0000
1000
0010
0100
0000
0001
0000
0000
0010
0001
0100
0010
,  // measure 58
0001
0010
1000
0001
0010
0100
0001
0100
1000
0001
0100
0010
1000
0001
0020
0000
,  // measure 59
0000
0000
0000
0230
0000
0000
0000
0000
0000
0000
0000
0000
0320
0000
0000
0000
0000
0000
0000
0000
0000
0000
0000
0000
0031
0000
0000
0000
0100
0000
0000
0000
1000
0000
0000
0000
0200
0000
0000
0000
0000
0000
0000
0000
0000
0000
0000
0000
,  // measure 60
0301
0010
1000
0010
0000
0010
0001
1000
0010
0100
0000
0000
,  // measure 61
0100
0000
0001
0020
0000
0000
0230
0000
1300
0020
0000
0031
,  // measure 62
0020
0000
0130
0001
0010
0100
1000
0010
0100
1000
0000
0100
,  // measure 63
0002
0000
0000
2003
0000
0000
3100
1000
0010
0100
0000
0000
,  // measure 64
0200
0000
0301
0020
0000
0000
0130
0000
0100
2000
0000
0000
,  // measure 65
3010
0100
0001
0020
0000
0000
1000
0000
0130
2000
0000
3020
,  // measure 66
0000
0130
0001
0020
0000
0000
0130
1000
0010
0200
0000
0000
,  // measure 67
0320
0000
0000
2030
0000
0000
3010
0100
1000
0200
0000
0000
,  // measure 68
0310
1000
0100
0001
0000
0001
0100
1000
0001
0100
0000
0000
,  // measure 69
0200
0000
0301
0020
0000
0000
0032
0000
0103
0020
0000
0031
,  // measure 70
0020
0000
1030
0001
0010
0001
1000
0010
0001
0010
0000
0100
,  // measure 71
0001
0000
0000
1000
0001
0100
0001
0010
0000
0100
0000
0001
,  // measure 72
0000
0100
0000
1000
0001
0100
0010
1000
0000
0100
0000
0001
,  // measure 73
0000
0100
0000
1000
0001
0100
0010
1000
0000
0100
0010
0001
,  // measure 74
0100
0010
0000
1000
0001
0011
0000
0110
0000
1100
0000
1010
,  // measure 75
0000
0000
0000
0000
0010
0000
0000
0000
0000
0000
0000
0000
1000
0000
0000
0010
0000
0000
0100
0000
0000
0001
0000
0000
0010
0000
0000
0000
0000
0000
1000
0000
0000
0000
0000
0000
0010
0000
0000
0000
0000
0000
0001
0000
0000
0000
0000
0000
,  // measure 76
1000
0000
0000
0010
0000
0000
0100
0000
0000
0010
0000
0000
0001
0000
0000
0000
0000
0000
0010
0000
0000
0000
0000
0000
1000
0000
0000
0000
0000
0000
0010
0000
0000
0000
0000
0000
0100
0000
0000
0000
0001
0000
0000
0000
1000
0000
0000
0000
,  // measure 77
0100
0000
0001
0000
0000
0000
0100
0000
0000
0000
1000
0000
0000
0000
0010
0000
0000
0000
0100
0001
0100
0000
0001
0000
,  // measure 78
1000
0000
0100
0000
0000
0000
0010
0001
0010
0000
0100
0000
1000
0000
0001
0000
0000
0000
0100
0000
0000
0010
0000
0000
,  // measure 79
0001
0010
2000
0000
3001
0010
1000
0010
,  // measure 80
0200
0000
1300
0100
0001
1000
0020
0000
,  // measure 81
0031
0000
0100
0000
1000
0000
0001
0000
0020
0000
0000
0000
0130
0010
0100
0000
,  // measure 82
0010
0000
1000
0000
0002
0000
0000
0000
1003
0001
1000
0000
0001
0000
0010
0000
,  // measure 83
0200
0000
0000
0000
1300
0010
1000
0000
0010
0000
0100
0000
0002
0000
0000
0000
,  // measure 84
1003
0001
1000
0000
0001
1000
0001
0000
0200
0000
0000
0000
0000
0000
0000
0000
,  // measure 85
0000
0000
0000
0000
,  // measure 86
0000
0000
0000
0000
,  // measure 87
0320
0000
0000
0000
,  // measure 88
0000
0000
0000
0000
,  // measure 89
0000
0000
0000
0000
,  // measure 90
0030
0000
0000
