#VERSION:0.83;
#TITLE:モ゜ルモ゜ル;
#SUBTITLE:;
#ARTIST:sasakure.UK;
#TITLETRANSLIT:mo°lmo°l;
#SUBTITLETRANSLIT:;
#ARTISTTRANSLIT:;
#GENRE:WORLD DOMINATION;
#ORIGIN:maimai でらっくす PLUS;
#TAGS:;
#CREDIT:skeleton made by talkion;
#BANNER:molmol.png;
#BACKGROUND:molmol-bg.png;
#PREVIEWVID:;
#JACKET:molmol-jacket.png;
#CDIMAGE:;
#DISCIMAGE:;
#LYRICSPATH:;
#CDTITLE:../_YSD cdtitles/ysd sale5 cdtitle.png;
#MUSIC:molmol.ogg;
#OFFSET:-0.001000;
#SAMPLESTART:77.387001;
#SAMPLELENGTH:15.000000;
#SELECTABLE:YES;
#DISPLAYBPM:128.000000:256.000000;
#BPMS:0.000000=128.000000
,15.000000=256.000000
,46.000000=128.000000
,62.000000=256.000000
,156.000000=182.300003
,157.000000=136.725006
,158.000000=113.938004
,159.000000=91.150002
,160.000000=59.450001
,161.000000=176.000000
,192.000000=256.000000
,256.000000=128.000000
,264.000000=256.000000
,392.000000=128.000000
,408.000000=256.000000
;
#STOPS:14.937500=0.469000
,45.937500=0.234000
,155.937500=0.234000
,191.937500=0.341000
,423.937500=0.234000
,437.937500=0.234000
;
#DELAYS:;
#WARPS:;
#TIMESIGNATURES:0.000000=2=4
,14.000000=1=4
,15.000000=4=4
,43.000000=3=4
,46.000000=2=4
,62.000000=4=4
,153.000000=2=4
,154.000000=3=4
,157.000000=4=4
,189.000000=3=4
,192.000000=4=4
,256.000000=2=4
,264.000000=4=4
,392.000000=2=4
,408.000000=4=4
,420.000000=7=4
,427.000000=4=4
,435.000000=3=4
,438.000000=4=4
;
#TICKCOUNTS:0.000000=4
;
#COMBOS:0.000000=1
;
#SPEEDS:0.000000=1.000000=0.000000=0
;
#SCROLLS:0.000000=1.000000
;
#FAKES:;
#LABELS:0.000000=Song Start
,161.000000=47.727 seconds
;
#BGCHANGES:0.000=molmol.avi=1.000=0=0=0=StretchNoLoop====,
99999=-nosongbg-=1.000=0=0=0 // don't automatically add -songbackground-
;
#KEYSOUNDS:;
#ATTACKS:
;
#LASTSECONDHINT:133.000000;

//---------------dance-single - ----------------
#NOTEDATA:;
#CHARTNAME:;
#CHARTHASH:871558594;
#STEPSTYPE:dance-single;
#BANNER:;
#DESCRIPTION:;
#CHARTSTYLE:;
#DIFFICULTY:Beginner;
#METER:10;
#METERF:0.000000;
#RADARVALUES:0.293628,0.494842,0.236867,0.114613,0.007641,269.000000,238.000000,31.000000,15.000000,0.000000,0.000000,0.000000,0.000000,0.000000,0.293628,0.494842,0.236867,0.114613,0.007641,269.000000,238.000000,31.000000,15.000000,0.000000,0.000000,0.000000,0.000000,0.000000;
#CREDIT:ヨセフ;
#DISPLAYBPM:128.000000:256.000000;
#NOTES:
0000
0000
0000
0000
,
0000
0000
0000
0000
,
1000
0000
0100
0000
,
1000
0000
0001
0100
,
0000
0000
0000
0010
,
0000
1000
0000
0001
,
0000
0000
0000
0100
,
0000
0010
0000
1000
,
0000
0000
0000
0100
,
0000
0010
0000
0001
,
0000
0000
0000
1000
,
1000
1000
1001
0000
,
0001
0000
0100
0000
,
0010
0000
1000
0000
,
0100
0000
0010
0000
,
0002
0003
1001
0000
,
0000
0000
0001
0000
,
0000
0000
0100
0000
,
0000
0000
0010
0000
,
0000
0000
1000
0000
,
0000
0000
0100
0000
,
0000
0000
0010
0000
,
0000
0000
0002
0003
,
2000
3000
0010
0000
,
0100
0000
0010
0000
,
0000
0000
1000
0000
,
0001
0000
1000
0000
,
0000
0000
0100
0000
,
0010
0000
0100
0000
,
0000
0000
1000
0000
,
0001
0000
1000
0000
,
0000
0000
0001
0000
,
0100
0000
0010
0000
,
0000
0000
1000
0000
,
0100
0000
0010
0000
,
0000
0000
0001
0000
,
1000
0000
0010
0000
,
0000
0000
0100
0000
,
0001
0000
0000
0000
0000
0000
0000
0000
0000
0000
0000
0000
0000
0000
0000
0000
0000
0000
0000
0000
0000
0000
0000
0000
0000
0000
0000
0000
0000
0000
0000
0000
2000
0000
0000
0000
0000
0000
0000
0000
0000
0000
0000
0000
0000
0000
0000
0000
0000
0000
0000
0000
0000
0000
0000
0000
0000
0000
0000
0000
0000
0000
0000
3000
,
0000
0000
0000
0000
,
0000
1001
0000
0001
,
0000
0100
0000
0000
0000
0000
0020
0000
,
0030
1000
0000
0100
,
0000
0010
0000
0000
0000
0000
0002
0000
,
0003
0100
0000
0010
,
0000
1000
0000
0000
0000
0000
0002
0000
,
0003
0010
0000
0100
,
0000
0000
0000
0000
0000
0000
0000
0000
1000
0000
0000
0000
0000
0000
0000
0000
0002
0000
0000
0000
0000
0000
0000
0000
0000
0000
0000
0000
0000
0000
0000
0000
0000
0000
0000
0000
0000
0000
0000
0000
0000
0000
0000
0000
0000
0000
0000
0000
0000
0000
0000
0000
0000
0000
0000
0000
0000
0000
0000
0000
0000
0000
0000
0003
,
1000
0001
1001
0000
,
0001
1000
1001
0000
,
0100
0010
0110
0000
,
0010
0100
0110
0000
,
1000
0010
1010
0000
,
0001
0010
0011
0000
,
1000
0100
1100
0000
,
0001
0100
0010
1000
,
1010
0000
1010
0000
,
0001
0010
1000
0010
,
0011
0000
0011
0000
,
1000
0010
0001
0010
,
1010
0000
1010
0000
,
0001
0010
1000
0010
,
0001
0100
0010
1000
,
0001
0100
0010
1000
,
0001
0000
0000
0000
,
0000
0000
0000
0000
,
1000
0000
0000
0000
,
0010
0000
0100
0000
,
0001
0000
0000
0000
,
1000
0000
0100
0000
,
0010
0000
0000
0000
,
0001
0000
1000
0000
,
0010
0000
0000
0000
,
0200
0300
0002
0003
,
0100
0000
0000
0000
,
0010
0000
1000
0000
,
0001
0000
0000
0000
,
1000
0000
0100
0000
,
0010
0000
0000
0000
,
0001
0000
0100
0000
,
0010
0000
1000
0000
,
0001
0000
1000
0000
,
0110
0000
0000
0000
,
1001
0000
0000
0000
,
0010
0000
0100
0000
,
0010
0000
0000
0000
,
1001
0000
0000
0000
,
0110
0000
0000
0000
,
1000
0000
0001
0000
,
0100
0000
0000
0000
,
0110
0000
0000
0000
,
1001
0000
0000
0000
,
0010
0000
0100
0000
,
1000
0000
0000
0000
,
1001
0000
0000
0000
,
0001
0000
0100
0000
,
0020
0000
0030
0000
,
2000
0000
3000
0000
,
0001
0000
1000
0000
,
0100
0000
0010
0000
,
0001
0000
0100
0000
,
0010
0000
1000
0000
0001
0000
0200
0300
,
0010
1000
1001
0000
,
0001
0010
0110
0000
,
1000
0010
0110
0000
,
0001
0000
1000
0000
1100
0000
0000
0010
,
0001
1001
0000
1000
,
0010
0110
0000
0001
,
1000
1100
0000
0001
,
0100
0010
1000
0010
,
1000
0010
0100
0001
,
0100
0001
1000
0100
,
1000
0100
0010
0001
,
0010
0001
1000
0010
,
1000
0010
0100
0001
,
0100
0001
1000
0100
,
0010
0001
0100
0010
,
1000
0001
0220
0330
;

//---------------dance-single - ----------------
#NOTEDATA:;
#CHARTNAME:;
#CHARTHASH:2088593693;
#STEPSTYPE:dance-single;
#BANNER:;
#DESCRIPTION:;
#CHARTSTYLE:;
#DIFFICULTY:Easy;
#METER:13;
#METERF:0.000000;
#RADARVALUES:0.612362,0.763133,0.511939,0.068768,0.034384,561.000000,494.000000,67.000000,9.000000,0.000000,0.000000,0.000000,0.000000,0.000000,0.612362,0.763133,0.511939,0.068768,0.034384,561.000000,494.000000,67.000000,9.000000,0.000000,0.000000,0.000000,0.000000,0.000000;
#CREDIT:ヨセフ;
#DISPLAYBPM:128.000000:256.000000;
#NOTES:
0000
0000
0000
0000
,
0000
0000
0000
0000
,
1000
0001
0100
0000
0010
0000
1000
0000
,
0001
0010
0100
0000
1000
0000
0010
0000
,
0100
0001
0000
1000
,
0100
0010
0000
0001
,
0100
0010
0000
1000
,
0001
0010
1000
0010
,
0001
1000
0000
0010
,
0100
0001
0000
0010
,
0100
1000
0000
0010
,
0100
0001
1001
1000
,
0100
0000
0010
0000
0001
0000
0000
0000
1000
0000
0010
0000
0100
0000
0000
0001
,
0000
1000
0000
0010
0000
0000
0000
0000
0100
0000
0000
0000
0001
0000
0000
0000
,
1000
0000
0100
0000
0010
0000
0000
0000
0001
0000
1000
0000
0010
0000
0000
0100
,
0000
0001
0000
1000
0000
0000
0000
0000
1100
0000
0000
0000
0000
0000
0000
0000
,
0110
0000
0010
0001
0000
1000
0000
0010
,
0000
0100
0000
0001
1000
0000
0001
0000
,
0010
0000
0100
1000
0000
0001
0000
0100
,
0000
0010
0000
0000
1000
0000
0001
0000
,
0010
0000
0100
1000
0000
0010
0000
0010
,
0000
0100
0001
0000
1000
0000
0100
0010
,
0000
0001
0000
1000
0002
0000
0000
0000
,
0203
0000
0310
1000
,
0001
1000
0010
0100
,
0001
1000
0001
0010
,
0100
1000
0010
0100
,
0001
1000
0100
0010
,
0001
0100
0010
1000
,
0001
0010
0100
1000
,
0010
0100
0001
1000
,
0100
0010
0011
0001
,
1000
0010
0110
0100
,
0001
1000
1100
0100
,
0010
0001
1001
1000
,
0010
0100
0101
0001
,
1000
0100
0110
0010
,
0001
1000
0110
0001
,
1000
0010
0110
0002
,
0000
0000
0000
0000
,
0000
1003
0010
0110
,
0000
0101
0000
0000
0001
1000
0100
0000
,
0010
0001
1000
1010
,
0000
0110
0000
0000
0100
0001
1000
0000
,
0100
0010
0001
1001
,
0000
1010
0000
0000
0010
0100
0001
0000
,
0010
0100
1000
1010
,
0000
0010
0100
0000
0001
0000
1001
0000
,
1000
1100
0001
0101
,
1000
1010
0001
0011
,
1000
1100
0001
0011
,
1000
0010
1000
0000
0001
0000
0010
0000
,
0100
1100
0001
0011
,
1000
1010
0100
1001
,
0010
0101
0010
1100
,
1000
0001
1000
0000
0001
1000
0001
0000
,
0110
0110
1001
1001
,
1000
0010
1000
0000
0001
0100
0001
0000
,
1100
1100
0011
0011
,
1000
0001
1000
0001
0100
0010
0100
0010
,
1000
1010
0011
0011
,
0001
0100
0001
0000
1000
0010
1000
0000
,
1010
1010
0011
0011
,
0001
0010
0100
1000
0010
0100
0001
1000
,
0100
0000
0000
0000
,
0000
0000
0000
2000
,
3001
0100
0010
0100
,
0001
1000
0001
0100
,
0010
0100
0001
1000
,
0100
0010
0001
1000
,
0010
0100
0010
1000
,
0001
1000
0100
0010
,
0001
0100
0010
1000
,
0002
0000
2003
0000
,
3100
0010
0100
1000
,
0001
0100
0010
0100
,
0001
0010
0100
1000
,
0010
0100
0001
1000
,
0100
0010
0001
0100
,
0010
1000
0001
0010
,
1000
0010
0001
1000
,
0010
0001
0010
1000
,
1100
0001
0100
0010
,
0100
0001
1000
0100
,
0110
0010
0001
1000
,
0010
0100
0001
1000
,
1100
0100
0010
0001
,
1000
0010
0100
0001
,
1001
1000
0100
0001
,
0200
0000
2300
0000
,
3001
0100
0010
1000
,
0100
0010
0001
1000
,
1010
0010
0100
0010
,
1000
0001
0010
0100
,
1100
1000
0001
0100
,
1000
0100
0001
0010
,
1000
0000
0000
0010
0000
0000
0001
0000
,
1000
0010
0100
0001
,
1000
0000
0100
0000
0010
0001
1000
0000
,
0010
0000
0100
0000
0001
0000
0000
1000
0000
0100
0000
0010
0000
0000
0000
0000
,
0001
0000
1000
0000
0010
0100
0001
0000
,
1000
0000
0100
0000
0010
0001
0200
0000
,
0310
1000
1001
0001
,
0010
0100
1100
1000
,
0001
0100
0110
0010
,
1000
0000
0001
0000
0010
0100
0010
0100
,
1001
0110
1001
1000
,
1100
0001
0101
1000
,
0100
0000
0011
0000
1000
0000
0010
0100
,
0010
0100
0001
0100
0001
0000
0101
0000
,
0100
0010
0100
0010
0100
0000
0101
0000
,
0001
1000
0001
1000
0001
0000
1001
0000
,
1000
0100
1000
0100
1000
0000
1010
0000
,
0010
0100
0010
0100
0010
0000
0110
0000
,
1000
0001
1000
0001
1000
0000
0110
0000
,
0001
1000
0001
1000
0001
1000
0010
1000
,
0010
0100
0001
0100
0001
0010
0100
1000
,
0010
0100
0001
0010
0100
0000
0000
0000
;

//---------------dance-single - ----------------
#NOTEDATA:;
#CHARTNAME:;
#CHARTHASH:834584511;
#STEPSTYPE:dance-single;
#BANNER:;
#DESCRIPTION:;
#CHARTSTYLE:;
#DIFFICULTY:Medium;
#METER:15;
#METERF:0.000000;
#RADARVALUES:0.661482,0.763133,0.114613,0.076409,0.145177,606.000000,591.000000,15.000000,10.000000,0.000000,0.000000,0.000000,0.000000,0.000000,0.661482,0.763133,0.114613,0.076409,0.145177,606.000000,591.000000,15.000000,10.000000,0.000000,0.000000,0.000000,0.000000,0.000000;
#CREDIT:ヨセフ;
#DISPLAYBPM:128.000000:256.000000;
#NOTES:
0000
0000
0000
0000
,
0000
0000
0000
0000
,
1000
0000
0001
0000
0100
0000
0000
0010
0000
1000
0000
0001
0000
0000
0000
0000
,
1000
0000
0100
0000
0010
0000
0000
0001
0000
1000
0000
0010
0100
0000
0000
0000
,
0001
0000
1000
0000
0000
0100
0000
0010
,
0000
0001
0000
0100
0000
0000
0010
0000
,
1000
0000
0001
0000
0000
1000
0000
0100
,
0000
0001
0000
0100
0000
0000
1000
0000
,
0001
0000
0100
0000
0000
0010
0000
1000
,
0000
0100
0000
0010
0000
0000
0001
0000
,
1000
0000
0010
0000
0000
0100
0001
0000
,
1000
0000
0000
0000
0100
0000
0000
0000
0010
0000
0000
0000
0001
0000
1000
0010
,
0000
0100
0000
0001
0000
0000
0000
0000
1000
0000
0000
0000
0100
0000
0010
0001
,
0000
1000
0000
0010
0000
0100
0000
0000
0001
0000
0000
0000
1000
0000
0100
0010
,
0000
0001
0000
0001
0000
0100
0010
0000
1000
0000
0000
0001
0000
0010
0000
0100
,
0000
1000
0000
0001
2000
0000
0000
0000
3010
0000
0000
0000
0100
0000
0000
0000
,
0001
0100
0010
1000
,
0001
0000
0100
0000
0010
1000
0010
0000
,
0100
0001
1000
0100
,
0010
0000
0001
0000
1000
0001
1000
0000
,
0010
0100
0010
1000
,
0001
0000
1000
0000
0100
0000
0010
0001
,
0000
1000
0000
0010
0200
0000
0001
0000
,
0320
1000
0130
0001
,
0101
0000
1000
0100
,
0110
0000
0001
1000
,
1010
0000
0001
1000
,
1100
0000
0100
0010
,
0011
0000
1000
0010
,
0110
0000
0001
0010
,
0110
0000
1000
0001
,
0101
0000
1000
0100
,
0010
0000
0000
0001
0000
1000
0000
0010
,
0000
0100
0000
0000
0001
0000
1000
0000
,
0100
0000
0000
0010
0000
0001
0000
0100
,
0000
0010
0000
0000
0001
0000
0010
0000
,
1000
0000
0000
0100
0000
0010
0000
0001
,
0000
1000
0000
0000
0010
0000
0001
0000
,
0010
0000
0000
1000
0000
0100
0000
0020
,
0000
0000
0000
0000
,
0000
0031
1000
0010
,
0100
0001
0000
0100
0010
0000
1000
0000
,
0001
1000
0100
0010
,
0001
0010
0000
0100
0010
0000
0001
0000
,
1000
0010
0100
0001
,
0010
0100
0000
0010
0001
0000
1000
0000
,
0010
0100
0001
1000
,
0100
0000
0001
0100
1000
0010
0100
0001
,
1000
0010
0100
0000
0001
1000
0010
0000
,
0110
1000
1001
0001
,
1000
0100
0010
0000
0001
0100
0010
0000
,
0001
0010
0100
0001
0010
0100
1000
0010
,
0100
0001
1000
0000
0100
0010
0001
0000
,
0011
1000
1010
0001
,
1000
0100
0010
0000
0001
0100
0010
0000
,
1000
0100
0001
0100
1000
0100
0001
0100
,
1000
0001
0100
0000
0010
1000
0001
0000
,
0010
0100
1000
0000
0010
0100
0001
0000
,
1000
0100
0010
0000
0001
0100
0010
0000
,
0001
0010
0100
0001
0010
0100
1000
0010
,
0100
0001
1000
0000
0100
0010
0001
0000
,
1000
0010
0100
0000
0001
0010
0100
0000
,
1000
0010
0100
0000
0001
1000
0100
0000
,
0001
0100
1000
0001
0100
1000
0100
0001
,
1000
0000
0000
0000
,
0000
0000
0000
0020
,
1030
0000
0001
0100
0000
0001
0100
0000
,
0010
0000
1000
0001
0000
1000
0001
0000
,
1000
0000
0100
0010
0000
0100
0010
0000
,
0001
1000
0000
0010
0000
1000
0001
0000
,
1000
0000
0100
0010
0000
0100
0010
0000
,
0001
0000
1000
0010
0000
1000
0010
0000
,
0200
0001
0320
1000
,
0230
1000
0302
0010
,
1003
0000
0100
0010
0000
0100
0010
0000
,
0001
0000
1000
0010
0000
1000
0010
0000
,
0100
0000
0001
0010
0000
0001
0010
0000
,
0100
1000
0000
0010
0000
1000
0100
0000
,
0010
0000
0001
0100
0000
0001
0100
0000
,
0010
0000
1000
0001
0000
1000
0001
0000
,
1000
0000
0100
0010
0000
0100
0010
0000
,
0001
0000
0100
0010
1000
0001
0100
0000
,
0010
1000
0000
0001
0000
0001
1000
0000
,
0100
0000
0010
0001
1000
0000
0010
0100
,
0001
0000
1000
0100
0010
0000
0001
0100
,
0010
1000
0000
0001
0000
0010
0100
0000
,
0000
1000
0100
0010
,
0001
0100
0000
0010
0000
1000
0001
0000
,
0001
0000
0010
0000
0001
0100
0010
0000
,
1000
0000
0000
0010
0000
0000
0000
0000
,
0100
0001
0000
1000
0000
1000
0100
0000
,
0010
0000
0001
0100
0010
0000
1000
0001
,
0010
0000
0100
1000
0010
0000
0100
0001
,
1000
0100
0000
0010
0000
0001
0100
0000
,
0000
0010
1000
0001
,
1000
0100
0000
0010
0000
0001
0100
0000
,
0010
0001
0000
0010
0000
0100
0001
0000
,
1000
0000
0100
0000
0010
0001
0100
0000
,
0010
0000
0000
0000
1000
0000
0001
0100
0000
0010
0000
1000
0000
0000
0000
0000
,
0001
0000
0000
0000
0010
0000
0100
1000
0000
0001
0000
0100
0000
0010
0000
0000
,
1000
0000
0000
0000
0001
0000
0010
0100
0000
1000
0000
1000
0000
0010
0100
0000
,
0001
0000
0000
1000
0000
0100
0000
0010
0000
0001
0000
1000
0020
0000
0000
0000
,
0130
0001
1000
0000
0100
0010
0001
0000
,
0100
0010
1000
0010
0100
0001
1000
0000
,
0100
0010
0001
0000
1000
0010
0100
0000
,
0001
0010
0100
0010
1000
0010
0001
1000
,
1010
0000
0101
0000
1100
0000
1000
0100
,
0010
0100
0001
0100
1000
0000
0001
0100
,
0010
0000
1000
0100
0010
0000
0001
0100
,
0010
0001
0010
1000
0001
0100
0001
0100
,
0010
0100
0010
0100
0010
1000
0010
1000
,
0001
0010
0001
0010
0100
1000
0100
1000
,
0010
1000
0010
1000
0001
0100
0001
0010
,
0001
0100
0001
0010
0100
1000
0100
1000
,
0010
0100
0010
0100
0001
0010
0001
0010
,
0100
1000
0100
1000
0001
0100
0001
0100
,
1000
0100
1000
0100
0001
0010
1000
0010
,
0001
1000
0010
0001
0010
0000
0000
0000
;

//---------------dance-single - ----------------
#NOTEDATA:;
#CHARTNAME:;
#CHARTHASH:428360361;
#STEPSTYPE:dance-single;
#BANNER:;
#DESCRIPTION:;
#CHARTSTYLE:;
#DIFFICULTY:Hard;
#METER:18;
#METERF:0.000000;
#RADARVALUES:0.796834,0.944699,0.336199,0.129895,0.194842,730.000000,686.000000,44.000000,17.000000,0.000000,0.000000,0.000000,0.000000,0.000000,0.796834,0.944699,0.336199,0.129895,0.194842,730.000000,686.000000,44.000000,17.000000,0.000000,0.000000,0.000000,0.000000,0.000000;
#CREDIT:ヨセフ;
#DISPLAYBPM:128.000000:256.000000;
#NOTES:
// measure 0
0000
0000
0000
0000
,  // measure 1
0000
0000
0000
0000
,  // measure 2
1000
0000
1000
0000
0100
0010
0000
0100
0000
0100
0000
1000
0000
0001
0100
0000
,  // measure 3
0010
0000
0010
0000
1000
0100
0000
0010
0000
0010
0000
0001
1000
0000
0000
0000
,  // measure 4
1000
0000
0010
0100
0000
0001
0000
0001
,  // measure 5
0000
0010
0000
0100
1000
0000
0001
0000
,  // measure 6
0001
0000
0100
0010
0000
0100
0000
0001
,  // measure 7
0010
0100
0001
0100
0010
0001
1000
0000
,  // measure 8
1000
0000
0010
0100
0000
0001
0000
0001
,  // measure 9
0000
0010
0000
0100
1000
0000
0001
0000
,  // measure 10
0001
0000
0100
0010
0000
1000
0001
1000
,  // measure 11
0001
0000
1000
0000
0001
0000
1000
0000
0001
0000
0000
0000
1000
0000
0100
0010
,  // measure 12
0000
0100
0000
1000
0000
0001
0000
0100
0010
0000
1000
0010
0100
0000
0001
1000
,  // measure 13
0000
0100
0000
0010
0000
0001
0000
0000
0100
0010
1000
0010
0100
0000
0001
0010
,  // measure 14
0000
0100
0000
0100
0000
1000
0001
0000
0100
0000
0001
0010
0000
0100
0000
0001
,  // measure 15
0000
0100
0000
1000
0002
0000
0000
0000
0103
0000
0000
0000
0010
0000
0000
0000
,  // measure 16
0200
0000
0301
0010
0000
0100
0000
1000
,  // measure 17
0000
0010
0000
0100
0001
0010
0100
1000
,  // measure 18
0010
0100
0001
1000
0000
1100
0000
0110
,  // measure 19
0000
0011
0000
0000
0001
0100
0010
0100
,  // measure 20
0001
0010
0100
0001
0000
0100
0000
0100
,  // measure 21
0000
1000
0001
0000
0102
0000
0013
0100
,  // measure 22
0000
1000
0000
0010
0100
0001
0100
0001
,  // measure 23
1000
0100
1000
0100
0010
0001
0000
0100
,  // measure 24
0000
0001
0010
0100
0010
0001
1000
0010
,  // measure 25
0100
0001
1000
0000
0100
0010
0000
0100
,  // measure 26
0000
1000
0010
0100
0001
0010
1000
0010
,  // measure 27
0100
1000
0001
0100
0010
1000
0000
0100
,  // measure 28
0000
1000
0010
0100
0001
1000
0100
0010
,  // measure 29
0100
1000
0010
0000
0100
0001
0000
0010
,  // measure 30
0000
0100
0010
0001
1000
0010
0100
1000
,  // measure 31
0100
0001
0010
0100
1000
0000
1100
0000
,  // measure 32
0001
0100
0000
0110
0000
1010
0000
1001
,  // measure 33
0000
0001
0010
0000
0100
0000
1100
0000
,  // measure 34
1000
0010
0000
0110
0000
0101
0000
1001
,  // measure 35
0000
1000
0100
0000
0011
0000
1010
0000
,  // measure 36
1000
0100
0000
0011
0000
1010
0000
0101
,  // measure 37
0000
0001
0010
0000
0101
0000
1100
0000
,  // measure 38
1000
0010
0000
0100
1000
0001
0010
2000
,  // measure 39
0000
0000
0000
0000
,  // measure 40
0000
3001
0100
0110
,  // measure 41
0010
1000
0000
0001
0010
0100
0001
1000
,  // measure 42
0010
0001
1000
0000
0010
0000
0110
0000
,  // measure 43
0100
0001
0000
1000
0100
0010
0001
0100
,  // measure 44
0010
1000
0001
0011
,  // measure 45
0010
0100
0000
1000
0001
0100
0010
0001
,  // measure 46
1000
0100
0001
0000
0010
0000
0110
0000
,  // measure 47
0100
1000
0100
0001
0010
1000
0010
0001
,  // measure 48
1000
0010
0001
0000
1000
0100
0001
0000
,  // measure 49
1000
0100
0001
0000
1000
0010
0001
0000
,  // measure 50
1000
0100
0001
0000
0100
1000
0010
0000
,  // measure 51
0001
1000
0100
0001
0010
1000
0001
1000
,  // measure 52
0010
0001
0100
0000
1000
0100
0001
0000
,  // measure 53
0010
1000
0001
0000
1000
0010
0001
0000
,  // measure 54
0100
0010
0001
0000
1000
0100
0001
0000
,  // measure 55
1000
1000
0001
0001
1000
1000
0001
0001
,  // measure 56
1000
0100
0110
0000
0001
0100
0110
0000
,  // measure 57
1000
0010
0001
1000
0001
0010
1000
0100
,  // measure 58
0010
0001
1001
0000
1000
0010
0110
0000
,  // measure 59
0100
1000
0001
0010
1000
0100
0001
1000
,  // measure 60
0001
0100
0110
0000
0010
0001
0101
0000
,  // measure 61
0100
1000
0001
1000
0100
0010
1000
0100
,  // measure 62
0001
0100
1100
0000
1000
0010
0110
0000
,  // measure 63
0100
1000
0001
1000
0100
0001
0010
1000
,  // measure 64
0010
0000
0000
0000
,  // measure 65
0000
0000
0000
0002
,  // measure 66
1003
0010
0000
0100
0000
0100
0001
0000
,  // measure 67
0020
0000
0130
1000
0001
0000
0100
0001
,  // measure 68
1000
0000
0010
0100
0001
0000
1000
0100
,  // measure 69
0010
0100
0000
1000
0000
0001
0200
0000
,  // measure 70
0300
0010
0100
0001
,  // measure 71
1000
0100
0000
0010
0000
0010
0100
0000
,  // measure 72
1000
0000
0010
0000
0001
0010
0100
0000
,  // measure 73
0001
0000
0000
2000
0000
0000
3000
0000
,  // measure 74
0100
0010
0000
0001
0000
0001
0100
0000
,  // measure 75
0020
0000
1030
0100
0010
0000
0001
0100
,  // measure 76
0010
0000
1000
0001
0010
0000
0100
0010
,  // measure 77
0001
1000
0000
0010
0000
0100
0002
0000
,  // measure 78
0003
1000
0100
0010
,  // measure 79
0001
0100
0000
0010
0000
1000
0100
0000
,  // measure 80
0010
1000
0000
0010
0000
0001
0100
0000
,  // measure 81
0010
0000
1000
0000
0100
0010
0001
0000
,  // measure 82
1000
0010
0000
0100
0000
0100
0001
0000
,  // measure 83
0020
0000
0130
1000
0001
0000
0100
0010
,  // measure 84
1000
0000
0100
0010
0001
0000
1000
0010
,  // measure 85
0100
0001
0000
0010
0000
0100
2000
0000
,  // measure 86
3000
0010
0100
0001
,  // measure 87
1000
0100
0000
0010
0000
0010
0001
0000
,  // measure 88
0100
0000
0010
0000
0001
0010
1000
0000
,  // measure 89
0100
0000
0000
0020
0000
0000
0030
0000
,  // measure 90
0001
0100
0000
0010
0000
0010
1000
0000
,  // measure 91
0200
0000
0310
0001
1000
0000
0010
0100
,  // measure 92
0001
0000
0010
0100
1000
0000
0001
0100
,  // measure 93
0010
1000
0000
0100
0000
0010
0002
0000
,  // measure 94
0003
0100
0010
1000
,  // measure 95
0001
1000
0000
0100
0000
0010
0001
0000
,  // measure 96
0100
1000
0000
0100
0000
0010
1000
0000
,  // measure 97
0100
0000
0010
0000
0001
0100
0010
0000
,  // measure 98
1000
0000
0000
0000
0001
0000
0010
0100
0000
0010
0000
0001
0000
1000
0000
0010
,  // measure 99
0100
0000
0001
0100
0010
0000
1000
0001
0000
0010
0000
0100
0000
1000
0000
0000
,  // measure 100
0010
0100
0001
0100
0010
0000
1000
0100
0000
0010
0000
0010
0000
0001
1000
0000
,  // measure 101
0010
0000
1000
0100
0000
0010
0000
1000
0000
0010
0000
0001
2000
0000
0000
0000
,  // measure 102
3010
0100
0101
0000
0001
0010
0110
0000
,  // measure 103
0100
1000
1010
0000
0010
0100
0101
0000
,  // measure 104
0001
1000
1100
0000
0100
0010
0011
0000
,  // measure 105
0001
1000
1010
0000
0010
0001
1000
0100
,  // measure 106
0001
1000
1100
0000
0110
0000
0001
1000
,  // measure 107
1010
0000
0010
0100
0101
0000
0001
0010
,  // measure 108
0110
0000
1000
0010
0110
0000
0100
1000
,  // measure 109
0001
1000
0100
0001
0010
1000
0001
1000
,  // measure 110
0010
0001
1000
0010
0001
1000
0100
0001
,  // measure 111
1000
0100
0010
1000
0001
0100
0010
1000
,  // measure 112
0010
0001
1000
0010
0100
1000
0001
0010
,  // measure 113
0100
1000
0001
1000
0100
0001
0010
1000
,  // measure 114
0001
0100
1000
0010
0001
1000
0001
0010
,  // measure 115
1000
0001
0010
1000
0010
0001
0100
1000
,  // measure 116
0010
1000
0100
0001
0010
1000
0010
0001
,  // measure 117
1000
0100
0001
0010
2000
0000
3000
0000
;

//---------------dance-single - ----------------
#NOTEDATA:;
#CHARTNAME:;
#CHARTHASH:618696054;
#STEPSTYPE:dance-single;
#BANNER:;
#DESCRIPTION:;
#CHARTSTYLE:;
#DIFFICULTY:Challenge;
#METER:19;
#METERF:0.000000;
#RADARVALUES:0.996589,1.484527,0.374403,0.168099,0.672397,913.000000,864.000000,49.000000,22.000000,0.000000,0.000000,1.000000,0.000000,0.000000,0.996589,1.484527,0.374403,0.168099,0.672397,913.000000,864.000000,49.000000,22.000000,0.000000,0.000000,1.000000,0.000000,0.000000;
#CREDIT:ヨセフ;
#DISPLAYBPM:128.000000:256.000000;
#NOTES:
// measure 0
0000
0000
0000
0000
,  // measure 1
0000
0000
0000
0000
,  // measure 2
0001
0010
0000
0100
0000
1000
0010
0100
0000
0010
1000
0001
0000
0010
0000
0100
,  // measure 3
1000
0010
0000
0000
0101
0000
0000
0000
0002
0000
0100
0000
1003
0000
0000
0000
,  // measure 4
1000
0000
0001
0100
0000
0010
0000
0010
,  // measure 5
0000
0001
0000
0001
0010
0000
0100
0000
,  // measure 6
0100
0000
0001
0010
0000
0100
0000
1000
,  // measure 7
0100
0001
1000
0010
0001
1000
0010
0000
,  // measure 8
0010
0000
0100
0001
0000
0010
0000
0010
,  // measure 9
0000
1000
0000
1000
0010
0000
0001
0000
,  // measure 10
0001
0000
0100
0010
0000
1000
0001
0010
,  // measure 11
1000
0000
0010
0000
0001
0000
0020
0000
0130
0000
0000
0000
1000
0000
0001
0100
,  // measure 12
0000
0001
0000
0010
0000
0100
0000
1000
0001
0100
0010
0001
0010
0100
0001
1000
,  // measure 13
0000
0100
0000
0010
0000
1000
0010
0001
1000
0100
0010
0100
1000
0010
0100
1000
,  // measure 14
0000
0100
0000
0100
0000
0001
1000
0000
0100
0000
0010
0001
0000
0100
0000
0010
,  // measure 15
0000
0000
0100
0000
0000
0000
0001
0000
1000
0000
0000
0000
0001
1000
0001
1000
0001
0000
0000
0000
0000
0000
0000
0000
0100
0000
0000
0000
0000
0000
0000
0000
,  // measure 16
0010
0000
1000
0100
0000
0010
0000
0100
,  // measure 17
0000
1000
0000
0001
0100
0010
1000
0001
,  // measure 18
1000
0100
0010
0001
1000
0010
0000
0100
,  // measure 19
0000
0001
1000
0000
0100
0010
0100
1000
,  // measure 20
0001
0100
0010
1000
0000
0100
0000
0100
,  // measure 21
0000
0010
0001
0000
0100
0000
0001
1000
,  // measure 22
0000
0000
0100
0000
0010
0000
0001
0000
1000
0100
1000
0100
1000
0000
0000
0000
,  // measure 23
0001
0100
0001
0100
0001
0000
0000
0000
1000
0000
0100
0000
0000
0000
0010
0000
,  // measure 24
0001
0000
0100
0100
0100
0100
0100
0100
,  // measure 25
0100
0100
0100
0000
0001
0010
0000
0100
,  // measure 26
1000
0000
0010
1000
0100
0001
0100
1000
,  // measure 27
0001
0000
1000
0010
0100
0001
0000
1000
,  // measure 28
0100
0000
0010
0010
0010
0010
0010
0010
,  // measure 29
0010
0010
0010
0000
0001
0100
0000
0010
,  // measure 30
1000
0000
0100
0010
0001
1000
0010
0001
,  // measure 31
0010
1000
0001
0000
2000
0000
0100
0000
,  // measure 32
0010
0010
0000
0001
3002
1000
0000
0010
,  // measure 33
0000
0100
0000
0000
2003
0000
0010
0000
,  // measure 34
0100
0100
0000
0001
3002
1000
0000
0100
,  // measure 35
0000
0010
0000
0000
2003
0000
0010
0000
,  // measure 36
0100
0100
0000
0010
3002
0010
0000
0100
,  // measure 37
0000
1000
0100
0000
2003
0000
0010
0000
,  // measure 38
0001
0000
0001
0000
0000
0000
3001
0000
1000
0010
1000
0010
0100
0001
0100
0002
,  // measure 39
0000
0000
0000
0000
,  // measure 40
0000
0000
1003
0001
0100
0010
0100
0100
,  // measure 41
1000
0100
0100
0001
0100
0001
0010
0100
,  // measure 42
0001
0100
1000
0010
0100
0001
0100
0100
,  // measure 43
1000
0100
0100
0001
0010
0100
1000
0010
,  // measure 44
0200
0000
0000
0301
1000
0001
1000
0000
0000
0001
0000
0000
0010
0000
0000
0001
0000
0000
0100
0000
0000
0100
0000
0000
,  // measure 45
1000
0010
0010
0001
0100
0010
0001
1000
,  // measure 46
0100
0001
0010
0100
1000
0001
0100
0100
,  // measure 47
1000
0000
0000
0010
0000
0000
1000
0100
1000
0100
0010
0001
0010
0001
1000
0010
0100
0001
1000
0100
0010
0001
1000
0020
,  // measure 48
1030
0001
0101
0000
0001
0010
0110
0000
,  // measure 49
0100
1000
1001
0000
0001
0100
0110
0000
,  // measure 50
0010
1000
1001
0000
0001
0010
0110
0000
,  // measure 51
0100
1000
0100
0000
0010
0000
0001
0000
1000
0010
1000
0000
0001
0000
0100
0000
,  // measure 52
0010
0100
1001
0000
0100
0010
1001
0000
,  // measure 53
1000
0001
0110
0000
0001
1000
0110
0000
,  // measure 54
0001
0100
1010
0000
1000
0100
0011
0000
,  // measure 55
0001
0001
0100
0100
0001
0001
0100
0100
,  // measure 56
0101
1000
1100
0000
1010
0001
0101
0000
,  // measure 57
0100
0000
1000
0000
0001
0000
0010
0000
0100
0001
0100
0001
1000
0001
1000
0100
,  // measure 58
1000
0001
0011
0000
0101
1000
1010
0000
,  // measure 59
0001
0000
0010
0000
1000
0000
0001
0000
0100
0010
0100
0010
0001
1000
0001
1000
,  // measure 60
0010
1000
1010
0000
1100
1000
0101
0000
,  // measure 61
0100
0000
1000
0000
0001
0000
0010
0000
0100
0001
0100
0001
1000
0001
1000
0001
,  // measure 62
0010
0100
1001
0000
1010
0100
1001
0000
,  // measure 63
0001
0100
0001
0100
0010
1000
0010
1000
0001
0010
0001
0010
0100
1000
0001
0100
,  // measure 64
0010
0000
0000
0000
,  // measure 65
0000
0000
0000
0004
,  // measure 66
1003
0010
0000
0100
0000
0100
0001
0000
,  // measure 67
0020
0000
0130
1000
0001
0000
0100
0010
,  // measure 68
0001
0000
0010
0100
0001
0000
1000
0100
,  // measure 69
0010
0100
0000
1000
0000
0001
0100
0000
,  // measure 70
0010
1000
0100
0010
,  // measure 71
0001
0100
0000
0010
0000
1000
0100
0000
,  // measure 72
1000
0000
0010
0000
0001
0010
1000
0000
,  // measure 73
0002
0100
2003
0100
,  // measure 74
3001
0100
0000
0010
0000
0010
1000
0000
,  // measure 75
0200
0000
0310
0001
0100
0000
0010
1000
,  // measure 76
0100
0000
0010
0100
1000
0000
0001
0100
,  // measure 77
0010
0100
0000
0001
0000
0010
0100
0000
,  // measure 78
1000
0010
0100
0001
,  // measure 79
1000
0100
0000
0010
0000
0100
1000
0000
,  // measure 80
0010
0001
0000
0010
1000
0100
0010
0000
,  // measure 81
0001
0000
0100
0010
0100
0001
1000
0010
,  // measure 82
1000
0100
0000
0010
0011
0000
0001
0000
,  // measure 83
0101
0000
0100
0001
1001
0000
1000
0100
,  // measure 84
0110
0000
0010
0001
1001
0000
1000
0010
,  // measure 85
0100
0010
0000
1000
1010
0000
0001
0000
,  // measure 86
0011
0010
1001
1000
,  // measure 87
0101
0001
0000
1000
1010
1000
0001
0000
,  // measure 88
0011
0000
0001
0000
0100
0010
1000
0000
,  // measure 89
2010
3100
0012
0103
,  // measure 90
0010
1000
0000
0001
1001
0000
0001
0000
,  // measure 91
0110
0000
1000
0001
0101
0000
0001
1000
,  // measure 92
1100
0000
0001
0100
0101
0000
0001
0010
,  // measure 93
0100
1000
0000
0001
0101
0000
0010
0000
,  // measure 94
1001
1000
0110
0001
,  // measure 95
1010
1000
0100
0010
0001
1000
0001
1000
,  // measure 96
0010
0001
0000
0010
0000
1000
0100
0000
,  // measure 97
0010
0010
1000
0010
0001
0100
0010
0000
,  // measure 98
1000
0000
0000
0000
0100
0000
1000
0010
0000
0100
0001
0010
0000
0001
0000
0100
,  // measure 99
0001
0010
0100
1000
0010
0100
0001
1000
0000
0100
0010
0001
0000
0100
0000
0000
,  // measure 100
0001
0100
0010
0100
0001
0010
0100
0001
0000
0100
0010
0001
0000
1000
0000
0001
,  // measure 101
0100
0000
0010
0000
0000
0000
0000
0000
1010
0000
0000
0000
0000
0000
0000
0000
0020
0000
0000
0000
0100
0000
0000
0000
1030
0001
1000
0001
1000
0001
1000
0001
,  // measure 102
1000
0001
1000
0000
0001
0100
0001
0000
1000
0000
0100
0000
0010
0001
0010
0000
,  // measure 103
0100
0000
1000
0001
1000
0000
0001
0000
0100
0000
0010
0000
1000
0010
1000
0000
,  // measure 104
0001
0100
0001
0000
1000
0010
1000
0000
0001
0000
0010
0000
0100
1000
0100
0000
,  // measure 105
0010
0000
0001
0100
0001
0000
0100
0000
0010
1000
0010
1000
0001
0100
0010
2000
,  // measure 106
3001
0100
0001
0000
1000
0100
1000
0000
0001
1000
0001
0000
0010
0000
0100
1000
,  // measure 107
0100
0000
0010
0000
0001
0000
1000
0000
0010
1000
0010
1000
0001
0100
0001
0000
,  // measure 108
1000
0100
1000
0000
0001
0000
0100
0000
0010
1000
0010
0000
1000
0010
1000
0010
,  // measure 109
0100
0010
0100
0010
0100
0001
0100
0002
1003
0000
0010
0000
0100
0000
0010
0000
,  // measure 110
1000
0001
1000
0001
1000
0010
1000
0010
0100
0000
0001
0000
1000
0000
0100
0000
,  // measure 111
0010
0001
0010
0001
0010
0100
0010
0100
1000
0000
0001
0000
1000
0000
0010
0000
,  // measure 112
0100
0001
0100
0001
1000
0001
1000
0001
0010
0000
0100
0000
0001
0000
0100
0000
,  // measure 113
1000
0100
1000
0100
0010
0100
0010
0001
1000
0000
0001
0000
0100
0000
0010
0000
,  // measure 114
0100
0001
0100
0001
1000
0100
0010
0001
0010
0000
0100
0000
1000
0000
0010
0000
,  // measure 115
0100
0001
1000
0001
1000
0100
0010
0100
1000
0001
0100
0001
0100
0010
1000
0001
,  // measure 116
0010
0001
0010
0100
0010
0100
1000
0001
1000
0100
0010
0100
1000
0001
0100
0010
,  // measure 117
1000
0001
0010
0100
0010
0001
1000
0010
0200
0000
0000
0000
0300
0000
0000
0000
;

//---------------dance-double - ----------------
#NOTEDATA:;
#CHARTNAME:;
#CHARTHASH:97361164;
#STEPSTYPE:dance-double;
#BANNER:;
#DESCRIPTION:;
#CHARTSTYLE:;
#DIFFICULTY:Beginner;
#METER:10;
#METERF:0.000000;
#RADARVALUES:0.301269,0.494842,0.275072,0.145177,0.000000,276.000000,240.000000,36.000000,19.000000,0.000000,0.000000,0.000000,0.000000,0.000000,0.301269,0.494842,0.275072,0.145177,0.000000,276.000000,240.000000,36.000000,19.000000,0.000000,0.000000,0.000000,0.000000,0.000000;
#CREDIT:ヨセフ;
#DISPLAYBPM:128.000000:256.000000;
#NOTES:
00000000
00000000
00000000
00000000
,
00000000
00000000
00000000
00000000
,
00010000
00000000
00001000
00000000
,
01000000
00000000
00100000
10000000
,
00000000
00000000
00000000
00010000
,
00000000
10000000
00000000
01000000
,
00000000
00000000
00000000
00100000
,
00000000
00001000
00000000
00010000
,
00000000
00000000
00000000
00000010
,
00000000
00000100
00000000
00000001
,
00000000
00000000
00000000
00001000
,
00000000
00000100
00000010
00000000
,
00000001
00000000
00000100
00000000
,
00001000
00000000
00010000
00000000
,
00100000
00000000
01000000
00000000
,
00010000
00000000
10010000
00000000
,
00000000
00000000
10000000
00000000
,
01000000
00000000
00100000
00000000
,
00000000
00000000
00001000
00000000
,
00010000
00000000
00000010
00000000
,
00000000
00000000
00000100
00000000
,
00000001
00000000
00000010
00000000
,
00000000
00000000
00000200
00000000
,
00020300
00000000
00031000
00000000
,
00001000
00000000
01000000
00000000
,
01000000
00000000
00100000
00000000
,
00100000
00000000
10000000
00000000
,
10000000
00000000
01000000
00000000
,
01000000
00000000
00010000
00000000
,
00010000
00000000
00001000
00000000
,
00001000
00000000
00000010
00000000
,
00000010
00000000
00000002
00000000
,
00000100
00000000
00002003
00000000
,
00000100
00000000
00003020
00000000
,
00000100
00000000
00020030
00000000
,
00001000
00000000
00030200
00000000
,
00001000
00000000
00020300
00000000
,
00001000
00000000
00230000
00000000
,
01000000
00000000
20300000
00000000
,
00000000
00000000
00000000
00000000
,
00000000
30010000
00000000
01000000
,
00000000
01000000
00000000
00000000
00000000
00000000
00200000
00000000
,
00300000
10000000
00000000
01000000
,
00000000
01000000
00000000
00000000
00000000
00000000
00200000
00000000
,
00300000
00001000
00000000
00010000
,
00000000
00010000
00000000
00000000
00000000
00000000
00000020
00000000
,
00000030
00000100
00000000
00000001
,
00000000
00000001
00002000
00000000
00000000
00000000
00003100
00000000
,
00000010
00000001
00000011
00000000
,
00001000
00000100
00001100
00000000
,
00100000
00010000
00110000
00000000
,
10000000
01000000
11000000
00000000
,
10000000
00100000
10100000
00000000
,
01000000
00010000
01010000
00000000
,
00100000
00001000
00101000
00000000
,
00010000
00000100
00001100
00000000
,
00001000
00001000
00000001
00000001
,
00000101
00000000
00000101
00000000
,
00001000
00001000
00000100
00000100
,
00010000
00001000
01000000
00010000
,
10000000
10000000
00010000
00010000
,
00110000
00000000
00110000
00000000
,
10000000
10000000
00100000
00100000
,
01000000
00100000
00010000
00001000
,
00010000
00000000
00000000
00000000
,
00000000
00000000
00000000
00000000
,
00000100
00000000
00000000
00000000
,
00000010
00000000
00000001
00000000
,
00000100
00000000
00000000
00000000
,
00001000
00000000
00010000
00000000
,
00001000
00000000
00000000
00000000
,
00100000
00000000
00010000
00000000
,
01000000
00000000
00000000
00000000
,
00200000
00000000
20300000
00000000
,
30010000
00000000
00000000
00000000
,
10000000
00000000
01000000
00000000
,
00100000
00000000
00000000
00000000
,
00001000
00000000
00010000
00000000
,
00000010
00000000
00000000
00000000
,
00000100
00000000
00000001
00000000
,
00001000
00000000
00000100
00000000
,
00000010
00000000
00000001
00000000
,
00000101
00000000
00000000
00000000
,
00001001
00000000
00000000
00000000
,
00001100
00000000
00000000
00000000
,
00011000
00000000
00000000
00000000
,
01001000
00000000
00000000
00000000
,
00011000
00000000
00000000
00000000
,
00010100
00000000
00000000
00000000
,
00020000
00000000
00032000
00000000
,
01003000
00000000
00000000
00000000
,
01010000
00000000
00000000
00000000
,
10010000
00000000
00000000
00000000
,
11000000
00000000
00000000
00000000
,
10100000
00000000
00000000
00000000
,
10010000
00000000
00000000
00000000
,
00010000
00000000
00000000
00000000
,
01000000
00000000
00000000
00000000
,
00001000
00000000
00010000
00001000
,
00000010
00000000
00000100
00001000
,
00000010
00000000
00000100
00000001
,
00001000
00000100
00010000
00001000
,
00010000
00001000
00011000
00000000
,
01000000
00010000
01010000
00000000
,
10000000
00010000
10010000
00000000
,
00100000
01000000
01100000
00000000
,
10010000
10010000
00000000
10000000
,
00100000
01100000
00000000
00001000
,
01000000
01010000
00000000
00001000
,
00010000
00011000
00010100
00000000
,
00010100
00000000
00010000
00000010
,
00001000
00000010
00010000
00000000
,
00000010
00000000
00000100
00000010
,
00001000
00000010
00000100
00000000
,
00000001
00000000
00000010
00000100
,
00001000
00000100
00000010
00000000
,
00000001
00000000
00000100
00001000
,
00010000
01000000
20000000
30000000
;

//---------------dance-double - ----------------
#NOTEDATA:;
#CHARTNAME:;
#CHARTHASH:146793080;
#STEPSTYPE:dance-double;
#BANNER:;
#DESCRIPTION:;
#CHARTSTYLE:;
#DIFFICULTY:Easy;
#METER:12;
#METERF:0.000000;
#RADARVALUES:0.547960,0.808023,0.634193,0.068768,0.007641,502.000000,419.000000,83.000000,9.000000,0.000000,0.000000,0.000000,0.000000,0.000000,0.547960,0.808023,0.634193,0.068768,0.007641,502.000000,419.000000,83.000000,9.000000,0.000000,0.000000,0.000000,0.000000,0.000000;
#CREDIT:ヨセフ;
#DISPLAYBPM:128.000000:256.000000;
#NOTES:
00000000
00000000
00000000
00000000
,
00000000
00000000
00000000
00000000
,
00010000
00000000
00000000
00000000
00001000
00000000
00000000
01000000
00000000
00000000
00000000
00010000
00000000
00000000
00000000
00000000
,
10000000
01000000
00100000
00011000
,
00010000
00000010
00000000
00000100
,
00000001
00001000
00000000
00000100
,
00010000
00001000
00000000
01000000
,
00010000
10000000
01000000
00100000
,
00001000
00010000
00000000
00000010
,
00000100
00000001
00000000
00001000
,
00000100
00000010
00000000
00000001
,
00000100
00001000
00010000
00001000
,
00100000
00010000
10000000
00000000
01000000
00000000
00010000
00000000
,
00001000
00010000
00000100
00000000
00001000
00000000
00000010
00000000
,
00000100
00000001
00001000
00000000
00000100
00000000
00000010
00000000
,
00001000
00010000
00100000
00000000
01000000
00000000
00010000
00000000
,
10000000
00000000
01000000
00100000
,
00001000
00000000
00010000
00000010
,
00000100
00000000
00001000
00000100
,
00000010
00000000
00000001
00000100
,
00000010
00000000
00010000
00001000
,
01000000
00000000
00100000
10000000
,
01000000
00000000
00200000
00000000
,
00302000
00000000
00013000
00000000
,
00011000
00000000
00010010
00000000
,
00011000
00000000
00001100
00000000
,
00000011
00000000
00000110
00000000
,
00001001
00000000
00001100
00000000
,
00011000
00000000
00101000
00000000
,
01001000
00000000
10100000
00000000
,
10010000
00000000
00011000
00000000
,
10010000
00000000
10000000
00100000
,
01000000
00000000
00001000
00010000
,
00000100
00000000
00000010
00000001
,
00000100
00000000
00001000
00010000
,
01000000
00000000
10000000
00100000
,
01000000
00000000
00010000
10000000
,
01000000
00000000
00010000
00001000
,
00000100
00000000
00000001
00000020
,
00000000
00000000
00000000
00000000
,
00000000
00000130
00000000
00011000
,
00000000
00001000
00000000
00000000
00100000
00000000
01100000
00000000
,
00000000
10000000
00000000
10100000
,
00000000
00010000
00000000
00000000
01000000
00000000
00011000
00000000
,
00000000
00000010
00000000
00001001
,
00000000
00001000
00000000
00000000
00000100
00000000
00000011
00000000
,
00000000
00001000
00000000
00001100
,
00000000
00010000
00001000
01001000
,
01000000
01100000
00010000
10010000
,
10000000
01000000
00010000
00001000
,
00000010
00000110
00001000
00001001
,
00000001
00000100
00001000
00010000
,
00100000
01100000
10000000
10010000
,
00010000
01000000
00100000
00010000
,
00001000
00011000
00000010
00001010
,
00001000
00000100
00000001
00000100
,
00010000
00011000
00001000
00011000
,
00100000
00001000
00100000
00000000
00000010
00010000
00000010
00000000
,
00000100
00000110
00000001
00001001
,
00001000
00000100
00001000
00000100
00010000
00000100
00010000
00001000
,
00010000
00011000
01000000
01010000
,
00010000
00100000
00010000
00000000
10000000
00100000
10000000
00000000
,
01000000
01100000
00010000
10010000
,
10000000
00100000
10000000
00100000
01000000
00001000
01000000
00001000
,
00010000
00000000
00000000
00000000
,
00000000
00000000
00000000
00000200
,
00000310
00000001
00000100
00001000
,
00000100
00000001
00000010
00001000
,
00010000
00001000
00000100
00000001
,
00000010
00001000
00010000
00100000
,
10000000
01000000
00010000
01000000
,
10000000
00100000
01000000
00001000
,
00010000
00100000
00010000
00000010
,
00002000
00000000
00003200
00000000
,
00000310
00000001
00000100
00001000
,
00010000
01000000
10000000
00100000
,
00010000
00001000
00010000
01000000
,
10000000
00100000
00010000
00001000
,
00100000
01000000
10000000
00100000
,
01000000
00001000
00010000
00000100
,
00000001
00000100
00001000
00000010
,
00000100
00001000
00010000
00100000
,
01100000
00000000
01010000
00000000
,
00011000
00000100
00000110
00000000
,
00001001
00000000
00000101
00000000
,
00001100
00010000
00011000
00000000
,
01001000
00000000
01100000
00000000
,
10010000
01000000
01100000
00000000
,
00011000
00000000
00010100
00000000
,
00002100
00000000
00003002
00000000
,
00000013
00000000
00001100
00000000
,
00011000
00100000
01100000
00000000
,
11000000
00000000
01010000
00000000
,
00011000
00000100
00000110
00000000
,
00000011
00000000
00001010
00000000
,
00010000
00001000
00010000
00000000
00001000
00010000
00001000
00000000
,
00100000
00000000
00000000
01000000
00000000
00000000
00100000
00000000
,
00010000
10000000
00100000
01000000
,
00010000
00000000
10000000
00000000
01000000
00100000
00001000
00000000
,
00010000
00000000
00000010
00000000
00000100
00000001
00001000
00000000
,
00000100
00000000
00000010
00000000
00001000
00010000
00100000
00000000
,
01000000
00000000
00010000
00000000
10000000
01000000
00200000
00000000
,
00301000
00011000
00010010
00000000
,
00000110
00001001
00001100
00000000
,
00011000
01010000
10100000
00000000
,
11000000
00000000
00110000
00000000
00001000
00010000
00001000
00010000
,
00011000
00000110
00001001
00000101
,
00001010
00001100
00000000
00011000
,
00110000
00000000
01100000
00000000
00000000
00000000
10000000
00100000
,
10000000
00100000
10000000
00100000
01000000
00000000
01000000
00000000
,
00010000
01000000
00010000
01000000
00010000
00000000
00010000
00000000
,
00100000
00001000
00100000
00001000
00100000
00000000
00100000
00000000
,
00001000
00010000
00001000
00010000
00001000
00000000
00001000
00000000
,
00010000
00000100
00010000
00000100
00010000
00000000
00010000
00000000
,
00000010
00001000
00000010
00001000
00000010
00000000
00000010
00000000
,
00000100
00000001
00000100
00000001
00000100
00000000
00000100
00000000
,
00000001
00001000
00000001
00001000
00000001
00000010
00000001
00000010
,
00000100
00001000
00000100
00001000
00000010
00000000
00000000
00000000
;

//---------------dance-double - ----------------
#NOTEDATA:;
#CHARTNAME:;
#CHARTHASH:485982634;
#STEPSTYPE:dance-double;
#BANNER:;
#DESCRIPTION:;
#CHARTSTYLE:;
#DIFFICULTY:Medium;
#METER:15;
#METERF:0.000000;
#RADARVALUES:0.682221,0.808023,0.420248,0.038204,0.080229,625.000000,570.000000,55.000000,5.000000,0.000000,0.000000,0.000000,0.000000,0.000000,0.682221,0.808023,0.420248,0.038204,0.080229,625.000000,570.000000,55.000000,5.000000,0.000000,0.000000,0.000000,0.000000,0.000000;
#CREDIT:ヨセフ;
#DISPLAYBPM:128.000000:256.000000;
#NOTES:
00000000
00000000
00000000
00000000
,
00000000
00000000
00000000
00000000
,
00010000
00000000
00001000
00000000
00100000
00000000
00000000
01000000
00000000
10000000
00000000
00010000
00000000
00000000
00000000
00000000
,
01000000
00000000
00100000
00000000
10000000
00000000
00000000
00010000
00000000
01000000
00000000
00001000
00010000
00000000
00000000
00000000
,
00000100
00000000
00000010
00000000
00000000
00000001
00000000
00000100
,
00000000
00000010
00000000
00010000
00000000
00000000
00001000
00000000
,
00100000
00000000
01000000
00000000
00000000
10000000
00000000
00100000
,
00000000
01000000
00000000
00001000
00000000
00000000
00010000
00000000
,
00000100
00000000
00000010
00000000
00000000
00000001
00000000
00000100
,
00000000
00000010
00000000
00010000
00000000
00000000
00001000
00000000
,
00000100
00000010
00000000
00010000
,
00000010
00010000
00011000
00001000
,
01000000
00000000
00100000
00000000
10000000
00000000
00000000
00000000
01000000
00000000
00100000
00000000
00001000
00000000
00000000
00010000
,
00000000
00000010
00000000
00000100
00000000
00000000
00000000
00000000
00000001
00000000
00000000
00000000
00000010
00000000
00000000
00000000
,
00000100
00000000
00010000
00000000
00001000
00000000
00000000
00000000
00100000
00000000
00010000
00000000
01000000
00000000
00000000
00100000
,
00000000
10000000
00000000
00010000
00200000
00000000
00000000
00000000
01300000
00000000
00000000
00000000
00000000
00000000
00000000
00000000
,
10000000
00000000
00100000
01000000
,
00001000
00000000
00010000
00000100
,
00000010
00000000
00000000
00000001
00000000
00000100
00000000
00000010
,
00000000
00010000
00000000
00000000
00001000
00000000
00010000
00000000
,
00100000
10000000
01000000
00100000
,
00001000
00000000
00010000
00000000
00000010
00000000
00000100
00001000
,
00000000
00000100
00000000
00000001
00000000
00001000
00000000
00000100
,
00000000
00000000
00010000
00001000
,
01000000
00000000
00100000
10000000
,
00010000
00100000
01000000
10000000
,
00100000
00000000
01000000
00001000
,
00010000
00000000
00000100
00000010
00000001
00000000
00000100
00000000
,
00000010
00000000
00010000
00001000
,
00100000
01000000
10000000
00100000
,
01000000
00000000
00001000
00010000
,
00000100
00000010
00000001
00000010
00000100
00000000
00010000
00000000
,
00001000
00000000
00000000
00100000
00000000
01000000
00000000
10000000
,
00000000
00010000
01000000
00000000
00100000
00000000
10000000
00000000
,
00010000
00000000
00000000
00100000
00000000
00001000
00000000
00010000
,
00000000
00000010
00001000
00000000
00000100
00000000
00000010
00000000
,
00000001
00000000
00000000
00001000
00000000
00000100
00000000
00010000
,
00000000
00001000
01000000
00000000
00100000
00000000
10000000
00000000
,
00010000
00100000
00000000
01000000
10000000
00010000
01000000
00020000
,
00000000
00000000
00000000
00000000
,
00000000
10030000
01000000
00110000
,
00001000
00010000
00000000
00000010
00000000
00000100
00001000
00000100
,
00000001
00001000
00000100
00000000
00010000
00000000
00011000
00000000
,
00001000
01000000
00000000
00100000
00000000
10000000
01000000
00100000
,
00020000
01030000
00001000
00011000
,
00010000
00000100
00000000
00000010
00000100
00000001
00000100
00001000
,
00000010
00010000
00001000
00000000
00100000
00000000
01100000
00000000
,
10000000
00100000
01000000
10000000
01000000
00001000
00010000
00001000
,
00000010
00000001
00000010
00000000
00000100
00001000
00000100
00000000
,
00010000
00001000
00010000
00000000
00001000
01000000
00001000
00000000
,
10000000
01000000
10000000
00000000
00010000
01000000
00010000
00000000
,
01000000
10000000
01000000
00010000
00100000
01000000
00010000
00001000
,
00010000
00000010
00010000
00000000
00000010
00000100
00000010
00000000
,
00001000
00000001
00001000
00000000
00000100
00000010
00000100
00000000
,
00010000
00001000
00010000
00000000
00001000
01000000
00001000
00000000
,
10000000
00100000
10000000
00100000
10000000
00100000
10000000
00100000
,
10000000
10100000
00011000
00000110
,
00000001
00000100
00001000
00000000
00000100
00000001
00001000
00000000
,
00001100
01010000
10100000
10010000
,
10000000
01000000
00100000
10000000
00100000
00010000
01000000
00001000
,
00010000
00001100
00000011
00000101
,
00000100
00000010
00000001
00000000
00000010
00010000
00001000
00000000
,
00011000
01100000
10010000
01100000
,
10000000
01000000
00010000
00001000
00000100
00000001
00000010
00001000
,
00010000
00000000
00000000
00000000
,
00000000
00000000
00000000
00000002
,
00000103
00000010
00010000
00001000
,
00100000
00000000
00010000
10000000
00100000
00000000
01000000
00010000
,
10000000
00000000
01000000
00100000
00010000
00000000
00100000
01000000
,
10000000
00010000
00000000
01000000
00000000
00001000
00010000
00000000
,
00000000
00000100
00000010
00000001
,
00000100
00000010
00000000
00010000
00000000
00001000
00010000
00000000
,
00001000
00000000
01000000
00000000
00100000
10000000
00010000
00000000
,
10000000
01000000
00100000
00010000
,
01000000
00001000
00010000
00000100
,
00000010
00000000
00000001
00001000
00000010
00000000
00000100
00000001
,
00001000
00000000
00000100
00000010
00000001
00000000
00001000
00000010
,
00001000
00000010
00000000
00010000
00000000
00001000
00100000
00000000
,
00000000
01000000
10000000
00100000
,
01000000
00010000
00000000
10000000
00000000
00010000
00100000
00000000
,
01000000
00010000
00000000
01000000
00000000
10000000
00010000
00000000
,
01000000
00000000
00001000
00000000
00010000
00000100
00001000
00000000
,
00001100
00000001
00000101
00010000
,
00011000
00000000
00001000
00000010
00000001
00000000
00000100
00000010
,
00010000
00000000
00001000
00100000
01000000
00000000
10000000
00100000
,
01000000
00001000
00000000
00010000
00000000
00100000
01000000
00000000
,
00000000
00110000
00001010
00000101
,
00000001
00000010
00000000
00000100
00000000
00000010
00000001
00000000
,
00001010
00000000
00000101
00000000
00000001
00000010
00001000
00000000
,
00011000
01100000
10010000
01010000
,
10100000
00010000
01010000
00001000
,
00011000
00000000
00010000
00001000
00000010
00000000
00000001
00000100
,
00000010
00000000
00000100
00001000
00010000
00000000
00001000
00100000
,
01000000
10000000
00000000
00100000
00000000
01000000
00001000
00000000
,
00000000
00011000
00000110
00001001
,
00001000
00000100
00001000
00000100
00010000
00001000
00010000
00001000
,
01000000
00000000
00000000
00100000
00000000
10000000
00010000
00000000
,
10000000
00000000
01000000
00100000
00010000
00100000
01000000
00000000
,
10000000
00000000
00100000
00000000
01000000
00001000
00010000
00000000
,
00000100
00000000
00000010
00000000
00000001
00000000
00000000
00000100
00000000
00001000
00000000
00010000
00000000
00001000
00000000
00000000
,
00100000
00000000
01000000
00000000
10000000
00100000
01000000
00000000
,
00001000
00000000
00001000
00010000
00000000
00000100
00000000
00000010
00000000
00000001
00000000
00001000
00000020
00000000
00000000
00000000
,
00000130
00000101
00001010
00011000
,
00001000
01000000
00100000
00000000
10000000
00010000
00100000
00000000
,
01100000
10100000
10010000
01001000
,
00001000
00010000
00000100
00000000
00000010
00000001
00000100
00000010
,
00011000
01100000
10010000
10100000
,
01010000
00011000
00001100
00000011
,
00000101
00000000
00001010
00000000
00011000
00000000
00001000
01000000
,
00100000
10000000
00010000
10000000
01000000
00000000
00100000
00000000
,
01000000
10000000
00010000
01000000
00001000
00000000
00010000
00000000
,
00000100
00000010
00000001
00000100
00000010
00000000
00010000
00000000
,
00001000
00100000
01000000
10000000
00100000
01000000
00010000
01000000
,
00001000
00010000
00000100
00001000
00000010
00000000
00000100
00000000
,
00000001
00000010
00001000
00010000
00001000
00000000
00100000
00000000
,
01000000
00010000
00001000
00010000
00000010
00010000
00001000
00000010
,
00000100
00001000
00000010
00000100
00000001
00000010
00000100
00010000
,
00001000
00100000
01000000
10000000
00100000
00000000
00000000
00000000
;

//---------------dance-double - ----------------
#NOTEDATA:;
#CHARTNAME:;
#CHARTHASH:2147483647;
#STEPSTYPE:dance-double;
#BANNER:;
#DESCRIPTION:;
#CHARTSTYLE:;
#DIFFICULTY:Hard;
#METER:18;
#METERF:0.000000;
#RADARVALUES:0.772820,0.944699,0.168099,0.122254,0.194842,708.000000,686.000000,22.000000,16.000000,0.000000,0.000000,0.000000,0.000000,0.000000,0.772820,0.944699,0.168099,0.122254,0.194842,708.000000,686.000000,22.000000,16.000000,0.000000,0.000000,0.000000,0.000000,0.000000;
#CREDIT:ヨセフ;
#DISPLAYBPM:128.000000:256.000000;
#NOTES:
00000000
00000000
00000000
00000000
,
00000000
00000000
00000000
00000000
,
00010000
00000000
00010000
00000000
00001000
00000010
00000000
00000100
00000000
00000100
00000000
00001000
00000000
00000001
00000000
00000000
,
00000100
00000000
00000100
00000000
00000010
00001000
00000000
00000100
00000000
00000100
00000000
00010000
00001000
00000000
00000000
00000000
,
00001000
00000000
00100000
00010000
00000000
10000000
00000000
10000000
,
00000000
00100000
00000000
01000000
00010000
00000000
10000000
00000000
,
10000000
00000000
01000000
00100000
00000000
01000000
00000000
01000000
,
10000000
01000000
00010000
00001000
00000100
00000001
00000100
00000000
,
00000100
00000000
00000010
00001000
00000000
00000100
00000000
00000100
,
00000000
00010000
00000000
00010000
00001000
00000000
01000000
00000000
,
01000000
00000000
00100000
10000000
00000000
01000000
00010000
00001000
,
00010000
00000000
00001000
00000000
00010000
00000000
00001000
00000000
00010000
00000000
00000000
00000000
00000010
00000000
00001000
00000001
,
00000000
00000010
00000000
00000100
00000000
00010000
00000000
00001000
00100000
00000000
00001000
01000000
00010000
00000000
10000000
01000000
,
00000000
00100000
00000000
00001000
00000000
00010000
00000000
00000000
00000010
00001000
00000001
00001000
00000010
00000000
00000100
00000001
,
00000000
00000010
00000000
00000010
00000000
00000100
00010000
00000000
00001000
00000000
01000000
00100000
00000000
00010000
00000000
00100000
,
00000000
10000000
00000000
01000000
00200000
00000000
00000000
00000000
00301000
00000000
00000000
00000000
00010000
00000000
00000000
00000000
,
00000020
00000000
00001030
00000100
00000000
00000010
00000000
00000001
,
00000000
00000100
00000000
00000010
00001000
00000100
00000010
00001000
,
00010000
00100000
01000000
00010000
00000000
01010000
00000000
11000000
,
00000000
01100000
00000000
00000000
00001000
00010000
00100000
00010000
,
00001000
00000010
00000100
00001000
00000000
00000100
00000000
00000100
,
00000000
00000010
00000001
00000000
00000100
00000000
00001000
00010000
,
00000000
00100000
00000000
01000000
00010000
00100000
01000000
00100000
,
00010000
10000000
00100000
10000000
00010000
10000000
00000000
01000000
,
00000000
10000000
00100000
00010000
00001000
00010000
00000100
00000010
,
00000001
00000010
00000100
00000000
00001000
00000010
00000000
00000100
,
00000000
00000010
00001000
00000100
00000010
00001000
00010000
00100000
,
01000000
00010000
10000000
01000000
00100000
00010000
00000000
01000000
,
00000000
00010000
00100000
01000000
10000000
00100000
00010000
00001000
,
00000010
00000100
00001000
00000000
00000001
00000100
00000000
00000010
,
00000000
00000100
00000000
00000001
00000010
00001000
00010000
00100000
,
10000000
00100000
00010000
00001000
00100000
00000000
01100000
00000000
,
10000000
00100000
00000000
01100000
00000000
01100000
00000000
01001000
,
00000000
00001000
00010000
00000000
00000100
00000000
00001100
00000000
,
00001000
00000010
00000000
00000110
00000000
00000100
00001000
00010000
,
00100000
01000000
00010000
10000000
01000000
00000000
01100000
00000000
,
00001000
00010000
00000000
00010100
00000000
00010100
00000000
00001001
,
00000000
00000001
00000100
00000000
00000110
00000000
00000110
00000000
,
00000010
00010000
00000000
00001000
00000010
00000001
00000100
00002000
,
00000000
00000000
00000000
00000000
,
00000000
00013000
00100000
01100000
,
00010000
10000000
00000000
01000000
00100000
10000000
00100000
00001000
,
00010000
00000010
00000100
00000000
00000001
00000000
00001001
00000000
,
00001000
00000100
00000000
00000010
00000100
00010000
00001000
01000000
,
00200000
10300000
00010000
00110000
,
00100000
01000000
00000000
10000000
00100000
00001000
00100000
01000000
,
00001000
00010000
00000100
00000000
00000010
00000000
00000011
00000000
,
00000001
00000100
00010000
01000000
00001000
00100000
01000000
10000000
,
01000000
00010000
00001000
00000000
00000010
00000001
00000100
00000000
,
00001000
00010000
01000000
00000000
10000000
00100000
00010000
00000000
,
00001000
00000010
00000001
00000000
00000100
00001000
00010000
00000000
,
00001000
00000100
00000001
00000010
00001000
00010000
00100000
10000000
,
01000000
00010000
00001000
00000000
00000100
00000001
00000010
00000000
,
00001000
00000010
00000001
00000000
00000100
00001000
00010000
00000000
,
00100000
00001000
00000010
00000000
00100000
00010000
00000010
00000000
,
00001000
00010000
00001000
00010000
00001000
00010000
00001000
00010000
,
00001000
00000010
00000001
00000000
00000100
00001000
00010000
00000000
,
00001000
00000010
00001000
00000000
00010000
00100000
00010000
00000000
,
00001000
00000010
00000001
00000000
00000100
00001000
00010000
00000000
,
00001000
00000010
00001000
00100000
00010000
01000000
00001000
00010000
,
00000100
00000010
00000001
00000000
00000100
00001000
00010000
00000000
,
00100000
10000000
01000000
00000000
00010000
00001000
00000010
00000000
,
00000001
00000100
00010000
00000000
00000100
00000010
00001000
00000000
,
00000100
00010000
01000000
00100000
00001000
00010000
00100000
00001000
,
00000010
00000000
00000000
00000000
,
00000000
00000000
00000000
00020000
,
00031000
01000000
00000000
01000000
00000000
00100000
10000000
00000000
,
02000000
00000000
03100000
00010000
01000000
00000000
00001000
00010000
,
00000100
00000000
00000010
00000001
00000100
00000000
00000010
00010000
,
00001000
00100000
00000000
01000000
00000000
10000000
00200000
00000000
,
01300000
00010000
00100000
00001000
,
00010000
00000010
00000000
00000100
00000000
00000001
00000010
00000000
,
00000100
00000000
00000010
00000000
00000001
00000100
00001000
00000000
,
00010000
00000000
00000000
00002000
00000000
00000000
00003000
00000000
,
01000000
00100000
00000000
10000000
00000000
10000000
01000000
00000000
,
00100000
00000000
00001000
00010000
00000010
00000000
00000100
00000001
,
00000010
00000000
00001000
00000100
00010000
00000000
00001000
01000000
,
00010000
10000000
00000000
01000000
00000000
00100000
00002000
00000000
,
00013000
00000010
00000100
00000001
,
00000010
00000100
00000000
00000010
00000000
00000001
00000100
00000000
,
00001000
00010000
00000000
00100000
00000000
01000000
00010000
00000000
,
10000000
00000000
01000000
00000000
00010000
00001000
00000100
00000000
,
00000001
00000010
00000000
00000100
00000000
00000100
00001000
00000000
,
00000020
00000000
00000130
00000001
00001000
00000000
00000100
00010000
,
00001000
00000000
01000000
00010000
00100000
00000000
01000000
10000000
,
00100000
01000000
00000000
00001000
00000000
00010000
00000200
00000000
,
00000310
00000001
00000100
00000010
,
00010000
00001000
00000000
00100000
00000000
01000000
10000000
00000000
,
00100000
00000000
01000000
00000000
00100000
00010000
00001000
00000000
,
00000010
00000000
00000000
00000200
00000000
00000000
00000300
00000000
,
00001000
00000010
00000000
00000100
00000000
00000100
00000001
00000000
,
00000020
00000000
00000130
00001000
00000001
00000000
00000100
00000010
,
00001000
00000000
00000100
00010000
00001000
00000000
00100000
00010000
,
01000000
00010000
00000000
10000000
00000000
01000000
00200000
00000000
,
00310000
10000000
00100000
01000000
,
10000000
01000000
00000000
00001000
00000000
00010000
00000100
00000000
,
00000001
00000100
00000000
00001000
00000000
00000010
00000100
00000000
,
00001000
00000000
00010000
00000000
00100000
01000000
00010000
00000000
,
10000000
00000000
00000000
00000000
01000000
00000000
10000000
00010000
00000000
01000000
00000000
00100000
00000000
00010000
00000000
00001000
,
00000010
00000000
00000100
00000010
00000001
00000000
00001000
00000010
00000000
00000100
00000000
00000001
00000000
00000010
00000000
00000000
,
00000100
00010000
00001000
00010000
00000100
00000000
01000000
00001000
00000000
00010000
00000000
00010000
00000000
01000000
10000000
00000000
,
00100000
00000000
01000000
00010000
00000000
10000000
00000000
01000000
00000000
00010000
00000000
00001000
00000200
00000000
00000000
00000000
,
00000301
00000010
00001000
00000000
00010000
00100000
10000000
00000000
,
01000000
00010000
00001000
00000000
00000010
00000001
00000100
00000000
,
00001000
00010000
00100000
00000000
01000000
00001000
00100000
00000000
,
01000000
10000000
00100000
00000000
00010000
00001000
00000010
00000001
,
00011000
00000000
10100000
00000000
01010000
00000000
00001000
00010000
,
01000000
00000000
10000000
00100000
00010000
00000000
00100000
00010000
,
00000010
00000000
00001000
00000010
00100000
00000000
00010000
00100000
,
01000000
00010000
00001000
00000100
00000001
00000100
00001000
00010000
,
00001000
00000010
00000001
00000100
00001000
00010000
00100000
10000000
,
01000000
00010000
00001000
00010000
00100000
10000000
01000000
00010000
,
00001000
00000010
00001000
00010000
00100000
00010000
00000010
00010000
,
00001000
00100000
01000000
00010000
00001000
00000010
00000001
00000100
,
00001000
00010000
00001000
00000010
00000001
00000100
00001000
00010000
,
01000000
10000000
00100000
00010000
00001000
00000010
00001000
00100000
,
00001000
01000000
00010000
01000000
10000000
01000000
00100000
00010000
,
00001000
00000100
00000010
00000001
00002000
00000000
00003000
00000000
;

//---------------dance-double - ----------------
#NOTEDATA:;
#CHARTNAME:;
#CHARTHASH:2147483647;
#STEPSTYPE:dance-double;
#BANNER:;
#DESCRIPTION:;
#CHARTSTYLE:;
#DIFFICULTY:Challenge;
#METER:19;
#METERF:0.000000;
#RADARVALUES:0.940920,1.304585,0.328558,0.122254,0.496657,862.000000,819.000000,43.000000,16.000000,0.000000,0.000000,1.000000,0.000000,0.000000,0.940920,1.304585,0.328558,0.122254,0.496657,862.000000,819.000000,43.000000,16.000000,0.000000,0.000000,1.000000,0.000000,0.000000;
#CREDIT:ヨセフ;
#DISPLAYBPM:128.000000:256.000000;
#NOTES:
00000000
00000000
00000000
00000000
,
00000000
00000000
00000000
00000000
,
00010000
00001000
00000000
00010000
00000000
00000010
00001000
00000001
00000000
00000010
00000100
00001000
00000000
00000001
00000000
00000100
,
00000010
00010000
00000000
00000000
00011000
00000000
00000000
00000000
00002000
00000000
00010000
00000000
01003000
00000000
00000000
00000000
,
01000000
00000000
00100000
10000000
00000000
01000000
00000000
01000000
,
00000000
00100000
00000000
00010000
01000000
00000000
00001000
00000000
,
00001000
00000000
00010000
00000010
00000000
00000100
00000000
00000100
,
00001000
00010000
01000000
10000000
01000000
00010000
00001000
00000000
,
00001000
00000000
00010000
00000100
00000000
00000010
00000000
00000010
,
00000000
00000100
00000000
00001000
00000001
00000000
00000100
00000000
,
00000100
00000000
00000010
00001000
00000000
00000100
00000001
00000100
,
00001000
00000000
00000010
00000000
00000100
00000000
00002000
00000000
00013000
00000000
00000000
00000000
00001000
00000000
00000010
00000100
,
00000000
00001000
00000000
00000001
00000000
00000100
00000000
00000010
00010000
00001000
00100000
01000000
10000000
00100000
01000000
00010000
,
00000000
00100000
00000000
01000000
00000000
10000000
00100000
00010000
00001000
00010000
00000010
00001000
00000100
00000010
00000001
00000100
,
00000000
00001000
00000000
00001000
00000000
00010000
00001000
00000000
00100000
00000000
01000000
10000000
00000000
00100000
00000000
01000000
,
00000000
00000000
00001000
00000000
00000000
00000000
00010000
00000000
00000100
00000000
00000000
00000000
00010000
00001000
00010000
00001000
00010000
00000000
00000000
00000000
00000000
00000000
00000000
00000000
00001000
00000000
00000000
00000000
00000000
00000000
00000000
00000000
,
00000010
00000000
00000100
00001000
00000000
00000001
00000000
00000100
,
00000000
00001000
00000000
00010000
00100000
01000000
00010000
10000000
,
01000000
00100000
00001000
00010000
00000100
00000010
00000000
00000001
,
00000000
00000100
00000010
00001000
00000010
00000100
00000010
00010000
,
00001000
00100000
01000000
00010000
00000000
00001000
00000000
00001000
,
00000000
00010000
00000100
00000000
00000010
00000000
00000001
00000100
,
00000000
00000000
00001000
00000000
00000000
00000000
00010000
00000000
00001000
01000000
00001000
01000000
00001000
00000000
00000000
00000000
,
00010000
00000100
00010000
00000100
00010000
00000000
00000000
00000000
00001000
00000000
01000000
00000000
00000000
00000000
00001000
00000000
,
00100000
00000000
00010000
01000000
00010000
01000000
00100000
10000000
,
00100000
10000000
01000000
00100000
00001000
00010000
00000000
00000100
,
00010000
00000000
00000010
00001000
00000010
00001000
00000001
00000100
,
00000010
00001000
00000100
00000010
00000001
00000100
00000000
00000001
,
00000010
00000000
00000100
00001000
00000100
00001000
00000010
00000100
,
00000010
00000100
00000010
00010000
00001000
00100000
00000000
00001000
,
01000000
00000000
00100000
10000000
00100000
01000000
00010000
01000000
,
00010000
00100000
00001000
00100000
00001000
00000000
00001000
00000000
,
00010000
00010000
00000000
00000010
00000000
00000010
00000000
00000100
,
00000000
00000100
00000001
00000000
00000010
00000000
00000010
00000000
,
00000100
00000100
00000000
00010000
00000000
00010000
00001000
00000010
,
00000001
00000010
00001000
00010000
01000000
00000000
01000000
00000000
,
10000000
10000000
00000000
00100000
00000000
00100000
00000000
01000000
,
00000000
00001000
00010000
00000000
00000100
00000000
00000100
00000000
,
00000010
00000000
00000010
00000000
00000000
00000000
00000001
00000000
00000100
00000001
00000100
00000001
00001000
00000010
00001000
00000020
,
00000000
00000000
00000000
00000000
,
00000000
00000000
00010030
00001000
01000000
00100000
10000000
01000000
,
01000000
00010000
01000000
01000000
10000000
00100000
00010000
00001000
,
00000010
00000001
00001000
00000010
00000100
00000001
00000010
00000010
,
00001000
00000010
00000010
00000001
00000100
00001000
00010000
00001000
,
00000200
00000000
00000301
00000010
00000100
00001000
00000010
00000010
,
00000001
00000100
00000100
00010000
00001000
00010000
00100000
10000000
,
01000000
00010000
00001000
00000100
00000001
00000010
00000100
00000100
,
00000010
00001000
00000100
00000001
00000100
00010000
00001000
00000200
,
00001300
00010000
00011000
00000000
00001000
01000000
01001000
00000000
,
00010000
10000000
10010000
00000000
10000000
01000000
11000000
00000000
,
01000000
00100000
00110000
00000000
00010000
01000000
01001000
00000000
,
00001000
00100000
10000000
00100000
00001000
00010000
00100000
00001000
,
00000010
00000100
00000101
00000000
00000001
00000010
00000110
00000000
,
00000100
00010000
00011000
00000000
00001000
01000000
01010000
00000000
,
00010000
10000000
11000000
00000000
01000000
00100000
00110000
00000000
,
00001000
00001000
00010000
00010000
00001000
00001000
00010000
00010000
,
00011000
00001000
00010100
00000000
00001100
00001000
00001001
00000000
,
00000001
00000000
00000100
00000000
00001000
00000000
00010000
00000000
00001000
01000000
00001000
01000000
00010000
01000000
00010000
01000000
,
00001000
10000000
10010000
00000000
11000000
01000000
10010000
00000000
,
10000000
00000000
01000000
00000000
00010000
00000000
00001000
00000000
00010000
00000100
00010000
00000100
00001000
00000100
00001000
00000100
,
00010000
00000100
00001100
00000000
00001010
00000001
00000101
00000000
,
00000100
00000000
00001000
00000000
00010000
00000000
01000000
00000000
10000000
01000000
10000000
01000000
00100000
00010000
00100000
00010000
,
01000000
00100000
10100000
00000000
11000000
01000000
10010000
00000000
,
10000000
01000000
00001000
00000100
00000010
00001000
00100000
00001000
,
00010000
00000000
00000000
00000000
,
00000000
00000000
00000000
00000004
,
00000103
00000010
00000000
00000010
00000000
00000010
00010000
00000000
,
00002000
00000000
00103000
01000000
10000000
00000000
00100000
01000000
,
00001000
00000000
00010000
00000100
00000010
00000000
00000001
00000100
,
00000010
00010000
00000000
00001000
00000000
00100000
01000000
00000000
,
10000000
10100000
01010000
00011000
,
00010000
00000100
00000000
00000010
00000000
00000100
00001000
00000000
,
00001000
00000000
00000001
00000000
00000100
00001000
00010000
00000000
,
00002000
00103000
00020000
00030010
,
00001000
00010000
00000000
00001000
00000000
00001000
01000000
00000000
,
00200000
00000000
10300000
01000000
00100000
00000000
00001000
01000000
,
00100000
00000000
01000000
00001000
00010000
00000000
00000100
00001000
,
00000001
00000100
00000000
00000010
00000000
00001000
00000100
00000000
,
00000010
00000011
00001100
01010000
,
10000000
00100000
00000000
01000000
00000000
00010000
10000000
00000000
,
01000000
00010000
00000000
00001000
00000000
00010000
00000010
00000000
,
00000100
00000000
00000010
00000100
00001000
00010000
00100000
01000000
,
00010000
10000000
00000000
01000000
00000000
01000000
00100000
00000000
,
02000000
00000000
13000000
00100000
01000000
00000000
10000000
01000000
,
00001000
00000000
00010000
00001000
00000010
00000000
00000100
00001000
,
00000010
00000100
00000000
00000001
00000000
00000010
00000100
00000000
,
00001100
00011000
01100000
10010000
,
10000000
00100000
00000000
01000000
00000000
00010000
00100000
00000000
,
00100000
00000000
01000000
00000000
00010000
00001000
00000100
00000000
,
00000102
00000013
00002100
00003010
,
00010000
00001000
00000000
00100000
00000000
00100000
01000000
00000000
,
00020000
00000000
00031000
00000100
00000010
00000000
00000100
00000001
,
00000010
00000000
00001000
00010000
00100000
00000000
01000000
00010000
,
00100000
01000000
00000000
00010000
00000000
01000000
10000000
00000000
,
10100000
01010000
00011000
00001100
,
00001000
00000100
00000001
00000100
00010000
00001000
01000000
00100000
,
00010000
00001000
00000000
00000010
00000000
00000100
00001000
00000000
,
00000001
00000001
00000100
00001000
00010000
01000000
10000000
00100000
,
01000000
00000000
00000000
00000000
00010000
00000000
10000000
01000000
00000000
00100000
00000000
00001000
00000000
00010000
00000000
00000010
,
00000100
00001000
00010000
00001000
00000100
00000010
00000100
00000001
00000000
00000010
00000000
00000100
00000000
00010000
00000000
00000000
,
00001000
00000010
00001000
00010000
00100000
01000000
00010000
00100000
00000000
01000000
00000000
01000000
00000000
10000000
00000000
00010000
,
01000000
00000000
00100000
00000000
00000000
00000000
00000000
00000000
10100000
00000000
00000000
00000000
00000000
00000000
00000000
00000000
00010000
00000000
00000000
00000000
00100000
00000000
00000000
00000000
00001000
00010000
00001000
00010000
00001000
00010000
00001000
00010000
,
00001000
00010000
00100000
10000000
01000000
00010000
01000000
10000000
,
00100000
00001000
00100000
01000000
00001000
00010000
00000100
00000001
,
00000100
00010000
00000010
00000100
00001000
00010000
00100000
01000000
,
10000000
00000000
01000000
00000000
00001000
00000000
01000000
00000000
00010000
01000000
00010000
01000000
00001000
00010000
00001000
00020000
,
00030100
00010000
00000100
00000001
00000100
00001000
00000010
00000100
,
00001000
00010000
00100000
01000000
10000000
01000000
00001000
01000000
,
00010000
00000000
00100000
00000000
01000000
00000000
00010000
00000000
00001000
00000000
00000100
00000000
00000001
00000100
00000001
00000100
,
00000010
00001000
00000010
00001000
00000001
00001000
00000001
00002000
00003100
00000000
00000001
00000000
00000100
00000000
00010000
00000000
,
00001000
00010000
00001000
00010000
00001000
01000000
00001000
01000000
00010000
00000000
01000000
00000000
10000000
00000000
01000000
00000000
,
00010000
01000000
00010000
01000000
00010000
10000000
00010000
10000000
01000000
00000000
00010000
00000000
00001000
00000000
00010000
00000000
,
00000010
00001000
00000010
00001000
00000001
00001000
00000001
00001000
00000100
00000000
00000001
00000000
00000100
00000000
00010000
00000000
,
00001000
01000000
00001000
01000000
00010000
01000000
00010000
01000000
00001000
00000000
01000000
00000000
10000000
00000000
01000000
00000000
,
00001000
01000000
00001000
01000000
00001000
00010000
00001000
00010000
00000100
00000000
00000010
00000000
00001000
00000000
00000010
00000000
,
00000001
00001000
00000001
00001000
00000010
00001000
00000010
00001000
00000001
00000000
00000010
00000000
00001000
00000000
00010000
00000000
,
00001000
01000000
00001000
01000000
00010000
01000000
00010000
01000000
00001000
00010000
00001000
00010000
00000100
00001000
00000100
00001000
,
00000001
00000100
00000001
00000100
00000010
00001000
00000010
00001000
00000200
00000000
00000000
00000000
00000300
00000000
00000000
00000000
;
