#VERSION:0.83;
#TITLE:frost;
#SUBTITLE:;
#ARTIST:めぐみ;
#TITLETRANSLIT:;
#SUBTITLETRANSLIT:;
#ARTISTTRANSLIT:Megumi;
#GENRE:HAPPY J-EURO;
#ORIGIN:pop'n music 11;
#TAGS:;
#CREDIT:;
#BANNER:frost.png;
#BACKGROUND:frost-bg.png;
#PREVIEWVID:;
#JACKET:frost-jacket.png;
#CDIMAGE:;
#DISCIMAGE:;
#LYRICSPATH:;
#CDTITLE:../_YSD cdtitles/ysd xmas2023 cdtitle.png;
#MUSIC:frost.ogg;
#OFFSET:-1.720000;
#SAMPLESTART:51.660000;
#SAMPLELENGTH:25.263000;
#SELECTABLE:YES;
#BPMS:0.000000=152.000000
;
#STOPS:;
#DELAYS:;
#WARPS:;
#TIMESIGNATURES:0.000000=4=4
;
#TICKCOUNTS:0.000000=4
;
#COMBOS:0.000000=1
;
#SPEEDS:0.000000=1.000000=0.000000=0
;
#SCROLLS:0.000000=1.000000
;
#FAKES:;
#LABELS:0.000000=Song Start
;
#BGCHANGES:;
#KEYSOUNDS:;
#ATTACKS:
;

//---------------dance-single - ----------------
#NOTEDATA:;
#CHARTNAME:;
#CHARTHASH:3362131147;
#STEPSTYPE:dance-single;
#BANNER:;
#DESCRIPTION:;
#CHARTSTYLE:;
#DIFFICULTY:Beginner;
#METER:1;
#METERF:0.000000;
#LASTSECONDHINT:87.180527;
#RADARVALUES:0.087309,0.137831,0.091675,0.000000,0.000000,60.000000,51.000000,9.000000,0.000000,0.000000,0.000000,0.000000,0.000000,0.000000,0.087309,0.137831,0.091675,0.000000,0.000000,60.000000,51.000000,9.000000,0.000000,0.000000,0.000000,0.000000,0.000000,0.000000;
#CREDIT:YOSEFU;
#NOTES:
0000
0000
0000
0000
,
0000
0000
0000
0000
,
0000
0000
0000
0000
,
0000
0000
0000
0000
,
1000
0000
0000
0000
,
0001
0000
0000
0000
,
0100
0000
0000
0000
,
0010
0000
0000
0000
,
1001
0000
0000
0000
,
1000
0000
0000
0000
,
0100
0000
0000
0000
,
0010
0000
0000
0000
,
0001
0000
0000
0000
,
0100
0000
0000
0000
,
0001
0000
0000
0000
,
0010
0000
0000
0000
,
1001
0000
0000
0000
,
1000
0000
0000
0000
,
0010
0000
0000
0000
,
0100
0000
0000
0000
,
0001
0000
0000
0000
,
0010
0000
0000
0000
,
0100
0000
0000
0000
,
1000
0000
0000
0000
,
1001
0000
0000
0000
,
0001
0000
0000
0000
,
0100
0000
0000
0000
,
0010
0000
0000
0000
,
1000
0000
0000
0000
,
0100
0000
0000
0000
,
0010
0000
0000
0000
,
0110
0000
0000
0000
,
1001
0000
0000
0000
,
1000
0000
0000
0000
,
0010
0000
0000
0000
,
0100
0000
0000
0000
,
1001
0000
0000
0000
,
0010
0000
0000
0000
,
0100
0000
0000
0000
,
1000
0000
0000
0000
,
1001
0000
0000
0000
,
0001
0000
0000
0000
,
0100
0000
0000
0000
,
0010
0000
0000
0000
,
0110
0000
0000
0000
,
1000
0000
0000
0000
,
0100
0000
0000
0000
,
0010
0000
0000
0000
,
1001
0000
0000
0000
,
1000
0000
0000
0000
,
0010
0000
0000
0000
,
0100
0000
0000
0000
,
0001
0000
0000
0000
,
0010
0000
0000
0000
,
0000
0100
0000
0000
0000
0000
0000
0000
;

//---------------dance-single - ----------------
#NOTEDATA:;
#CHARTNAME:;
#CHARTHASH:1104859248;
#STEPSTYPE:dance-single;
#BANNER:;
#DESCRIPTION:;
#CHARTSTYLE:;
#DIFFICULTY:Easy;
#METER:3;
#METERF:3.000000;
#LASTSECONDHINT:91.325264;
#RADARVALUES:0.161522,0.202321,0.112047,0.091675,0.000000,111.000000,100.000000,11.000000,9.000000,0.000000,0.000000,0.000000,0.000000,0.000000,0.161522,0.202321,0.112047,0.091675,0.000000,111.000000,100.000000,11.000000,9.000000,0.000000,0.000000,0.000000,0.000000,0.000000;
#CREDIT:YOSEFU;
#NOTES:
0000
0000
0000
0000
,
0000
0000
0000
0000
,
0000
0000
0000
0000
,
0000
0000
0000
0000
,
1000
0000
0001
0000
,
0100
0000
0001
0000
,
1000
0000
0100
0000
,
0010
0000
0100
0000
,
1100
0000
1000
0000
,
0001
0000
0100
0000
,
0001
0000
0010
0000
,
0100
0000
1000
0000
,
0001
0000
0100
0000
,
0001
0000
1000
0000
,
0100
0000
0010
0000
,
0001
0000
0100
0000
,
0110
0000
0010
0000
,
1000
0000
0001
0000
,
0010
0000
0100
0000
,
0010
0000
0001
0000
,
0100
0000
0010
0000
,
1000
0000
0100
0000
,
0010
0000
0001
0000
,
0100
0000
0001
0000
,
1001
0000
1000
0000
,
0100
0000
0010
0000
,
0100
0000
1000
0000
,
0001
0000
0100
0000
,
0101
0000
0001
0000
,
0010
0000
0100
0000
,
1100
0000
1000
0000
,
2002
0000
3003
0000
,
1010
0000
0010
0000
,
1000
0000
0100
0000
,
0010
0000
0100
0000
,
1000
0000
0001
0000
,
0101
0000
0100
0000
,
0001
0000
0010
0000
,
0100
0000
1000
0000
,
0001
0000
0100
0000
,
0110
0000
0010
0000
,
1000
0000
0100
0000
,
0010
0000
0001
0000
,
0100
0000
0010
0000
,
1010
0000
1000
0000
,
0001
0000
0010
0000
,
0001
0000
0100
0000
,
0010
0000
1000
0000
,
1010
0000
0000
0020
0000
0030
0000
0000
,
1000
0000
0000
2000
0000
3000
0000
0000
,
0100
0000
0000
0200
0000
0300
0000
0000
,
0010
0000
0000
0020
0000
0030
0000
0000
,
0001
0000
0000
0002
0000
0003
0000
0000
,
1000
0000
0000
2000
0000
3000
0000
0000
,
0000
0002
0000
0000
0000
0000
0000
0000
,
0000
0000
0000
0000
,
0000
0000
0000
0003
;

//---------------dance-single - ----------------
#NOTEDATA:;
#CHARTNAME:;
#CHARTHASH:3484380057;
#STEPSTYPE:dance-single;
#BANNER:;
#DESCRIPTION:;
#CHARTSTYLE:;
#DIFFICULTY:Medium;
#METER:7;
#METERF:0.000000;
#LASTSECONDHINT:91.325264;
#RADARVALUES:0.336141,0.404643,0.040744,0.234280,0.000000,231.000000,227.000000,4.000000,23.000000,0.000000,0.000000,0.000000,0.000000,0.000000,0.336141,0.404643,0.040744,0.234280,0.000000,231.000000,227.000000,4.000000,23.000000,0.000000,0.000000,0.000000,0.000000,0.000000;
#CREDIT:YOSEFU;
#NOTES:
// measure 0
0000
0000
0000
0000
,  // measure 1
0000
0000
0000
0000
,  // measure 2
0000
0000
0000
0000
,  // measure 3
0000
0000
0000
0000
,  // measure 4
1000
0000
0001
0000
0100
0001
0100
0000
,  // measure 5
0001
0000
1000
0000
0100
0010
0100
0000
,  // measure 6
1000
0000
0001
0000
0100
0010
0100
0000
,  // measure 7
0001
1000
0001
1000
0001
1000
0001
0000
,  // measure 8
0020
0100
0001
1000
,  // measure 9
0100
0000
0031
1000
0000
0001
0100
0000
,  // measure 10
0001
0000
1000
0200
0000
0000
0310
0000
,  // measure 11
0001
0000
0100
0020
0000
1030
0001
0000
,  // measure 12
0100
0000
0010
1000
0002
0000
0100
0000
,  // measure 13
1000
0000
0010
0000
1003
0000
0001
0010
,  // measure 14
0200
0001
0010
1000
,  // measure 15
0010
0001
0010
1300
,  // measure 16
2100
0100
0001
0010
,  // measure 17
0100
0000
3010
1000
0000
0001
0100
0000
,  // measure 18
0001
0000
0010
0200
0000
0000
1300
0000
,  // measure 19
0001
0000
0100
0010
0000
1000
0001
0000
,  // measure 20
0010
0000
0100
1000
0000
0001
0100
0000
,  // measure 21
0001
0000
1000
0200
0000
0000
1300
0000
,  // measure 22
0020
0001
0100
1000
,  // measure 23
0100
0001
0100
1030
,  // measure 24
2001
0010
0100
0010
,  // measure 25
3001
0000
1000
0100
0000
1000
0001
0000
,  // measure 26
0020
0001
0100
1000
,  // measure 27
0100
0000
0031
1000
0000
0001
0100
0000
,  // measure 28
0002
0100
1000
0010
,  // measure 29
1000
0000
0103
0001
0000
1000
0001
0000
,  // measure 30
0010
0000
0100
1000
0000
0000
0001
0000
,  // measure 31
2002
0000
3003
1000
,  // measure 32
1010
0000
0010
1000
0010
0000
0100
0000
,  // measure 33
0001
0000
1000
0001
1000
0000
0100
0000
,  // measure 34
0010
0001
1000
0010
,  // measure 35
0100
0000
0001
0100
0001
0000
1000
0000
,  // measure 36
0100
0000
0010
0100
0010
0000
0001
0000
,  // measure 37
0100
1000
0200
0010
,  // measure 38
0301
1000
0100
0001
,  // measure 39
0100
1000
0100
1000
0001
1000
0001
1000
,  // measure 40
0010
0000
0100
0001
0100
0000
0001
0000
,  // measure 41
1000
0000
0100
0010
0100
0000
1000
0000
,  // measure 42
0010
0000
0100
0010
0100
0000
0001
0000
,  // measure 43
1000
0000
0100
0010
0100
0000
1000
0000
,  // measure 44
0001
0000
0100
0001
0100
0000
0010
0000
,  // measure 45
1000
0001
0020
0100
,  // measure 46
0031
0100
1000
0100
,  // measure 47
0001
1000
0001
1000
0100
1000
0100
1000
,  // measure 48
0002
0000
0000
0100
0000
0000
1003
0000
,  // measure 49
0200
0000
0000
0010
0000
0000
1300
0000
,  // measure 50
0002
0000
0000
0100
0000
0000
0013
0000
,  // measure 51
2000
0000
0000
0001
0000
0000
3100
0000
,  // measure 52
0020
0000
0000
0001
0000
0000
0130
0000
,  // measure 53
1000
0000
0010
0000
0100
0000
0000
0002
,  // measure 54
0000
2000
0000
0000
0000
0000
0000
0000
,  // measure 55
0000
0000
0000
0000
,  // measure 56
0000
0000
0000
3003
;

//---------------dance-single - ----------------
#NOTEDATA:;
#CHARTNAME:;
#CHARTHASH:628072931;
#STEPSTYPE:dance-single;
#BANNER:;
#DESCRIPTION:;
#CHARTSTYLE:;
#DIFFICULTY:Hard;
#METER:11;
#METERF:0.000000;
#LASTSECONDHINT:91.325264;
#RADARVALUES:0.471471,0.606964,0.071303,0.203722,0.152792,324.000000,317.000000,7.000000,20.000000,0.000000,0.000000,0.000000,0.000000,0.000000,0.471471,0.606964,0.071303,0.203722,0.152792,324.000000,317.000000,7.000000,20.000000,0.000000,0.000000,0.000000,0.000000,0.000000;
#CREDIT:YOSEFU;
#NOTES:
0000
0000
0000
0000
,
0000
0000
0000
0000
,
0000
0000
0000
0000
,
0000
0000
0000
0000
,
1000
0000
0000
0001
0000
0000
0100
0000
0001
0000
0000
0010
0000
0000
0100
0000
,
1000
0000
0000
0010
0000
0000
1000
0000
0001
0000
0000
0010
0000
0000
0100
0000
,
0001
0000
0000
0100
0000
0000
1000
0000
0010
0000
0000
0100
0000
0000
1000
0000
,
0100
0000
0010
0000
1000
0000
0001
0000
0100
0001
0100
0001
0200
0000
0000
0000
,
0310
2000
0100
0010
,
0001
0000
3010
1000
0000
0001
0010
0100
,
0010
0000
0001
0100
0020
0000
1000
0000
,
0130
0000
0001
1000
0000
0100
0010
0001
,
1000
0000
0001
0200
0000
0000
0320
0000
,
2030
0000
0000
0000
0100
0000
0000
0000
3001
0000
0000
0100
0000
0000
0010
0000
,
2000
0100
0010
0001
,
0010
0100
0001
0010
,
3100
0020
0100
1000
,
0100
0000
0031
1000
0000
0001
0100
0010
,
1000
0000
0001
0010
0100
0000
0010
0000
,
0001
0000
1000
0100
0000
1000
0001
0100
,
0010
0000
0100
0001
0000
1000
0100
0000
,
0010
0000
0001
0100
0000
0010
1000
0000
,
2001
0000
3100
1000
0000
0001
0100
0000
,
0110
0000
0010
1000
0000
0001
0010
0100
,
1100
0000
1000
0010
0200
0000
1000
0000
,
0010
0000
0301
1000
0000
0010
0001
0010
,
0100
0000
0001
0010
0200
0000
0001
0000
,
0010
0000
1300
0001
0000
0100
0010
0001
,
0010
0000
1000
0001
0020
0000
1000
0000
,
0100
0000
0031
1000
0000
0001
0010
1000
,
0010
0000
0100
1000
0000
0001
0100
0010
,
2020
0000
0000
0000
3030
0000
0000
1000
0010
0000
1000
0001
1000
0000
0000
0000
,
1100
0000
0000
0100
1000
0000
0001
0000
0000
0000
0100
0000
0001
0000
0010
0000
,
0100
0000
0000
1000
0001
0000
0100
0000
0000
0000
0001
0000
0010
0000
0100
0000
,
1000
0000
0000
0001
0100
0000
0001
0000
0000
0000
0010
0000
0100
0000
1000
0000
,
0001
0000
0000
0010
0100
0000
0001
0000
0000
0000
0100
0000
0010
0000
0001
0000
,
1000
0000
0000
0010
0100
0000
0001
0000
0000
0000
1000
0000
0100
0000
0010
0000
,
0001
0000
0000
1000
0001
0000
0100
0000
0020
0000
0000
0000
0001
0000
0000
0000
,
1030
0001
0010
0001
0100
0001
1000
0100
,
0010
0000
0100
0000
1000
0000
0001
0000
0100
0001
0100
0001
0100
0000
0000
0000
,
1010
0000
0000
0010
1000
0000
0001
0000
0010
0000
0100
0000
1000
0000
0001
0000
,
0100
0000
0000
0001
1000
0000
0001
0000
0010
0000
0100
0000
0010
0000
0001
0000
,
1000
0000
0000
0001
0100
0000
0001
0000
1000
0000
0100
0000
0010
0000
0001
0000
,
1000
0000
0000
0010
0100
0000
1000
0000
0100
0000
0001
0000
0010
0000
0100
0000
,
1100
0000
0000
1000
0001
0000
0100
0000
0010
0000
0100
0000
0001
0000
0010
0000
,
0100
0000
0000
0001
0100
0000
1000
0000
0002
0000
0000
0000
0100
0000
0000
0000
,
1003
0100
0010
1000
0010
0001
0100
1000
,
0100
0000
0001
0000
0010
0000
0100
0000
1000
0001
1000
0001
1000
0001
1000
0001
,
0100
0000
0010
1000
0000
0001
0010
0100
,
1000
0000
0001
0100
0000
0001
0010
1000
,
0010
0000
0001
1000
0000
0010
0100
1000
,
0100
0000
0001
0010
0000
0100
0001
0100
,
0010
0000
0001
0100
0000
0010
1000
0100
,
0010
1000
0010
0001
1000
0001
0100
0020
,
0000
0000
2030
0000
0000
0000
0000
0000
0000
0000
0000
0000
0000
3200
0000
0000
,
0000
0000
0000
0000
0000
0020
0000
0000
,
0000
0000
0000
0330
;
