#TITLE:freefall;
#SUBTITLE:;
#ARTIST:Hate;
#TITLETRANSLIT:;
#SUBTITLETRANSLIT:;
#ARTISTTRANSLIT:;
#GENRE:HAPPY HARDCORE;
#CREDIT:skeleton made by Peter;
#BANNER:freefall.png;
#BACKGROUND:freefall-bg.png;
#LYRICSPATH:;
#CDTITLE:../_YSD cdtitles/ysd sale4 cdtitle.png;
#MUSIC:freefall.ogg;
#OFFSET:-0.118000;
#SAMPLESTART:48.118000;
#SAMPLELENGTH:22.587999;
#SELECTABLE:YES;
#BPMS:0.000000=170.000000
;
#STOPS:
;
#BGCHANGES:;
#KEYSOUNDS:;
#ATTACKS:;

//---------------dance-single - ----------------
#NOTES:
     dance-single:
     :
     Beginner:
     2:
     0.122225,0.202376,0.123400,0.000000,0.000000,104.000000,89.000000,15.000000,0.000000,0.000000,0.000000,0.122225,0.202376,0.123400,0.000000,0.000000,104.000000,89.000000,15.000000,0.000000,0.000000,0.000000:
// measure 0
0000
0000
0000
0000
,  // measure 1
0000
0000
0000
0000
,  // measure 2
0000
0000
0000
0000
,  // measure 3
0000
0000
0000
0000
,  // measure 4
0000
0000
0000
0000
,  // measure 5
0000
0000
0000
0000
,  // measure 6
1000
0000
0000
0000
,  // measure 7
0001
0000
0000
0000
,  // measure 8
0100
0000
0000
0000
,  // measure 9
0010
0000
0000
0000
,  // measure 10
1001
0000
0000
0000
,  // measure 11
1000
0000
0000
0000
,  // measure 12
0001
0000
0000
0000
,  // measure 13
0010
0000
0000
0000
,  // measure 14
0100
0000
0000
0000
,  // measure 15
1000
0000
0000
0000
,  // measure 16
0010
0000
0000
0000
,  // measure 17
0100
0000
0000
0000
,  // measure 18
1001
0000
0000
0000
,  // measure 19
0001
0000
0000
0000
,  // measure 20
1000
0000
0000
0000
,  // measure 21
0100
0000
0000
0000
,  // measure 22
0010
0000
0000
0000
,  // measure 23
0001
0000
0000
0000
,  // measure 24
0010
0000
0000
0000
,  // measure 25
0100
0000
0000
0000
,  // measure 26
1001
0000
0000
0000
,  // measure 27
1000
0000
0000
0000
,  // measure 28
0010
0000
0000
0000
,  // measure 29
0100
0000
0000
0000
,  // measure 30
1001
0000
0000
0000
,  // measure 31
1001
0000
0000
0000
,  // measure 32
1001
0000
0000
0000
,  // measure 33
0010
0000
0000
0000
,  // measure 34
1001
0000
1000
0000
,  // measure 35
0001
0000
0000
0000
,  // measure 36
1000
0000
0001
0000
,  // measure 37
1000
0000
0000
0000
,  // measure 38
0001
0000
0100
0000
,  // measure 39
0001
0000
0000
0000
,  // measure 40
1000
0000
0100
0000
,  // measure 41
1000
0000
0000
0000
,  // measure 42
0001
0000
0010
0000
,  // measure 43
0001
0000
0000
0000
,  // measure 44
1000
0000
0010
0000
,  // measure 45
1000
0000
0000
0000
,  // measure 46
0001
0000
0000
0000
,  // measure 47
0100
0000
0000
0000
,  // measure 48
0010
0000
0000
0000
,  // measure 49
1001
0000
0000
0000
,  // measure 50
1000
0000
0000
0000
,  // measure 51
0100
0000
0000
0000
,  // measure 52
0010
0000
0000
0000
,  // measure 53
0001
0000
0000
0000
,  // measure 54
0100
0000
0000
0000
,  // measure 55
0010
0000
0000
0000
,  // measure 56
1000
0000
0000
0000
,  // measure 57
0001
0000
0000
0000
,  // measure 58
1001
0000
0000
0000
,  // measure 59
1000
0000
0000
0000
,  // measure 60
0100
0000
0000
0000
,  // measure 61
0010
0000
0000
0000
,  // measure 62
0001
0000
0000
0000
,  // measure 63
1000
0000
0000
0000
,  // measure 64
0010
0000
0000
0000
,  // measure 65
0100
0000
0000
0000
,  // measure 66
1001
0000
1000
0000
,  // measure 67
0001
0000
0000
0000
,  // measure 68
1000
0000
0010
0000
,  // measure 69
1000
0000
0000
0000
,  // measure 70
0001
0000
1000
0000
,  // measure 71
0001
0000
0000
0000
,  // measure 72
0100
0000
0010
0000
,  // measure 73
0100
0000
0000
0000
,  // measure 74
0001
0000
1000
0000
,  // measure 75
0001
0000
0000
0000
,  // measure 76
1000
0000
0100
0000
,  // measure 77
1000
0000
0000
0000
,  // measure 78
1001
0000
0000
0000
,  // measure 79
0110
0000
0000
0000
,  // measure 80
1001
0000
0000
0000
,  // measure 81
0110
0000
0000
0000
,  // measure 82
1001
0000
0000
0000
;

//---------------dance-single - ----------------
#NOTES:
     dance-single:
     :
     Easy:
     6:
     0.245625,0.303564,0.065813,0.255026,0.000000,209.000000,201.000000,8.000000,31.000000,0.000000,0.000000,0.245625,0.303564,0.065813,0.255026,0.000000,209.000000,201.000000,8.000000,31.000000,0.000000,0.000000:
// measure 0
0000
0000
0000
0000
,  // measure 1
0000
0000
0000
0000
,  // measure 2
0000
0000
0000
0000
,  // measure 3
0000
0000
0000
0000
,  // measure 4
0000
0000
0000
0000
,  // measure 5
1000
0001
0100
0001
,  // measure 6
1000
0001
0100
0001
,  // measure 7
1000
0100
0010
0100
,  // measure 8
1000
0100
0010
0100
,  // measure 9
2000
0000
3000
0000
,  // measure 10
0001
0010
0100
0010
,  // measure 11
0001
1000
0100
1000
,  // measure 12
0001
0100
0010
0100
,  // measure 13
0001
1000
0100
1000
,  // measure 14
0001
0010
0100
0010
,  // measure 15
0001
0100
0010
0100
,  // measure 16
0001
0010
0100
1000
,  // measure 17
0020
0000
0000
0030
,  // measure 18
2000
0000
0000
3000
,  // measure 19
0002
0000
0000
0003
,  // measure 20
0020
0000
0000
0030
,  // measure 21
0200
0000
0000
0300
,  // measure 22
2000
0000
0000
3000
,  // measure 23
0020
0000
0000
0030
,  // measure 24
0200
0000
0000
0300
,  // measure 25
0002
0000
0000
0003
,  // measure 26
2001
0000
0000
3000
,  // measure 27
0200
0000
0000
0300
,  // measure 28
0020
0000
0000
0030
,  // measure 29
0002
0000
0000
0003
,  // measure 30
0201
0000
0000
0300
,  // measure 31
1020
0000
0000
0030
,  // measure 32
1001
0000
1000
0000
,  // measure 33
0001
0000
0000
0000
,  // measure 34
0100
0001
0100
0001
,  // measure 35
1000
0100
1000
0100
,  // measure 36
0010
0001
0010
0001
,  // measure 37
1000
0010
0100
0001
,  // measure 38
1000
0100
1000
0100
,  // measure 39
0010
0001
0010
0001
,  // measure 40
1000
0010
0100
0001
,  // measure 41
0010
0100
1000
0001
,  // measure 42
0100
0010
0100
0010
,  // measure 43
1000
0001
1000
0001
,  // measure 44
0010
0100
0010
0100
,  // measure 45
1000
0001
0100
0010
,  // measure 46
2000
0000
3000
0000
,  // measure 47
0002
0000
0003
0000
,  // measure 48
0100
0010
0100
0010
,  // measure 49
2000
0000
0000
3000
,  // measure 50
0002
0000
0000
0003
,  // measure 51
0020
0000
0000
0030
,  // measure 52
0200
0000
0000
0300
,  // measure 53
2000
0000
0000
3000
,  // measure 54
0020
0000
0000
0030
,  // measure 55
0200
0000
0000
0300
,  // measure 56
0002
0000
0000
0003
,  // measure 57
0020
0000
0000
0030
,  // measure 58
0100
0000
1100
0000
,  // measure 59
1000
0000
1001
0000
,  // measure 60
0001
0000
0101
0000
,  // measure 61
1000
0000
1001
0000
,  // measure 62
0001
1000
0001
0000
,  // measure 63
1000
0010
1000
0000
,  // measure 64
0001
0010
0100
1000
,  // measure 65
0200
0000
0000
0300
,  // measure 66
0010
0001
0010
0100
,  // measure 67
1000
0001
0100
0010
,  // measure 68
0100
0001
1000
0100
,  // measure 69
0010
0001
0100
0010
,  // measure 70
1000
0001
0010
0100
,  // measure 71
0010
0001
1000
0010
,  // measure 72
1000
0001
0010
0100
,  // measure 73
1000
0100
0001
0100
,  // measure 74
1000
0001
0100
0010
,  // measure 75
0100
0001
1000
0100
,  // measure 76
0010
0001
0100
0010
,  // measure 77
1000
0001
0010
0100
,  // measure 78
2000
0000
3000
0000
,  // measure 79
0020
0000
0030
0000
,  // measure 80
0100
0001
0010
0100
,  // measure 81
2000
0000
0000
0000
,  // measure 82
3001
0000
0000
0000
;

//---------------dance-single - ----------------
#NOTES:
     dance-single:
     :
     Medium:
     11:
     0.434838,0.472210,0.016453,0.386653,0.098720,370.000000,368.000000,2.000000,47.000000,0.000000,0.000000,0.434838,0.472210,0.016453,0.386653,0.098720,370.000000,368.000000,2.000000,47.000000,0.000000,0.000000:
// measure 0
0000
0000
0000
0000
,  // measure 1
0000
0000
0000
0000
,  // measure 2
0000
0000
0000
0000
,  // measure 3
0000
0000
0000
0000
,  // measure 4
0000
0000
0000
0000
,  // measure 5
0000
0000
0000
0000
,  // measure 6
1000
0000
0001
0100
0000
0001
0100
0000
,  // measure 7
0001
1000
0000
0001
1000
0000
0100
0000
,  // measure 8
0010
0000
0001
1000
0000
0001
1000
0000
,  // measure 9
0010
1000
0000
0010
1000
0000
0001
0000
,  // measure 10
1000
0000
0100
0010
0000
0100
0010
0000
,  // measure 11
0001
1000
0000
0001
1000
0000
0001
0000
,  // measure 12
0100
0000
0010
1000
0000
0010
1000
0000
,  // measure 13
0001
0100
0000
0001
0100
0000
0001
0000
,  // measure 14
1000
0000
0100
0010
0000
0100
0010
0000
,  // measure 15
0001
1000
0000
0001
1000
0000
0001
0000
,  // measure 16
0100
0000
0010
1000
0000
0010
1000
0000
,  // measure 17
0002
0000
1000
0000
0000
1000
1003
0000
,  // measure 18
0001
0000
0100
0000
0100
0000
0000
0000
0010
0000
0000
0010
0000
0000
0010
0000
,  // measure 19
0000
0000
1000
0000
1000
0000
0000
0000
0001
0000
0000
0001
0000
0000
0001
0000
,  // measure 20
0000
0000
0010
0000
0010
0000
0000
0000
0100
0000
0000
0100
0000
0000
0100
0000
,  // measure 21
0000
0000
1000
0000
1000
0000
0000
0000
0001
0000
0000
0001
0000
0000
0001
0000
,  // measure 22
0000
0000
0100
0000
0100
0000
0000
0000
0010
0000
0000
0010
0000
0000
0010
0000
,  // measure 23
0000
0000
1000
0000
1000
0000
0000
0000
0001
0000
0000
0001
0000
0000
0001
0000
,  // measure 24
0000
0000
1000
0000
1000
0000
0000
0000
0001
0000
0000
0001
0000
0000
0001
0000
,  // measure 25
0000
0000
0010
0000
0010
0000
0000
0000
0100
0000
0000
0100
0000
0000
0100
0000
,  // measure 26
2000
0000
0000
3002
0000
0000
0203
0320
,  // measure 27
0000
0000
0000
0000
0000
0230
0302
2003
,  // measure 28
3020
0000
0000
2030
0000
3200
0000
0320
,  // measure 29
0032
0000
2003
0000
3020
0230
0000
0302
,  // measure 30
1003
0000
0100
0000
0010
0000
0001
1000
,  // measure 31
0001
0000
0100
0000
0010
0000
1000
0001
,  // measure 32
1000
0000
0000
1000
0000
0000
0100
0000
0000
0100
0000
0000
0010
0000
0001
0000
,  // measure 33
0020
0000
0000
0030
,  // measure 34
0100
0000
1000
0000
1000
0000
0000
0000
0001
0000
0000
0001
0000
0000
0001
0000
,  // measure 35
0100
0000
0010
0000
0010
0000
0000
0000
1000
0000
0000
1000
0000
0000
1000
0000
,  // measure 36
0001
0000
0010
0000
0010
0000
0000
0000
0100
0000
0000
0100
0000
0000
0100
0000
,  // measure 37
1000
0000
0001
0000
0001
0000
0000
0000
0100
0000
0000
0100
0000
0000
0100
0000
,  // measure 38
0010
0000
1000
0000
1000
0000
0000
0000
0001
0000
0000
0001
0000
0000
0001
0000
,  // measure 39
0010
0000
0100
0000
0100
0000
0000
0000
1000
0000
0000
1000
0000
0000
1000
0000
,  // measure 40
0001
0000
0100
0000
0100
0000
0000
0000
0010
0000
0000
0010
0000
0000
0010
0000
,  // measure 41
1000
0000
0100
0000
0100
0000
0000
0000
0010
0000
0000
0010
0000
0000
0010
0000
,  // measure 42
0001
0000
1000
0000
1000
0000
0000
0000
0010
0000
0000
0100
0000
0000
0001
0000
,  // measure 43
1000
0000
0001
0000
0001
0000
0000
0000
0010
0000
0000
0100
0000
0000
1000
0000
,  // measure 44
0001
0000
0100
0000
0100
0000
0000
0000
0010
0000
0000
1000
0000
0000
0001
0000
,  // measure 45
0010
0000
0100
0000
0100
0000
0000
0000
0010
0000
0000
0001
0000
0000
0100
0000
,  // measure 46
0010
0000
1000
0000
1000
0000
0000
0000
0001
0000
0000
0001
0000
0000
0001
0000
,  // measure 47
0010
0000
0100
0000
0100
0000
0000
0000
1000
0000
0000
1000
0000
0000
1000
0000
,  // measure 48
0001
0100
0010
0000
1000
0010
0100
0000
,  // measure 49
0002
0000
0000
0000
0000
0000
2003
3200
,  // measure 50
0320
0000
0000
0032
0000
0000
0000
0000
,  // measure 51
2003
0000
0000
3020
0000
0000
0000
0000
,  // measure 52
0230
0000
0000
0000
0000
0302
2003
3002
,  // measure 53
0203
0000
0302
2003
0000
3200
0320
0230
,  // measure 54
2300
0000
0000
3002
0000
0000
0203
0000
,  // measure 55
0320
0000
0000
2030
0000
0000
3200
0320
,  // measure 56
0000
0000
0000
0000
0000
0000
0000
0032
,  // measure 57
0000
0000
0000
0000
,  // measure 58
1003
0000
0000
1000
0010
0000
0010
0000
,  // measure 59
0100
0001
0100
0000
0101
0000
0000
0001
,  // measure 60
1000
0000
0000
1000
0010
0000
0100
0000
,  // measure 61
0001
1000
0001
0000
0011
0000
0010
0100
,  // measure 62
1000
0100
0010
0001
,  // measure 63
0100
0010
1000
0001
,  // measure 64
0010
0100
0010
0000
0001
1000
0001
0000
,  // measure 65
0100
0002
0000
0000
0000
0000
0000
0000
,  // measure 66
1003
0010
0000
1000
0010
0000
1000
0100
,  // measure 67
0010
0001
0000
0010
0001
0000
0100
0010
,  // measure 68
1000
0001
0000
1000
0001
0000
0010
0001
,  // measure 69
1000
0001
0000
1000
0001
0000
1000
0001
,  // measure 70
0010
0100
0000
0010
0100
0000
0010
0100
,  // measure 71
1000
0001
0000
1000
0001
0000
0100
0001
,  // measure 72
0010
0100
0000
0010
0100
0000
1000
0001
,  // measure 73
0100
0010
0000
0001
0010
0100
0001
1000
,  // measure 74
0001
1000
0000
0001
0100
0000
0001
1000
,  // measure 75
0100
0010
0000
0100
1000
0000
0001
0100
,  // measure 76
0010
1000
0000
0010
0100
0000
0001
1000
,  // measure 77
0001
0010
0000
0100
1000
0000
0001
0100
,  // measure 78
0020
0000
0000
0000
0000
0000
0000
1030
,  // measure 79
0002
0000
0000
0000
0000
0000
0000
1003
,  // measure 80
0100
0010
0100
0000
1000
0001
1000
0000
,  // measure 81
0020
0000
0000
0000
,  // measure 82
0130
0000
0000
0000
;

//---------------dance-single - ----------------
#NOTES:
     dance-single:
     :
     Hard:
     13:
     0.589969,0.734230,0.041133,0.312613,0.180987,502.000000,497.000000,5.000000,38.000000,1.000000,0.000000,0.589969,0.734230,0.041133,0.312613,0.180987,502.000000,497.000000,5.000000,38.000000,1.000000,0.000000:
// measure 0
0000
0000
0000
0000
,  // measure 1
0000
0000
0000
0000
,  // measure 2
0000
0000
0000
0000
,  // measure 3
0000
0000
0000
0000
,  // measure 4
0000
0000
0000
0000
,  // measure 5
0000
0000
0000
0000
,  // measure 6
1000
0100
1000
0010
0000
0100
0001
1000
,  // measure 7
0000
0100
0010
0001
0100
0010
1000
0001
,  // measure 8
0010
0100
1000
0010
0000
0100
0001
1000
,  // measure 9
0000
0000
0100
0000
0010
0000
0001
0000
0100
0000
0010
0000
0010
0000
1000
0010
,  // measure 10
1000
0010
1000
0100
0000
0010
0001
1000
,  // measure 11
0000
0010
0100
0001
0010
0100
1000
0001
,  // measure 12
0100
0010
1000
0100
0000
0010
0001
1000
,  // measure 13
0000
0010
0100
0001
0010
0100
0010
0001
,  // measure 14
1000
0010
1000
0100
0000
0010
0001
1000
,  // measure 15
0000
0010
0100
0001
0010
0100
0010
0001
,  // measure 16
1000
0010
1000
0100
0000
0010
0100
1000
,  // measure 17
0000
0000
0001
0000
0100
0000
0010
0000
0000
0000
1000
0000
1000
0000
0001
1000
,  // measure 18
0001
0000
0100
0000
0100
0000
0000
0000
0010
0000
0000
0010
0000
0000
0010
0000
,  // measure 19
0000
0000
1000
0000
1000
0000
0000
0000
0001
0000
0000
0001
0000
0000
0001
0000
,  // measure 20
0000
0000
0010
0000
0010
0000
0000
0000
0100
0000
0000
0100
0000
0000
0100
0000
,  // measure 21
0000
0000
1000
0000
1000
0000
0000
0000
0001
0000
0000
0001
0000
0000
0001
0000
,  // measure 22
0000
0000
0100
0000
0100
0000
0000
0000
0010
0000
0000
0010
0000
0000
0010
0000
,  // measure 23
0000
0000
1000
0000
1000
0000
0000
0000
0100
0000
0000
0100
0000
0000
0100
0000
,  // measure 24
0000
0000
0010
0000
0010
0000
0000
0000
0001
0000
0000
0001
0000
0000
0001
0000
,  // measure 25
0000
0000
0100
0000
0100
0000
0000
0000
0010
0000
0000
0010
0000
0000
0010
0000
,  // measure 26
2000
0000
0000
3200
0000
0000
0320
0032
,  // measure 27
0000
0100
0000
0100
0000
2003
3200
2300
,  // measure 28
3002
0000
0000
0203
0000
0320
0000
1030
,  // measure 29
0200
0000
0320
0000
1030
0020
0000
0031
,  // measure 30
0001
1000
0001
0000
0100
0000
0010
0000
1000
0000
0100
0000
0010
0000
0001
0000
,  // measure 31
0001
1000
0001
0000
0010
0000
0001
0000
0100
0000
0010
0000
1000
0000
0100
0000
,  // measure 32
0110
0000
0000
0011
0000
0000
1001
0000
0000
0011
0000
0000
0110
0000
0100
0000
,  // measure 33
2000
0000
0000
0000
,  // measure 34
3001
0000
0100
0000
0100
0000
0000
0000
0010
0000
1000
0001
1000
0000
0001
0000
,  // measure 35
0010
0000
0100
0000
0100
0000
0000
0000
1000
0000
0001
0100
0001
0000
1000
0000
,  // measure 36
0100
0000
0010
0000
0010
0000
0000
0000
0001
0000
1000
0010
1000
0000
0001
0000
,  // measure 37
0010
0000
0100
0000
0100
0000
0000
0000
1000
0000
0010
1000
0010
0000
0100
0000
,  // measure 38
0001
0000
1000
0000
1000
0000
0000
0000
0100
0000
0010
0001
0010
0000
0100
0000
,  // measure 39
1000
0000
0001
0000
0001
0000
0000
0000
0100
0000
0010
1000
0010
0000
1000
0000
,  // measure 40
0001
0000
0010
0000
0010
0000
0000
0000
0100
0000
1000
0001
1000
0000
0100
0000
,  // measure 41
0010
0000
0001
0000
0001
0000
0000
0000
0100
0000
0010
1000
0010
0000
1000
0000
,  // measure 42
0100
0000
0010
0000
0010
0000
0000
0000
0001
0000
1000
0010
1000
0000
0001
0000
,  // measure 43
0010
0000
0100
0000
0100
0000
0000
0000
1000
0000
0001
0100
0001
0000
1000
0000
,  // measure 44
0100
0000
0010
0000
0010
0000
0000
0000
0001
0000
1000
0010
1000
0000
0001
0000
,  // measure 45
0010
0000
0100
0000
0100
0000
0000
0000
1000
0000
0001
0100
0001
0000
1000
0000
,  // measure 46
0100
0000
0010
0000
0010
0000
0000
0000
0001
0000
0000
0001
1000
0000
0001
0000
,  // measure 47
0100
0000
0010
0000
0010
0000
0000
0000
1000
0000
0000
1000
0001
0000
0010
0000
,  // measure 48
0100
1000
0100
0000
0010
0000
0010
0000
0001
1000
0001
0000
0100
0000
0100
0000
,  // measure 49
0020
0000
0000
0000
0000
0000
2030
3200
,  // measure 50
0320
0000
0000
0032
0000
0000
0000
0000
,  // measure 51
0203
0000
0000
0320
0000
0000
0000
0000
,  // measure 52
0032
0000
0000
0000
0000
0023
0230
0301
,  // measure 53
0002
0000
2003
3200
0000
0320
0032
2003
,  // measure 54
3020
0000
0000
0230
0000
0000
0302
0000
,  // measure 55
2003
0000
0000
3200
0000
0000
0320
0230
,  // measure 56
0000
0000
0000
0000
0000
0000
0000
0302
,  // measure 57
0000
0000
0000
0000
,  // measure 58
0103
0000
0000
0100
1000
0000
0001
0000
,  // measure 59
0000
0100
0001
0000
1000
0001
0000
1000
,  // measure 60
0001
0000
0000
0001
0010
0000
0100
0000
,  // measure 61
0000
1000
0100
0000
0010
0000
0001
1000
,  // measure 62
0010
0100
0001
0100
0010
1000
0010
0100
,  // measure 63
0001
1000
0100
0010
0001
0010
0100
1000
,  // measure 64
0001
0100
0001
1000
0100
1000
0001
0010
,  // measure 65
0100
1000
0000
0100
0001
0100
1000
0001
,  // measure 66
0100
0010
1000
0000
0001
0000
0100
0000
0010
0000
1000
0000
0001
0000
0010
0000
,  // measure 67
0100
1000
0001
0000
0100
0000
0010
0000
0100
0000
0001
0000
0010
0000
0100
0000
,  // measure 68
1000
0001
0100
0000
0010
0000
0100
0000
0001
0000
1000
0000
0100
0000
0010
0000
,  // measure 69
0001
1000
0010
0000
0100
0000
0010
0000
1000
0000
0001
0000
0010
0000
0100
0000
,  // measure 70
1000
0001
0100
0000
0010
0000
1000
0000
0001
0000
0010
0000
0100
0000
0010
0000
,  // measure 71
0001
0100
0010
0000
1000
0000
0001
0000
0010
0000
0100
0000
0010
0000
0001
0000
,  // measure 72
0100
0010
1000
0000
0001
0000
0010
0000
0100
0000
1000
0000
0010
0000
0100
0000
,  // measure 73
0001
0010
0100
0000
1000
0000
0010
0000
0001
0000
0010
0000
0100
0000
0001
0000
,  // measure 74
1000
0100
0010
0000
0001
0000
1000
0000
0001
0000
0100
0000
0010
0000
1000
0000
,  // measure 75
0001
0010
0100
0000
1000
0000
0010
0000
0100
0000
0001
0000
1000
0000
0010
0000
,  // measure 76
0100
0001
1000
0000
0100
0000
0010
0000
0100
0000
1000
0000
0001
0000
0100
0000
,  // measure 77
0010
1000
0100
0000
0010
0000
0001
0000
0100
0000
0010
0000
1000
0000
0001
0000
,  // measure 78
0010
0100
0000
0100
0000
0100
0000
0100
,  // measure 79
1000
0001
0000
0001
0000
0001
0000
0001
,  // measure 80
0100
0010
1000
0000
0001
0000
0001
0000
0010
0100
1000
0000
0001
0000
0001
0000
,  // measure 81
0100
0010
0000
0010
0000
0100
0000
0100
,  // measure 82
0001
0000
0000
0000
,  // measure 83
0000
0000
0000
0000
,  // measure 84
0000
0000
0000
0000
,  // measure 85
00M0
0000
0000
0000
;
