#VERSION:0.83;
#TITLE:f**k it;
#SUBTITLE:;
#ARTIST:GHOST feat. Hatsune Miku;
#TITLETRANSLIT:;
#SUBTITLETRANSLIT:;
#ARTISTTRANSLIT:;
#GENRE:mood;
#ORIGIN:;
#TAGS:;
#CREDIT:;
#BANNER:f--k it.png;
#BACKGROUND:f--k it-background.png;
#PREVIEWVID:;
#JACKET:f--k it-jacket.png;
#CDIMAGE:;
#DISCIMAGE:;
#LYRICSPATH:;
#CDTITLE:../_YSD cdtitles/ysd cc2 cdtitle.png;
#MUSIC:f--k it.ogg;
#OFFSET:-0.095000;
#SAMPLESTART:24.480070;
#SAMPLELENGTH:3.577303;
#SELECTABLE:YES;
#DISPLAYBPM:120;
#BPMS:0.000000=120.180000
,16.000000=119.839996
,42.000000=124.999992
,44.000000=105.000000
,45.000000=119.000000
,46.000000=124.999992
,48.000000=121.599998
,56.000000=117.949997
,62.000000=120.619995
,64.500000=241.239990
,67.500000=120.619995
,68.500000=241.239990
,72.000000=120.619995
,72.750000=120.000000
;
#STOPS:64.500000=0.124359
,65.000000=0.124355
,65.500000=0.124355
,66.000000=0.124355
,66.500000=0.124355
,67.000000=0.124355
,68.500000=0.124359
,69.000000=0.124355
,69.500000=0.124355
,70.000000=0.124355
,70.500000=0.124355
,71.000000=0.124355
,71.500000=0.124355
;
#DELAYS:;
#WARPS:;
#TIMESIGNATURES:0.000000=4=4
;
#TICKCOUNTS:0.000000=4
;
#COMBOS:0.000000=1
;
#SPEEDS:0.000000=1.000000=0.000000=0
,74.000000=4.000000=1.000000=0
;
#SCROLLS:0.000000=1.000000
;
#FAKES:;
#LABELS:0.000000=Song Start
;
#BGCHANGES:-0.200=f--k it.mp4=1.000=1=0=0=StretchNoLoop====,
99999=-nosongbg-=1.000=0=0=0 // don't automatically add -songbackground-
;
#KEYSOUNDS:;
#ATTACKS:
;

//---------------dance-single - no 32nd run----------------
#NOTEDATA:;
#CHARTNAME:;
#CHARTHASH:1986096651;
#STEPSTYPE:dance-single;
#BANNER:;
#DESCRIPTION:no 32nd run;
#CHARTSTYLE:;
#DIFFICULTY:Hard;
#METER:9;
#METERF:0.000000;
#LASTSECONDHINT:38.067886;
#RADARVALUES:0.370855,0.739856,0.623037,0.389398,0.168739,100.000000,76.000000,24.000000,15.000000,0.000000,0.000000,0.000000,0.000000,0.000000,0.370855,0.739856,0.623037,0.389398,0.168739,100.000000,76.000000,24.000000,15.000000,0.000000,0.000000,0.000000,0.000000,0.000000;
#CREDIT:yosefu;
#NOTES:
0000
0000
0000
0000
,
0000
0000
0000
0000
,
1001
0000
0002
0000
0000
2003
0000
3000
,
1100
0000
0200
0000
0000
0320
0000
0030
,
0011
0000
0002
0000
0000
2003
0000
3001
,
0010
0000
0010
0100
0000
0100
1000
0000
0000
0000
0000
0000
,
1100
0000
0200
0000
0000
0320
0000
0030
,
0011
0000
0002
0000
0000
2003
3000
0000
,
1010
0000
0020
0000
0000
0230
0000
0000
,
0301
0000
0001
1000
0000
1000
0100
0000
0000
0000
0000
0000
,
0010
0000
0001
0000
0010
0000
0100
0000
1000
0001
0000
1000
0010
0000
0000
0000
,
0100
0000
0001
0000
1000
0000
0000
0000
0001
0010
0100
0000
0000
0000
1000
0000
,
0010
0000
0000
2000
0000
0000
0000
0000
0000
0000
0000
0000
0000
0000
0000
0000
,
0000
0000
0000
0000
,
3001
0000
0100
0000
0010
0000
1000
0000
0000
0001
0000
0000
0010
0000
0000
0000
0000
0000
0000
0000
0000
0000
0000
0000
,
0110
1100
1001
0000
,
0000
1100
0101
0011
1010
1100
0101
1001
,
0000
1010
0101
0011
1100
1010
0101
1001
,
0001
0001
0000
0001
0000
0100
0010
0000
1000
0000
0000
0000
2002
0000
0000
0000
,
3003
0000
0000
0000
;

//---------------dance-single - ----------------
#NOTEDATA:;
#CHARTNAME:syncing this was a pain qwq;
#CHARTHASH:1357378554;
#STEPSTYPE:dance-single;
#BANNER:;
#DESCRIPTION:;
#CHARTSTYLE:;
#DIFFICULTY:Challenge;
#METER:18;
#METERF:0.000000;
#LASTSECONDHINT:38.067886;
#RADARVALUES:0.582243,1.504374,0.623037,0.363438,0.726876,157.000000,133.000000,24.000000,14.000000,0.000000,0.000000,0.000000,0.000000,0.000000,0.582243,1.504374,0.623037,0.363438,0.726876,157.000000,133.000000,24.000000,14.000000,0.000000,0.000000,0.000000,0.000000,0.000000;
#CREDIT:yosefu;
#NOTES:
// measure 0
0000
0000
0000
0000
,  // measure 1
0000
0000
0000
0000
,  // measure 2
1001
0000
0002
0000
0000
2003
0000
3000
,  // measure 3
1100
0000
0200
0000
0000
0320
0000
0030
,  // measure 4
0011
0000
0002
0000
0000
2003
0000
3001
,  // measure 5
0010
0000
0010
0100
0000
0100
1000
0000
0000
0000
0000
0000
,  // measure 6
1100
0000
0200
0000
0000
0320
0000
0030
,  // measure 7
0011
0000
0002
0000
0000
2003
3000
0000
,  // measure 8
1010
0000
0020
0000
0000
0230
0000
0000
,  // measure 9
0301
0000
0001
1000
0000
1000
0100
0000
0000
0000
0000
0000
,  // measure 10
0010
0000
0001
0000
0010
0000
0100
0000
1000
0001
0000
1000
0010
0000
0000
0000
,  // measure 11
0100
0000
0001
0000
1000
0000
0000
0000
0001
0010
0100
0000
0000
0000
1000
0000
,  // measure 12
0010
0000
0000
0000
0000
0000
1000
0100
0010
0001
1000
0010
0100
0010
1000
0001
0010
0100
1000
0001
0100
0010
0100
0001
1000
0100
0010
0001
1000
0010
0100
0001
,  // measure 13
1000
0100
0010
0100
1000
0001
0100
0010
0100
0001
1000
0100
0010
0001
1000
0010
0100
0001
1000
0001
0010
0100
1000
0001
0100
0010
1000
0001
0010
0100
0010
0001
,  // measure 14
1000
0000
0100
0000
0010
0000
0001
0000
0000
1000
0000
0000
0010
0000
0000
0000
0000
0000
0000
0000
0000
0000
0000
0000
,  // measure 15
0110
0101
1001
0000
,  // measure 16
0000
0101
1100
1010
0011
0101
1100
1001
,  // measure 17
0000
0011
1100
1010
0101
0011
1100
1001
,  // measure 18
1000
1000
0000
1000
0000
0100
0010
0000
0001
0000
0000
0000
2002
0000
0000
0000
,  // measure 19
3003
0000
0000
0000
;
