#VERSION:0.83;
#TITLE:ehe te nandayo;
#SUBTITLE:pt2;
#ARTIST:Heiakim;
#TITLETRANSLIT:;
#SUBTITLETRANSLIT:;
#ARTISTTRANSLIT:;
#GENRE:Emergency Drift;
#ORIGIN:Paimon (2021 E.P.);
#TAGS:;
#CREDIT:;
#BANNER:ehe te nandayo pt2.png;
#BACKGROUND:ehe te nandayo pt2-bg.png;
#PREVIEWVID:;
#JACKET:ehe te nandayo pt2-jacket.png;
#CDIMAGE:;
#DISCIMAGE:;
#LYRICSPATH:;
#CDTITLE:../_YSD cdtitles/ysd sc2023 cdtitle.png;
#MUSIC:ehe te nandayo pt2.ogg;
#OFFSET:0.000000;
#SAMPLESTART:38.400002;
#SAMPLELENGTH:12.800000;
#SELECTABLE:YES;
#BPMS:0.000000=150.000000
;
#STOPS:;
#DELAYS:;
#WARPS:;
#TIMESIGNATURES:0.000000=4=4
;
#TICKCOUNTS:0.000000=4
;
#COMBOS:0.000000=1
;
#SPEEDS:0.000000=1.000000=0.000000=0
;
#SCROLLS:0.000000=1.000000
;
#FAKES:;
#LABELS:0.000000=Song Start
;
#BGCHANGES:;
#KEYSOUNDS:;
#ATTACKS:
;

//---------------dance-single - FS-, JU, XO----------------
#NOTEDATA:;
#CHARTNAME:No More Paimon (vine boom);
#CHARTHASH:1325889308;
#STEPSTYPE:dance-single;
#BANNER:;
#DESCRIPTION:FS-, JU, XO;
#CHARTSTYLE:;
#DIFFICULTY:Hard;
#METER:13;
#METERF:0.000000;
#LASTSECONDHINT:76.599998;
#RADARVALUES:0.610423,0.702248,0.140306,0.357143,0.389031,335.000000,324.000000,11.000000,28.000000,0.000000,0.000000,0.000000,0.000000,0.000000,0.610423,0.702248,0.140306,0.357143,0.389031,335.000000,324.000000,11.000000,28.000000,0.000000,0.000000,0.000000,0.000000,0.000000;
#CREDIT:Yosefu as ''Certified Dumbass'';
#NOTES:
// measure 0
0000
0000
0000
0000
,  // measure 1
0000
0000
0000
0000
,  // measure 2
0000
0000
0000
0000
,  // measure 3
0000
0000
0000
0000
,  // measure 4
0001
0000
0000
0100
0000
0000
1000
0000
0100
0000
0000
0000
0100
0000
0000
0000
,  // measure 5
0001
0000
0000
0010
0000
0000
1000
0000
0010
0000
0000
0000
0010
0000
0000
0000
,  // measure 6
0100
0100
0100
0100
,  // measure 7
1000
0000
0000
0000
0000
0000
0000
0000
0100
0000
0000
0000
0000
0000
0000
0000
0010
0000
0000
0000
0000
0000
0000
0000
0011
0000
0000
0000
0000
0000
0000
0000
0000
0001
0000
0000
1000
0000
0000
0000
0000
0000
0010
0000
0000
0100
0000
0000
,  // measure 8
0001
0000
0000
0000
0000
0000
0000
0000
0200
0300
0000
0000
0000
0000
0000
0000
0000
0000
0000
0000
0000
0000
0000
0000
0200
0300
0000
0000
0000
0000
0000
0000
1000
0000
0000
0000
0000
0000
0000
0000
0100
0000
0000
0000
0000
0000
0000
0000
0010
0000
0000
0000
0000
0000
0000
0000
0000
0000
0000
0000
0000
0000
0000
0000
,  // measure 9
0001
0100
0010
0001
0010
0100
0001
0000
,  // measure 10
1000
0000
0000
0000
0000
0000
0000
0000
0200
0300
0000
0000
0000
0000
0000
0000
0000
0000
0000
0000
0000
0000
0000
0000
0200
0300
0000
0000
0000
0000
0000
0000
0001
0000
0000
0000
0000
0000
0000
0000
0010
0000
0000
0000
0000
0000
0000
0000
0100
0000
0000
0000
0000
0000
0000
0000
0000
0000
0000
0000
0000
0000
0000
0000
,  // measure 11
1100
0000
0000
1000
0001
0000
0100
0000
0020
0000
0000
0000
0031
0000
0010
0000
,  // measure 12
1000
0000
0000
0000
0000
0000
0000
0000
0200
0300
0000
0000
0000
0000
0000
0000
0000
0000
0000
0000
0000
0000
0000
0000
0200
0300
0000
0000
0000
0000
0000
0000
0001
0000
0000
0000
0000
0000
0000
0000
0010
0000
0000
0000
0000
0000
0000
0000
0100
0000
0000
0000
0000
0000
0000
0000
0000
0000
0000
0000
0000
0000
0000
0000
,  // measure 13
1000
0010
0100
1000
0100
0010
1000
0001
,  // measure 14
0010
0000
0000
0000
0000
0000
0000
0000
0200
0300
0000
0000
0000
0000
0000
0000
0000
0000
0000
0000
0000
0000
0000
0000
0200
0300
0000
0000
0000
0000
0000
0000
1000
0000
0000
0000
0000
0000
0000
0000
0001
0000
0000
0000
0000
0000
0000
0000
0100
0000
0000
0000
0000
0000
0000
0000
0000
0000
0000
0000
0000
0000
0000
0000
,  // measure 15
0001
0000
0000
1000
0100
0000
0010
0000
0011
0000
0000
0001
1000
0000
0010
0100
,  // measure 16
0001
0000
0000
0000
0000
0000
0000
0000
0200
0300
0000
0000
0000
0000
0000
0000
0000
0000
0000
0000
0000
0000
0000
0000
0200
0300
0000
0000
0000
0000
0000
0000
1000
0000
0000
0000
0000
0000
0000
0000
0100
0000
0000
0000
0000
0000
0000
0000
0010
0000
0000
0000
0000
0000
0000
0000
0001
0000
0000
0000
0000
0000
0000
0000
,  // measure 17
0100
0010
0001
0010
1000
0001
0010
0000
,  // measure 18
0001
0000
0000
0000
0000
0000
0000
0000
0200
0300
0000
0000
0000
0000
0000
0000
0000
0000
0000
0000
0000
0000
0000
0000
0200
0300
0000
0000
0000
0000
0000
0000
1000
0000
0000
0000
0000
0000
0000
0000
0010
0000
0000
0000
0000
0000
0000
0000
0100
0000
0000
0000
0000
0000
0000
0000
0001
0000
0000
0000
0000
0000
0000
0000
,  // measure 19
1000
0000
0000
0100
0010
0000
0001
0000
0100
0000
1000
0000
0100
0000
0001
0000
,  // measure 20
1000
0000
0000
0000
0000
0000
0000
0000
0020
0030
0000
0000
0000
0000
0000
0000
0000
0000
0000
0000
0000
0000
0000
0000
0020
0030
0000
0000
0000
0000
0000
0000
0001
0000
0000
0000
0000
0000
0000
0000
0010
0000
0000
0000
0000
0000
0000
0000
1000
0000
0000
0000
0000
0000
0000
0000
0010
0000
0000
0000
0000
0000
0000
0000
,  // measure 21
0001
0100
1000
0100
0001
1000
0100
0000
,  // measure 22
0010
0001
0100
0010
1000
0100
0010
0001
,  // measure 23
1000
0000
0010
0000
1000
0000
0100
0000
0010
0000
0010
0000
0001
1000
0010
0000
,  // measure 24
0101
0000
0000
0000
1001
0000
0000
0000
1000
0000
0000
0100
1000
0000
0001
0000
,  // measure 25
0101
0100
1000
0100
0010
1000
0001
0010
,  // measure 26
0100
0000
0001
0000
0100
0000
1000
0000
0001
0000
0000
0100
1000
0000
0100
0000
,  // measure 27
0020
0000
1000
0000
0230
0000
0001
0000
0310
0000
0000
1000
0100
0000
0010
0000
,  // measure 28
0002
0000
0100
0000
1003
0100
0010
0001
,  // measure 29
0100
0010
1000
0001
0000
0010
0100
1000
,  // measure 30
0001
0000
0201
0000
1000
0000
0301
0010
,  // measure 31
0100
0000
1000
0000
0010
0000
0001
0000
0010
0000
0010
0000
1000
0010
1000
0010
,  // measure 32
1000
0000
0000
0000
1001
0000
0000
0001
1000
0001
0000
0000
0010
0000
0100
0000
,  // measure 33
1100
0000
0000
0000
1010
0000
0000
1000
0001
1000
0000
0000
0100
0000
0010
0001
,  // measure 34
1000
0000
0010
0000
0001
0000
0010
0000
0100
0010
0000
0100
0001
0000
1000
0000
,  // measure 35
0100
0000
1000
0010
0001
0010
0100
0001
,  // measure 36
2001
0000
0100
0000
3010
1000
0100
0000
,  // measure 37
0010
0001
1000
0100
0001
0100
0010
0001
,  // measure 38
1000
0000
0000
0001
0100
0000
0000
0001
1000
0001
0000
1000
0100
0010
0100
1000
,  // measure 39
0001
0000
0100
0000
0010
0000
0001
0000
0010
0000
1000
0010
0100
0001
1000
0100
,  // measure 40
0010
0000
0000
0000
0000
0000
0000
0000
0200
0300
0000
0000
0000
0000
0000
0000
0000
0000
0000
0000
0000
0000
0000
0000
0200
0300
0000
0000
0000
0000
0000
0000
0001
0000
0000
0000
0000
0000
0000
0000
0100
0000
0000
0000
0000
0000
0000
0000
1000
0000
0000
0000
0000
0000
0000
0000
0100
0000
0000
0000
0000
0000
0000
0000
,  // measure 41
0001
0000
1000
0000
0100
0000
0001
0000
1000
0000
0010
0000
0001
0000
1000
0010
,  // measure 42
0100
0000
0000
0000
0000
0000
0000
0000
0020
0030
0000
0000
0000
0000
0000
0000
0000
0000
0000
0000
0000
0000
0000
0000
0020
0030
0000
0000
0000
0000
0000
0000
0001
0000
0000
0000
0000
0000
0000
0000
0100
0000
0000
0000
0000
0000
0000
0000
1000
0000
0000
0000
0000
0000
0000
0000
0100
0000
0000
0000
0000
0000
0000
0000
,  // measure 43
0010
0000
1000
0000
0100
0000
1000
0000
0010
0000
1000
0100
0010
0001
1000
0010
,  // measure 44
0100
0000
0000
0000
0000
0000
0000
0000
0020
0030
0000
0000
0000
0000
0000
0000
0000
0000
0000
0000
0000
0000
0000
0000
0020
0030
0000
0000
0000
0000
0000
0000
0100
0000
0000
0000
0000
0000
0000
0000
1000
0000
0000
0000
0000
0000
0000
0000
0010
0000
0000
0000
0000
0000
0000
0000
0000
0000
0000
0000
0000
0000
0000
0000
,  // measure 45
0001
1000
0100
0001
1000
0010
0100
0000
,  // measure 46
0001
0000
0000
0000
0000
0000
0000
0000
0020
0030
0000
0000
0000
0000
0000
0000
0000
0000
0000
0000
0000
0000
0000
0000
0020
0030
0000
0000
0000
0000
0000
0000
0001
0000
0000
0000
0000
0000
0000
0000
0010
0000
0000
0000
0000
0000
0000
0000
1000
0000
0000
0000
0000
0000
0000
0000
0000
0000
0000
0000
0000
0000
0000
0000
,  // measure 47
0100
0000
0010
0000
0001
0000
1000
0000
0010
0000
0100
0001
0010
0100
1000
0000
;

//---------------dance-single - ----------------
#NOTEDATA:;
#CHARTNAME:;
#CHARTHASH:3322140778;
#STEPSTYPE:dance-single;
#BANNER:;
#DESCRIPTION:;
#CHARTSTYLE:;
#DIFFICULTY:Beginner;
#METER:1;
#METERF:0.000000;
#LASTSECONDHINT:76.400002;
#RADARVALUES:0.096574,0.121811,0.102041,0.000000,0.000000,53.000000,45.000000,8.000000,0.000000,0.000000,0.000000,0.000000,0.000000,0.000000,0.096574,0.121811,0.102041,0.000000,0.000000,53.000000,45.000000,8.000000,0.000000,0.000000,0.000000,0.000000,0.000000,0.000000;
#CREDIT:YOSEFU;
#NOTES:
0000
0000
0000
0000
,
0000
0000
0000
0000
,
0000
0000
0000
0000
,
0000
0000
0000
0000
,
1000
0000
0000
0000
,
0001
0000
0000
0000
,
0100
0000
0000
0000
,
0010
0000
0000
0000
,
1001
0000
0000
0000
,
1000
0000
0000
0000
,
0100
0000
0000
0000
,
0010
0000
0000
0000
,
1001
0000
0000
0000
,
0100
0000
0000
0000
,
0010
0000
0000
0000
,
1000
0000
0000
0000
,
1001
0000
0000
0000
,
0001
0000
0000
0000
,
0010
0000
0000
0000
,
0100
0000
0000
0000
,
1000
0000
0000
0000
,
0010
0000
0000
0000
,
0100
0000
0000
0000
,
0001
0000
0000
0000
,
0110
0000
0000
0000
,
0100
0000
0000
0000
,
1000
0000
0000
0000
,
0100
0000
0000
0000
,
0110
0000
0000
0000
,
0010
0000
0000
0000
,
0001
0000
0000
0000
,
1000
0000
0000
0000
,
1001
0000
0000
0000
,
0001
0000
0000
0000
,
0010
0000
0000
0000
,
0100
0000
0000
0000
,
1001
0000
0000
0000
,
1000
0000
0000
0000
,
0010
0000
0000
0000
,
0100
0000
0000
0000
,
1001
0000
0000
0000
,
0001
0000
0000
0000
,
0010
0000
0000
0000
,
0100
0000
0000
0000
,
1000
0000
0000
0000
,
0001
0000
0000
0000
,
0100
0000
0000
0000
,
0010
0000
0000
0010
;

//---------------dance-single - ----------------
#NOTEDATA:;
#CHARTNAME:;
#CHARTHASH:3086554293;
#STEPSTYPE:dance-single;
#BANNER:;
#DESCRIPTION:;
#CHARTSTYLE:;
#DIFFICULTY:Easy;
#METER:5;
#METERF:0.000000;
#LASTSECONDHINT:76.400002;
#RADARVALUES:0.295189,0.334981,0.153061,0.076531,0.000000,162.000000,150.000000,12.000000,6.000000,0.000000,0.000000,0.000000,0.000000,0.000000,0.295189,0.334981,0.153061,0.076531,0.000000,162.000000,150.000000,12.000000,6.000000,0.000000,0.000000,0.000000,0.000000,0.000000;
#CREDIT:YOSEFU;
#NOTES:
0000
0000
0000
0000
,
0000
0000
0000
0000
,
0000
0000
0000
0000
,
0000
0000
0000
0000
,
1000
0000
0001
0001
,
0100
0000
0010
0010
,
1000
1000
0001
0001
,
1000
0000
0110
0000
,
1001
0000
0001
0000
,
0100
0010
0100
0010
,
1000
0000
0100
0000
,
0010
0010
0010
0010
,
0001
0000
1000
0000
,
0010
1000
0010
1000
,
0001
0000
0010
0000
,
0100
0100
0100
0100
,
1100
1000
0001
0001
,
0100
0010
1000
0100
,
0010
0010
0001
0001
,
1000
1000
1000
1000
,
0001
0100
1000
0100
,
0010
1000
0100
0001
,
0100
1000
0010
0100
,
0001
0010
0100
1000
,
1001
0001
0100
0000
,
0010
1000
0100
0001
,
0100
1000
0001
0001
,
0100
0010
1000
0100
,
0220
0330
0001
1000
,
0001
0000
0000
0100
0000
0000
0010
0000
,
2000
0100
3100
0010
,
0001
0100
1000
0100
,
0110
0000
0001
0100
,
1010
0000
1000
0100
,
0010
0001
0100
1000
,
0100
0010
1000
0100
,
0022
0033
0001
0100
,
0010
0000
0000
1000
0000
0000
0100
0000
,
0020
0001
0031
1000
,
0010
0100
0001
1000
,
0100
0000
0010
0001
,
0100
0100
0010
0010
,
1000
0000
0001
0000
,
0010
0010
0010
0010
,
0100
0000
1000
0000
,
0001
0100
1000
0100
,
0001
0000
0010
0000
,
0110
0110
1100
1100
;

//---------------dance-single - ----------------
#NOTEDATA:;
#CHARTNAME:;
#CHARTHASH:1748672124;
#STEPSTYPE:dance-single;
#BANNER:;
#DESCRIPTION:;
#CHARTSTYLE:;
#DIFFICULTY:Medium;
#METER:10;
#METERF:0.000000;
#LASTSECONDHINT:76.599998;
#RADARVALUES:0.464650,0.457988,0.012755,0.076531,0.038265,255.000000,254.000000,1.000000,6.000000,0.000000,0.000000,0.000000,0.000000,0.000000,0.464650,0.457988,0.012755,0.076531,0.038265,255.000000,254.000000,1.000000,6.000000,0.000000,0.000000,0.000000,0.000000,0.000000;
#CREDIT:YOSEFU;
#NOTES:
0000
0000
0000
0000
,
0000
0000
0000
0000
,
0000
0000
0000
0000
,
0000
0000
0000
0000
,
1000
0000
0000
0100
0000
0000
0000
0000
1000
0000
0000
0000
1000
0000
0000
0000
,
0001
0000
0000
0100
0000
0000
0000
0000
0001
0000
0000
0000
0001
0000
0000
0000
,
1000
1000
1000
1000
,
0100
0000
0000
0000
0000
0000
0000
0000
0010
0000
0000
0000
0000
0000
0000
0000
0001
0000
0000
0000
0000
0000
0000
0000
0100
0000
0000
0000
0000
0000
0000
0000
0000
0010
0000
0000
1000
0000
0000
0000
0000
0000
0001
0000
0000
0000
0000
0000
,
0100
0010
0000
0010
1000
0001
0010
0000
,
0100
1000
0100
1000
0001
0100
0001
0000
,
1000
0100
0000
0100
0010
0001
0010
0000
,
0100
0100
1000
1000
,
0001
0100
0000
0100
0001
1000
0001
0000
,
1000
0100
1000
0100
0010
0001
0010
0000
,
0100
1000
0000
1000
0001
0100
0010
0000
,
1000
1000
0001
0001
,
0010
0100
0000
0100
0010
0001
0010
0000
,
0100
1000
0100
1000
0001
0100
0010
0000
,
1000
0001
0000
0001
0010
0100
0010
0000
,
0001
0001
1000
1000
,
0010
0100
0000
0100
0010
0001
0010
0000
,
0100
0001
0100
0001
1000
0100
0010
0000
,
0100
1000
0000
1000
0100
0010
0001
0000
,
1000
0001
1000
0001
0100
0010
1000
0000
,
1001
0000
0001
0000
0010
0100
1000
0010
,
0100
0000
0001
0000
1000
0100
0010
0001
,
0010
0100
1000
0010
0100
0000
0100
0000
,
0001
0000
0010
0000
0100
1000
0001
0100
,
0020
0000
1000
0000
0130
0001
0010
0000
,
0100
1000
0000
0001
1000
0010
0100
0000
,
0002
0000
1000
0000
1003
0000
0001
0100
,
0010
0000
1000
0100
0010
0001
0010
0100
,
1000
0000
0001
0000
0100
0010
1000
0010
,
0100
0000
0001
0000
1000
0100
0010
0100
,
1000
0100
0010
0001
1000
0000
1000
0000
,
0010
0000
0100
0000
0001
0010
0100
1000
,
0002
0000
0100
0000
1003
0100
0010
0000
,
0100
1000
0000
0001
0100
0010
1000
0000
,
0002
0010
0103
0001
,
1000
0000
0100
0000
0010
0001
0010
0000
,
0100
1000
0000
1000
0001
0100
0001
0000
,
1000
0100
0010
0001
1000
0010
0100
0000
,
0001
1000
0000
1000
0100
0010
0001
0000
,
2000
0000
0010
0000
0100
0000
3001
1000
,
0100
0010
0000
0100
1000
0001
0100
0000
,
0010
1000
0100
0010
0001
0100
0010
0000
,
1000
0001
0000
0010
0100
0010
0001
0000
,
2000
0000
0000
0000
0010
0000
0000
0000
0100
0000
0000
0000
3001
0100
0001
0000
;

//---------------dance-single - ----------------
#NOTEDATA:;
#CHARTNAME:(Still) No More Paimon (vine boom);
#CHARTHASH:4100978936;
#STEPSTYPE:dance-single;
#BANNER:;
#DESCRIPTION:;
#CHARTSTYLE:;
#DIFFICULTY:Edit;
#METER:13;
#METERF:13.000000;
#LASTSECONDHINT:76.599998;
#RADARVALUES:0.595846,0.641183,0.127551,0.063776,0.344388,327.000000,317.000000,10.000000,5.000000,0.000000,0.000000,2.000000,0.000000,0.000000,0.595846,0.641183,0.127551,0.063776,0.344388,327.000000,317.000000,10.000000,5.000000,0.000000,0.000000,2.000000,0.000000,0.000000;
#CREDIT:Yosefu circa Summer 2023;
#OFFSET:0.000000;
#BPMS:0.000000=150.000000
;
#STOPS:;
#DELAYS:;
#WARPS:;
#TIMESIGNATURES:0.000000=4=4
;
#TICKCOUNTS:0.000000=4
;
#COMBOS:0.000000=1
;
#SPEEDS:0.000000=1.000000=0.000000=0
,102.000000=1.250000=0.250000=0
,102.500000=1.500000=0.250000=0
,103.000000=1.250000=0.250000=0
,103.500000=1.000000=0.250000=0
,104.000000=0.750000=0.250000=0
,104.500000=0.500000=0.250000=0
,105.000000=0.750000=0.250000=0
,105.500000=1.000000=0.250000=0
,111.500000=0.500000=0.500000=0
,112.000000=0.250000=0.000000=0
,112.062500=1.000000=2.000000=0
,134.000000=1.250000=0.250000=0
,134.500000=1.500000=0.250000=0
,135.000000=1.250000=0.250000=0
,135.500000=1.000000=0.250000=0
,136.000000=0.750000=0.250000=0
,136.500000=0.500000=0.250000=0
,137.000000=0.750000=0.250000=0
,137.500000=1.000000=0.250000=0
,143.500000=0.500000=0.500000=0
,144.000000=0.250000=0.000000=0
,144.062500=1.000000=2.000000=0
;
#SCROLLS:0.000000=1.000000
,37.000000=-1.000000
,38.000000=1.000000
,53.000000=-1.000000
,54.000000=1.000000
,69.000000=-1.000000
,70.000000=1.000000
,85.000000=-1.000000
,86.000000=1.000000
,165.000000=-1.000000
,166.000000=1.000000
,181.000000=-1.000000
,182.000000=1.000000
;
#FAKES:;
#LABELS:0.000000=Song Start
;
#ATTACKS: TIME=17.600000: LEN=0.400000: MODS=*8 25% Invert: TIME=18.000000: LEN=0.400000: MODS=*8 No Invert: TIME=18.400000: LEN=0.400000: MODS=*8 -25% Invert: TIME=18.799999: LEN=0.400000: MODS=*8 No Invert: TIME=24.000000: LEN=0.400000: MODS=*8 25% Invert: TIME=24.400000: LEN=0.400000: MODS=*8 No Invert: TIME=24.799999: LEN=0.400000: MODS=*8 -25% Invert: TIME=25.200001: LEN=0.400000: MODS=*8 No Invert: TIME=30.400000: LEN=0.400000: MODS=*8 25% Invert: TIME=30.799999: LEN=0.400000: MODS=*8 No Invert: TIME=31.200001: LEN=0.400000: MODS=*8 -25% Invert: TIME=31.600000: LEN=0.400000: MODS=*8 No Invert: TIME=38.400002: LEN=0.100000: MODS=*10000 100% Brake: TIME=38.424999: LEN=0.400000: MODS=*4 No Brake: TIME=39.599998: LEN=0.200000: MODS=*4 200% Wave: TIME=39.799999: LEN=0.200000: MODS=*4 No Wave: TIME=42.400002: LEN=0.400000: MODS=*8 25% Invert: TIME=42.799999: LEN=0.400000: MODS=*8 No Invert: TIME=45.599998: LEN=0.200000: MODS=*2 100% Wave: TIME=45.799999: LEN=0.200000: MODS=*2 No Wave: TIME=48.400002: LEN=0.400000: MODS=*8 -25% Invert: TIME=48.799999: LEN=0.400000: MODS=*8 No Invert: TIME=51.200001: LEN=0.100000: MODS=*10000 100% Brake: TIME=51.224998: LEN=0.400000: MODS=*4 No Brake: TIME=52.400002: LEN=0.200000: MODS=*2 100% Wave: TIME=52.599998: LEN=0.200000: MODS=*2 No Wave: TIME=55.200001: LEN=0.400000: MODS=*8 25% Invert: TIME=55.599998: LEN=0.400000: MODS=*8 No Invert: TIME=58.400002: LEN=0.200000: MODS=*4 200% Wave: TIME=58.599998: LEN=0.200000: MODS=*4 No Wave: TIME=61.200001: LEN=0.400000: MODS=*8 -25% Invert: TIME=61.599998: LEN=0.400000: MODS=*8 No Invert: TIME=64.000000: LEN=6.400000: MODS=*0.125 25% Drunk: TIME=68.800003: LEN=0.400000: MODS=*8 25% Invert: TIME=69.199997: LEN=0.400000: MODS=*8 No Invert: TIME=69.599998: LEN=0.400000: MODS=*8 -25% Invert: TIME=70.000000: LEN=0.400000: MODS=*8 No Invert: TIME=70.400002: LEN=6.400000: MODS=*0.125 25% Tipsy: TIME=75.199997: LEN=0.400000: MODS=*8 25% Invert: TIME=75.599998: LEN=0.400000: MODS=*8 No Invert: TIME=76.000000: LEN=0.400000: MODS=*8 -25% Invert: TIME=76.400002: LEN=0.400000: MODS=*8 No Invert:
;
#NOTES:
0000
0000
0000
0000
,
0000
0000
0000
0000
,
0000
0000
0000
0000
,
0000
0000
0000
0000
,
1000
0000
0000
0010
0000
0000
0100
0000
0001
0000
0000
0000
0001
0000
0000
0000
,
0010
0000
0000
0100
0000
0000
1000
0000
0001
0000
0000
0000
0001
0000
0000
0000
,
0100
0100
0100
0100
,
0010
0000
0000
0000
0000
0000
0000
0000
1000
0000
0000
0000
0000
0000
0000
0000
0001
0000
0000
0000
0000
0000
0000
0000
0040
0000
0000
0000
0000
0000
0030
0000
0000
0100
0000
0000
1000
0000
0000
0000
0000
0000
0100
0000
0000
1000
0000
0000
,
0001
0100
0000
0100
0110
0010
1000
0000
,
2000
0002
0000
0000
0000
0000
0000
3000
,
0103
0010
0000
0010
1010
1000
0001
0000
,
0010
0000
0000
0100
0010
0000
0001
0000
0010
0000
0000
0000
0010
0000
0001
0000
,
1001
1000
0000
0010
0110
0100
0001
0000
,
2000
0000
0010
0000
0000
0000
0010
3000
,
1000
0001
0000
0001
0011
0010
0100
0000
,
1000
0000
0000
0100
1000
0000
0010
0000
4000
0000
3000
0001
1000
0000
0010
0100
,
0001
1000
0000
0100
0010
0100
1000
0000
,
0001
0100
0001
0100
,
0010
1000
0000
0001
0010
0100
0010
0000
,
0001
0000
0000
1000
0001
0000
0010
0000
0001
0000
0000
0000
0001
0000
1000
0000
,
0010
0100
0000
0001
1000
0100
0010
0000
,
0001
1000
0001
1000
,
0010
0100
0000
0001
0010
0100
1000
0000
,
0010
0000
0100
0000
0001
0000
0010
0000
0100
0000
1000
0000
0001
1000
0010
0000
,
0110
0000
0100
0000
0001
0000
0010
0000
0100
0000
0000
1000
0100
0000
1000
0000
,
0010
0100
0001
1000
0100
1000
0010
1000
,
0100
0000
0001
0000
0100
0000
1000
0000
0001
0000
0000
0100
0001
1000
0001
0000
,
0010
0000
0000
0000
0110
0000
0000
0000
0100
0000
0000
1000
0001
0000
0100
0000
,
0210
0000
0000
0000
0310
1000
0100
0010
,
0001
0000
1000
0000
0010
0000
0100
0000
0000
0000
0001
1000
0100
0000
0010
0000
,
0100
0000
1000
0000
0010
0000
0100
0000
0010
0000
0000
1000
0001
0000
0010
0000
,
0100
0000
1000
0000
0001
1000
0000
0000
0001
0000
0001
0000
0001
1000
0001
1000
,
0001
0000
0100
0000
0001
0000
1000
0010
0000
1000
0000
0010
1000
0000
0100
0000
,
0010
0001
1000
0001
0100
0001
0010
0001
,
0100
0000
1000
0000
0100
0000
0010
0100
0000
0001
0000
0100
0001
1000
0001
0000
,
0010
0000
0000
0000
0110
0000
0100
1000
0000
0001
0000
1000
0001
0000
0100
0000
,
0210
0000
0000
0000
0301
1000
0100
0010
,
0001
0000
1000
0000
0010
0000
0100
0001
0000
0010
0000
0100
1000
0000
0010
0100
,
0001
0000
1000
0000
0100
0000
0001
0000
0100
0010
0000
0001
1000
0010
1000
0000
,
0010
0000
1000
0000
0001
0000
0010
0000
0100
0000
1000
0000
0001
1000
0010
0000
,
0100
0000
0001
0100
0000
0000
0100
0000
0001
0000
1000
0001
0010
0000
0001
0000
,
1000
0000
0000
0000
0001
0000
0000
0000
1000
0000
0000
0000
0001
0000
0100
0010
,
1000
0000
0000
1000
0000
0000
1000
0000
0001
0000
0010
0001
1000
0000
0010
0000
,
0100
0000
0001
0000
0100
0000
0010
0000
1000
0000
0001
0010
0100
1000
0001
0100
,
0010
0000
1000
0010
0000
0000
0010
0000
0100
0000
0001
0100
0010
0000
1000
0000
,
0001
0000
1000
0000
0001
0000
1000
0000
0001
0000
1000
0000
0001
0000
1000
0001
,
0010
0000
0100
0010
0000
0000
0010
0000
0001
0000
1000
0010
0100
0000
0001
0000
,
1000
0000
0100
0000
1000
0000
0010
0000
1000
0000
0001
0010
0100
1000
0001
0000
;
