#VERSION:0.83;
#TITLE:ehe te nandayo;
#SUBTITLE:pt1;
#ARTIST:Heiakim;
#TITLETRANSLIT:;
#SUBTITLETRANSLIT:;
#ARTISTTRANSLIT:;
#GENRE:Emergency Swing;
#ORIGIN:Paimon (2021 E.P.);
#TAGS:;
#CREDIT:;
#BANNER:ehe te nandayo pt1.png;
#BACKGROUND:ehe te nandayo pt1-bg.png;
#PREVIEWVID:;
#JACKET:ehe te nandayo pt1-jacket.png;
#CDIMAGE:;
#DISCIMAGE:;
#LYRICSPATH:;
#CDTITLE:../_YSD cdtitles/ysd sc2023 cdtitle.png;
#MUSIC:ehe te nandayo pt1.ogg;
#OFFSET:0.002000;
#SAMPLESTART:47.998001;
#SAMPLELENGTH:19.200001;
#SELECTABLE:YES;
#BPMS:0.000000=100.000000
,176.000000=200.000000
;
#STOPS:;
#DELAYS:;
#WARPS:;
#TIMESIGNATURES:0.000000=4=4
;
#TICKCOUNTS:0.000000=4
;
#COMBOS:0.000000=1
;
#SPEEDS:0.000000=1.000000=0.000000=0
;
#SCROLLS:0.000000=1.000000
;
#FAKES:;
#LABELS:0.000000=Song Start
;
#BGCHANGES:;
#KEYSOUNDS:;
#ATTACKS:
;

//---------------dance-single - ----------------
#NOTEDATA:;
#CHARTNAME:;
#CHARTHASH:3114597128;
#STEPSTYPE:dance-single;
#BANNER:;
#DESCRIPTION:;
#CHARTSTYLE:;
#DIFFICULTY:Beginner;
#METER:3;
#METERF:0.000000;
#LASTSECONDHINT:133.198013;
#RADARVALUES:0.121100,0.168463,0.100575,0.000000,0.000000,118.000000,104.000000,14.000000,0.000000,0.000000,0.000000,0.000000,0.000000,0.000000,0.121100,0.168463,0.100575,0.000000,0.000000,118.000000,104.000000,14.000000,0.000000,0.000000,0.000000,0.000000,0.000000,0.000000;
#CREDIT:YOSEFU;
#NOTES:
// measure 0
0000
0000
0000
0000
,  // measure 1
0000
0000
0000
0000
,  // measure 2
0000
0000
0000
0000
,  // measure 3
0000
0000
0000
0000
,  // measure 4
1001
0000
1000
0000
,  // measure 5
0001
0000
0010
0000
,  // measure 6
0100
0000
1000
0000
,  // measure 7
0010
0000
0100
0000
,  // measure 8
0110
0000
0001
0000
,  // measure 9
0010
0000
0100
0000
,  // measure 10
1000
0000
0001
0000
,  // measure 11
1000
0000
0100
0000
,  // measure 12
1001
0000
0001
0000
,  // measure 13
0100
0000
0010
0000
,  // measure 14
1000
0000
0100
0000
,  // measure 15
0010
0000
0100
0000
,  // measure 16
1001
0000
0001
0000
,  // measure 17
1000
0000
0010
0000
,  // measure 18
0110
0000
0100
0000
,  // measure 19
0001
0000
1000
0000
,  // measure 20
1001
0000
0001
0000
,  // measure 21
0010
0000
0100
0000
,  // measure 22
1000
0000
0010
0000
,  // measure 23
0100
0000
0001
0000
,  // measure 24
0010
0000
0100
0000
,  // measure 25
1000
0000
0010
0000
,  // measure 26
0100
0000
0001
0000
,  // measure 27
0010
0000
0100
0000
,  // measure 28
1001
0000
0001
0000
,  // measure 29
0100
0000
0010
0000
,  // measure 30
1000
0000
0100
0000
,  // measure 31
0010
0000
0001
0000
,  // measure 32
0110
0000
0010
0000
,  // measure 33
1000
0000
0100
0000
,  // measure 34
1000
0000
0001
0000
,  // measure 35
0100
0000
0010
0000
,  // measure 36
1001
0000
1000
0000
,  // measure 37
0100
0000
0010
0000
,  // measure 38
0001
0000
0100
0000
,  // measure 39
0010
0000
1000
0000
,  // measure 40
1001
0000
0001
0000
,  // measure 41
0010
0000
0100
0000
,  // measure 42
1001
0000
0001
0000
,  // measure 43
0100
0000
0010
0000
,  // measure 44
1001
0000
0000
0000
,  // measure 45
1000
0000
0000
0000
,  // measure 46
0100
0000
0000
0000
,  // measure 47
0010
0000
0000
0000
,  // measure 48
0001
0000
0000
0000
,  // measure 49
0100
0000
0000
0000
,  // measure 50
0010
0000
0000
0000
,  // measure 51
1000
0000
0000
0000
,  // measure 52
1001
0000
0000
0000
,  // measure 53
0001
0000
0000
0000
,  // measure 54
0010
0000
0000
0000
,  // measure 55
0100
0000
0000
0000
,  // measure 56
1000
0000
0000
0000
,  // measure 57
0010
0000
0000
0000
,  // measure 58
0100
0000
0000
0000
,  // measure 59
0001
0000
0000
0000
,  // measure 60
1001
0000
0000
0000
,  // measure 61
1000
0000
0000
0000
,  // measure 62
0100
0000
0000
0000
,  // measure 63
0010
0000
0000
0000
,  // measure 64
0001
0000
0000
0000
,  // measure 65
0100
0000
0000
0000
,  // measure 66
0010
0000
0000
0000
,  // measure 67
1000
0000
0000
0000
;

//---------------dance-single - ----------------
#NOTEDATA:;
#CHARTNAME:;
#CHARTHASH:1593139688;
#STEPSTYPE:dance-single;
#BANNER:;
#DESCRIPTION:;
#CHARTSTYLE:;
#DIFFICULTY:Easy;
#METER:6;
#METERF:0.000000;
#LASTSECONDHINT:134.098007;
#RADARVALUES:0.248358,0.316361,0.158046,0.143678,0.000000,242.000000,220.000000,22.000000,20.000000,0.000000,0.000000,0.000000,0.000000,0.000000,0.248358,0.316361,0.158046,0.143678,0.000000,242.000000,220.000000,22.000000,20.000000,0.000000,0.000000,0.000000,0.000000,0.000000;
#CREDIT:YOSEFU;
#NOTES:
// measure 0
0000
0000
0000
0000
,  // measure 1
0000
0000
0000
0000
,  // measure 2
0000
0000
0000
0000
,  // measure 3
0000
0000
0000
0001
,  // measure 4
1000
0001
0100
0001
,  // measure 5
1000
0100
0010
0100
,  // measure 6
1000
0001
0100
0010
,  // measure 7
1000
0100
0001
0000
,  // measure 8
0100
1000
0010
0100
,  // measure 9
0001
0010
0100
1000
,  // measure 10
0010
0100
1000
0100
,  // measure 11
0001
0010
0100
0000
,  // measure 12
1100
1000
0100
0010
,  // measure 13
0001
0100
0010
1000
,  // measure 14
0100
0010
0001
0100
,  // measure 15
0010
1000
0001
0000
,  // measure 16
0022
0033
2200
3300
,  // measure 17
2000
3000
1010
0101
,  // measure 18
0022
0033
2002
3003
,  // measure 19
0002
0103
0110
1001
,  // measure 20
1000
0000
0100
0010
0100
0000
1000
0000
,  // measure 21
0001
0000
0100
0010
0100
0000
0001
0000
,  // measure 22
1000
0000
0001
0010
0001
0000
1000
0000
,  // measure 23
0010
0000
0100
0001
0100
0000
0010
0000
,  // measure 24
1000
0000
0001
0010
0001
0000
1000
0000
,  // measure 25
0010
0000
0100
0001
0100
0000
0010
0000
,  // measure 26
1000
0000
0100
0010
0100
0000
1000
0000
,  // measure 27
0001
0000
1000
0010
1000
0000
0000
0000
,  // measure 28
0001
0010
0100
1000
,  // measure 29
0010
0100
0001
0010
,  // measure 30
0100
1000
0001
0100
,  // measure 31
1000
0100
0001
0000
,  // measure 32
1001
1000
0100
0010
,  // measure 33
0001
0100
0010
1000
,  // measure 34
0100
0001
0100
1000
,  // measure 35
0001
0100
1010
0000
,  // measure 36
0001
0010
0100
1000
,  // measure 37
0001
0100
0010
1000
,  // measure 38
0100
0010
0001
0100
,  // measure 39
1000
0100
0001
0010
,  // measure 40
0220
0330
2200
3300
,  // measure 41
2000
3000
1100
0011
,  // measure 42
0202
0303
2020
3030
,  // measure 43
2000
0000
3001
0000
0010
0100
1000
0000
,  // measure 44
1001
0000
0001
0000
,  // measure 45
0100
0010
0100
0000
,  // measure 46
0001
0000
1000
0000
,  // measure 47
0100
0010
0100
0000
,  // measure 48
1000
0000
0001
0000
,  // measure 49
0100
0110
0000
1010
,  // measure 50
1000
0000
0001
0000
,  // measure 51
0010
0010
0100
0100
,  // measure 52
1000
0000
0001
0000
,  // measure 53
0100
0001
0100
0000
,  // measure 54
1000
0000
0100
0000
,  // measure 55
0010
0001
0010
0000
,  // measure 56
0100
0000
1000
0000
,  // measure 57
0001
0101
0000
1100
,  // measure 58
1000
0000
0001
0000
,  // measure 59
0100
0100
0010
0010
,  // measure 60
1000
0000
0001
0000
,  // measure 61
0010
0010
0100
0100
,  // measure 62
1000
0000
0001
0000
,  // measure 63
1000
1000
0010
0010
,  // measure 64
0100
0000
0001
0000
,  // measure 65
1000
1000
0100
0100
,  // measure 66
0010
0000
0001
0000
,  // measure 67
1000
0010
0001
0010
;

//---------------dance-single - ----------------
#NOTEDATA:;
#CHARTNAME:;
#CHARTHASH:3393436261;
#STEPSTYPE:dance-single;
#BANNER:;
#DESCRIPTION:;
#CHARTSTYLE:;
#DIFFICULTY:Medium;
#METER:12;
#METERF:0.000000;
#LASTSECONDHINT:134.298004;
#RADARVALUES:0.421798,0.390326,0.251437,0.086207,0.255029,411.000000,376.000000,35.000000,12.000000,0.000000,0.000000,0.000000,0.000000,0.000000,0.421798,0.390326,0.251437,0.086207,0.255029,411.000000,376.000000,35.000000,12.000000,0.000000,0.000000,0.000000,0.000000,0.000000;
#CREDIT:YOSEFU;
#NOTES:
// measure 0
0000
0000
0000
0000
,  // measure 1
0000
0000
0000
0000
,  // measure 2
0000
0000
0000
0000
,  // measure 3
0000
0000
0000
0000
0000
0000
1000
0100
,  // measure 4
1000
0000
0000
0000
0000
0010
0000
0000
0100
0000
0000
0001
0000
0000
1000
0000
0000
0000
0100
0000
0000
0010
0000
0000
,  // measure 5
0100
0000
0000
1000
0000
0000
0000
0000
0001
0000
0000
0100
0000
0000
0010
0000
0000
0000
1000
0000
0000
0100
0000
0000
,  // measure 6
0010
0000
0000
0001
0000
0000
0000
0000
0100
0000
0000
0010
0000
0000
0100
0000
0000
0000
0001
0000
0000
1000
0000
0000
,  // measure 7
0100
0001
0100
1000
0001
0000
0100
0010
,  // measure 8
0100
0000
0000
0001
0000
0000
0000
0000
1000
0000
0000
0100
0000
0000
0010
0000
0000
0000
0001
0000
0000
0100
0000
0000
,  // measure 9
0010
0000
0000
1000
0000
0000
0000
0000
0100
0000
0000
0010
0000
0000
0100
0000
0000
0000
1000
0000
0000
0001
0000
0000
,  // measure 10
0100
0000
0000
0010
0000
0000
0000
0000
1000
0000
0000
0100
0000
0000
0010
0000
0000
0000
0001
0000
0000
0100
0000
0000
,  // measure 11
1000
0100
0001
0010
0100
0000
1000
0000
,  // measure 12
0001
0100
0001
0000
1000
0100
0010
0000
,  // measure 13
0001
0100
0010
0000
1000
0100
0001
0100
,  // measure 14
1000
0100
1000
0000
0001
0100
0010
0000
,  // measure 15
0100
0001
1000
0100
0001
0100
1000
0010
,  // measure 16
0200
0000
0302
0000
,  // measure 17
0023
0030
1100
1010
,  // measure 18
0201
0000
0320
0000
,  // measure 19
2030
3100
0011
0101
,  // measure 20
1000
0100
0010
0000
1000
0010
0100
1000
,  // measure 21
0001
0100
0010
0000
0001
0010
1000
0100
,  // measure 22
0010
0001
0100
0000
0010
1000
0100
0010
,  // measure 23
0100
0001
0100
1000
0001
0100
1000
0100
,  // measure 24
0001
0010
0100
0000
0001
0100
1000
0010
,  // measure 25
0100
0001
1000
0000
0100
0010
0001
0100
,  // measure 26
0010
1000
0100
0000
1000
0010
0100
1000
,  // measure 27
0100
0001
0010
0100
1000
0000
0001
0000
,  // measure 28
0100
0000
0000
0010
0000
0000
0000
0000
1000
0000
0000
0100
0000
0000
0010
0000
0000
0000
0001
0000
0000
0100
0000
0000
,  // measure 29
0010
0000
0000
0001
0000
0000
0000
0000
0010
0000
0000
0100
0000
0000
0001
0000
0000
0000
1000
0000
0000
0100
0000
0000
,  // measure 30
0010
0000
0000
1000
0000
0000
0000
0000
0010
0000
0000
0100
0000
0000
1000
0000
0000
0000
0001
0000
0000
0100
0000
0000
,  // measure 31
1000
0001
0010
1000
0100
0000
0010
0001
,  // measure 32
0100
0000
0000
1000
0000
0000
0000
0000
0100
0000
0000
0001
0000
0000
0010
0000
0000
0000
0100
0000
0000
1000
0000
0000
,  // measure 33
0001
0000
0000
0100
0000
0000
0000
0000
0010
0000
0000
0001
0000
0000
0010
0000
0000
0000
1000
0000
0000
0100
0000
0000
,  // measure 34
0010
0000
0000
0001
0000
0000
0000
0000
0100
0000
0000
0010
0000
0000
1000
0000
0000
0000
0100
0000
0000
0001
0000
0000
,  // measure 35
1000
0010
0001
1000
0010
0000
0100
0000
,  // measure 36
0001
0010
0100
0000
0010
0001
1000
0000
,  // measure 37
0010
0100
0001
0000
0010
0100
1000
0010
,  // measure 38
0001
0000
0010
1000
0100
0000
0001
0100
,  // measure 39
1000
0001
0100
1000
0001
0010
1000
0100
,  // measure 40
0020
0000
0032
0000
,  // measure 41
0203
0300
1010
0101
,  // measure 42
0021
0000
0230
0000
,  // measure 43
2300
0000
0000
0000
0000
0000
0000
0000
0000
0000
0000
0000
3010
0000
0000
0100
0000
0000
1000
0000
0100
0000
0001
0000
,  // measure 44
1000
1100
0001
0101
,  // measure 45
1000
0000
0001
0100
0000
0000
0001
0000
1000
0100
0000
0000
,  // measure 46
0010
0011
1000
1100
,  // measure 47
0001
0000
0100
0010
0000
0100
0001
0000
1000
0100
0000
0000
,  // measure 48
0010
0011
1000
1010
,  // measure 49
0001
0000
1000
0100
0000
0000
1000
0000
0001
0100
0000
0000
,  // measure 50
0010
1010
1000
0011
,  // measure 51
0001
0000
0100
0001
0000
1000
0100
0000
0010
0001
0000
1000
,  // measure 52
0010
0101
1000
1100
,  // measure 53
0001
0000
0100
0010
0000
0000
1000
0000
0100
0010
0000
0000
,  // measure 54
0001
1010
0100
1001
,  // measure 55
0001
0000
0010
0100
0000
0010
0001
0000
1000
0010
0000
0000
,  // measure 56
0100
0101
0001
1001
,  // measure 57
1000
0000
0100
0010
0000
0000
0001
0000
0100
0010
0000
0000
,  // measure 58
1000
0110
0001
0110
,  // measure 59
1000
0000
0001
0100
0000
0010
1000
0000
0100
0010
0000
0001
,  // measure 60
1000
0110
0001
0110
,  // measure 61
1000
0000
0001
0100
0000
0000
0010
0000
1000
0100
0000
0000
,  // measure 62
1000
0010
0000
0010
0100
0001
1000
0000
,  // measure 63
1100
0011
0101
1010
,  // measure 64
1000
0000
0000
0010
0000
0000
0000
0000
0000
0000
0100
0000
0001
0000
0000
0000
1000
0000
0100
0000
0000
0000
0000
0000
,  // measure 65
0011
0000
0001
1000
0000
0000
1000
0000
0100
0010
0000
0000
,  // measure 66
0011
1100
1100
0101
,  // measure 67
0001
0000
1000
0001
0000
1000
0001
0000
0100
0010
0000
1000
;

//---------------dance-single - ----------------
#NOTEDATA:;
#CHARTNAME:(angry emergency food noises);
#CHARTHASH:3789215586;
#STEPSTYPE:dance-single;
#BANNER:;
#DESCRIPTION:;
#CHARTSTYLE:;
#DIFFICULTY:Hard;
#METER:14;
#METERF:0.000000;
#LASTSECONDHINT:134.298004;
#RADARVALUES:0.618842,0.658675,0.050287,0.201149,0.930316,603.000000,596.000000,7.000000,28.000000,4.000000,0.000000,0.000000,0.000000,0.000000,0.618842,0.658675,0.050287,0.201149,0.930316,603.000000,596.000000,7.000000,28.000000,4.000000,0.000000,0.000000,0.000000,0.000000;
#CREDIT:Yosefu vs. Emergency Food;
#NOTES:
// measure 0
0000
0000
0000
0000
,  // measure 1
0000
0000
0000
0000
,  // measure 2
0000
0000
0000
0000
,  // measure 3
0000
0000
0000
0000
0000
0000
0001
0100
,  // measure 4
0001
0000
0010
0100
0000
1000
0000
0000
0010
0000
0000
0100
0000
0000
0010
0000
0000
1000
0002
0000
0000
0023
0000
0000
,  // measure 5
0031
0000
0100
0010
0000
1000
0000
0000
0001
0000
0000
0010
0000
0000
0100
0000
0000
0010
0002
0000
0000
2003
0000
0000
,  // measure 6
3001
0000
0000
0000
0100
0000
0010
0000
0000
0000
1000
0000
0000
0000
0000
0000
0001
0000
0000
0000
0000
0000
1000
0000
0000
0000
0000
0000
0100
0000
0000
0000
0000
0000
0010
0000
0001
0000
0000
1000
0000
0000
0010
0000
0000
0000
0000
0000
,  // measure 7
1000
0000
0010
0001
0000
0010
0100
0000
0001
0010
0000
0100
1000
0000
0000
0000
0000
0000
0001
0000
0000
0100
0000
0000
,  // measure 8
0010
0000
1000
0001
0000
0010
0000
0000
0100
0000
0000
1000
0000
0000
0001
0000
0000
0100
0020
0000
0000
0230
0000
0000
,  // measure 9
0301
0000
0010
0100
0000
1000
0000
0000
0001
0000
0000
0100
0000
0000
0010
0000
0000
0100
0002
0000
0000
2003
0000
0000
,  // measure 10
3100
0000
0000
0000
0010
0000
0001
0000
0000
0000
1000
0000
0000
0000
0000
0000
0010
0000
0000
0000
0000
0000
0100
0000
0000
0000
0000
0000
0001
0000
0000
0000
0000
0000
1000
0000
0100
0000
0000
0010
0000
0000
0001
0000
0000
0000
0000
0000
,  // measure 11
1000
0000
0100
0001
0000
0100
0010
0000
0001
1000
0000
0001
0100
0000
0010
1000
0000
0000
0M00
0000
0000
0M00
0000
0000
,  // measure 12
0001
0000
0000
0100
0000
0010
1000
0000
0001
0010
0000
0000
0100
0000
0000
0010
0000
0000
0001
0000
0000
2000
0000
0000
,  // measure 13
3001
0000
0000
0100
0000
0010
0100
0000
0001
1000
0000
0000
0100
0000
0000
0010
0000
0001
0100
0000
0010
2000
0000
0000
,  // measure 14
3100
0000
0000
0010
0000
0100
1000
0000
0001
0100
0000
0000
0010
0000
0000
1000
0000
0000
0001
0000
1000
0002
0000
0000
,  // measure 15
0103
0000
0000
1000
0000
0100
0010
0000
1000
0001
0000
0000
0100
0000
0000
0001
0100
0010
1000
0100
0010
0001
0000
0000
,  // measure 16
2000
0000
0010
0010
3002
0000
0010
0000
,  // measure 17
1003
0000
0000
0100
0000
0010
0000
0000
0001
0100
0000
0000
0101
0000
0000
0010
0000
0000
1100
0000
0000
0010
0000
0000
,  // measure 18
1002
0000
0000
0010
2003
0000
0001
0010
,  // measure 19
3001
0000
0000
0010
0000
0100
0000
0000
1000
0001
0000
0000
0101
0000
0000
0100
0000
0010
1000
0000
0000
0000
0000
0000
,  // measure 20
0001
0000
0010
0000
0000
0100
1000
0000
0001
0100
0000
0000
0010
0000
0100
0000
0000
0000
0001
0000
0000
1000
0000
0000
,  // measure 21
0001
0000
0100
0000
0000
0010
0100
0000
0001
1000
0000
0000
0001
0000
0000
0010
0000
0000
0001
0000
0000
1000
0000
0001
,  // measure 22
1000
0000
0010
0000
0000
0100
0001
0000
1000
0100
0000
0000
0010
0000
0001
0000
0000
0000
1000
0000
0000
0001
0000
0000
,  // measure 23
0100
0000
1000
0000
0000
0100
0010
0000
1000
0001
0000
0000
1000
0000
0100
0010
0000
0001
0100
0000
0010
1000
0000
0001
,  // measure 24
1000
0000
0010
0000
0000
0100
0001
0000
0010
0100
0000
0000
1000
0000
0001
0000
0000
0000
0100
0000
0000
0001
0000
0000
,  // measure 25
1000
0000
0100
0000
0000
0010
0001
0000
0100
0010
0000
0000
1000
0000
0000
0100
0000
0000
1000
0000
0000
0010
0000
0100
,  // measure 26
0001
0000
1000
0000
0000
0100
0010
0000
0001
1000
0000
0000
0010
0000
0100
0000
0000
0000
0001
0000
0000
1000
0000
0000
,  // measure 27
0100
0000
0001
0000
0000
0100
1000
0000
0001
1000
0000
0000
0010
0000
0000
0000
0000
0000
0100
0000
0000
0001
0000
0000
,  // measure 28
1000
0000
0100
0010
0000
0001
0000
0000
0010
0000
0000
0100
0000
0000
0010
0000
0000
0001
2000
0000
0000
3020
0000
0000
,  // measure 29
1030
0000
0100
0010
0000
0001
0000
0000
1000
0000
0000
0010
0000
0000
0100
0000
0000
0010
2000
0000
0000
3002
0000
0000
,  // measure 30
1003
0000
0000
0000
0100
0000
0010
0000
0000
0000
0001
0000
0000
0000
0000
0000
1000
0000
0000
0000
0000
0000
0001
0000
0000
0000
0000
0000
0100
0000
0000
0000
0000
0000
0010
0000
1000
0000
0000
0001
0000
0000
0010
0000
0000
0000
0000
0000
,  // measure 31
0001
0000
0010
1000
0000
0010
0100
0000
1000
0001
0000
0100
0010
0000
0000
1000
0000
0000
0001
0000
0000
0010
0000
0000
,  // measure 32
0100
0000
1000
0001
0000
0100
0000
0000
0010
0000
0000
1000
0000
0000
0001
0000
0000
0010
0200
0000
0000
0320
0000
0000
,  // measure 33
0031
0000
0100
0010
0000
1000
0000
0000
0001
0000
0000
0010
0000
0000
0100
0000
0000
0010
0002
0000
0000
2003
0000
0000
,  // measure 34
3010
0000
0000
0000
0100
0000
0001
0000
0000
0000
1000
0000
0000
0000
0000
0000
0100
0000
0000
0000
0000
0000
0010
0000
0000
0000
0000
0000
0001
0000
0000
0000
0000
0000
1000
0000
0010
0000
0000
0100
0000
0000
0001
0000
0000
0000
0000
0000
,  // measure 35
1000
0000
0010
0001
0000
0010
0100
0000
0001
1000
0000
0001
0010
0000
0100
1000
0000
0000
000M
0000
0000
000M
0000
0000
,  // measure 36
1000
0000
0000
0010
0000
0000
0100
0000
0001
1000
0000
0100
0010
0000
0000
0001
0000
1000
0010
0000
0000
0100
0000
0010
,  // measure 37
1000
0000
0000
0001
0000
0000
0010
0000
0100
1000
0000
0001
1000
0000
0000
0010
0000
0100
0001
0000
0000
1000
0000
0001
,  // measure 38
0010
0000
0000
0100
0000
0000
0010
0000
0001
1000
0000
0010
0100
0000
0000
0001
0000
0000
1000
0000
0001
2000
0000
0000
,  // measure 39
3100
0000
0000
0010
0000
0001
1000
0000
0000
0010
0000
0000
1000
0000
0001
1000
0010
0100
0001
0010
0100
1000
0000
0000
,  // measure 40
0002
0000
0100
0100
2003
0000
0100
0000
,  // measure 41
3001
0000
0000
0010
0000
0100
0000
0000
1000
0010
0000
0000
1010
0000
0000
0100
0000
0000
0011
0000
0000
0100
0000
0000
,  // measure 42
2001
0000
0000
0100
3002
0000
1000
0010
,  // measure 43
1003
0000
0000
0010
0000
0100
0000
0000
0001
1000
0000
0000
0001
0010
0100
1000
0010
0100
0001
0000
1000
0000
0001
0000
,  // measure 44
1000
0000
0001
0010
0000
0100
1000
0000
0001
0100
0000
0000
,  // measure 45
0010
0000
0100
0001
0000
0000
1000
0000
0100
0010
0000
0000
,  // measure 46
0001
0000
0100
0010
0000
1000
0100
0000
0010
0001
0000
1000
,  // measure 47
0001
0000
0100
0010
0000
0100
0001
0010
0100
1000
0000
0001
,  // measure 48
0100
0000
0010
1000
0000
0001
0010
0000
0100
0010
0000
0001
,  // measure 49
1000
0000
0010
0100
0000
0000
0001
0000
0010
0100
0000
0000
,  // measure 50
0010
0000
1000
0010
0000
0001
1000
0000
0001
0100
0000
0010
,  // measure 51
1000
0000
0010
0100
0000
1000
0100
0010
0100
0001
0000
1000
,  // measure 52
0001
0000
0010
0100
0000
1000
0001
0000
0100
0010
0000
0100
,  // measure 53
0001
0000
1000
0100
0000
0000
0010
0000
0001
1000
0000
0000
,  // measure 54
0001
0000
0100
0010
0000
1000
0100
0000
0010
0001
0000
1000
,  // measure 55
0100
0000
1000
0010
0000
1000
0100
0010
0001
1000
0000
0010
,  // measure 56
0100
0000
0001
1000
0000
0100
0010
0000
0100
1000
0000
0001
,  // measure 57
1000
0000
0100
0010
0000
0000
0001
0000
0100
0010
0000
0000
,  // measure 58
0100
0000
1000
0100
0000
0001
0010
0000
0100
1000
0000
0000
,  // measure 59
0001
0100
0010
1000
0100
0010
0001
1000
0010
0100
0001
1000
,  // measure 60
0100
0000
0010
0001
0000
1000
0010
0000
0100
0001
0000
1000
,  // measure 61
0100
0000
0010
0001
0000
0000
1000
0000
0010
0100
0000
0000
,  // measure 62
0001
0000
0000
1000
0000
0000
0000
0000
0000
1000
0000
0000
0100
0000
0000
0010
0000
0000
0001
0000
0000
0000
0010
0000
,  // measure 63
0100
0000
1000
0001
0000
0100
0001
0010
0100
1000
0000
0000
,  // measure 64
0001
0000
0000
1000
0000
0000
0010
0000
0000
0000
0100
0000
0001
0000
0000
0000
1000
0000
0100
0000
0000
0000
0010
0000
,  // measure 65
0001
0000
1000
0010
0000
0000
0100
0000
0001
0010
0000
0000
,  // measure 66
0100
0000
0000
1000
0000
0001
0100
0000
0010
1000
0000
0100
,  // measure 67
1000
0000
0001
0100
0000
1000
0100
0000
0010
1000
0000
0001
;
