#VERSION:0.83;
#TITLE:You Must Follow;
#SUBTITLE:;
#ARTIST:Stratus;
#TITLETRANSLIT:;
#SUBTITLETRANSLIT:;
#ARTISTTRANSLIT:;
#GENRE:Drum n Bass;
#ORIGIN:You Must Follow (The projectHUMAN Remixes) [HUMA8005-1];
#TAGS:;
#CREDIT:skeleton made by hdm300;
#BANNER:You Must Follow.png;
#BACKGROUND:You Must Follow-bg.png;
#PREVIEWVID:;
#JACKET:You Must Follow-jacket.png;
#CDIMAGE:;
#DISCIMAGE:;
#LYRICSPATH:;
#CDTITLE:../_YSD cdtitles/ysd sale5 cdtitle.png;
#MUSIC:You Must Follow.ogg;
#OFFSET:-0.016000;
#SAMPLESTART:7.135000;
#SAMPLELENGTH:15.529000;
#SELECTABLE:YES;
#DISPLAYBPM:170.000000;
#BPMS:0.000000=170.000000
;
#STOPS:20.000000=3.441000
,20.500000=0.441000
,201.000000=3.441000
,201.500000=0.441000
;
#DELAYS:;
#WARPS:;
#TIMESIGNATURES:0.000000=4=4
,20.000000=1=4
,21.000000=4=4
,201.000000=1=4
,202.000000=4=4
;
#TICKCOUNTS:0.000000=4
;
#COMBOS:0.000000=1
;
#SPEEDS:0.000000=1.000000=0.000000=0
;
#SCROLLS:0.000000=1.000000
;
#FAKES:;
#LABELS:0.000000=Song Start
;
#BGCHANGES:;
#KEYSOUNDS:;
#ATTACKS:
;

//---------------dance-single - ----------------
#NOTEDATA:;
#CHARTNAME:;
#CHARTHASH:3694732263;
#STEPSTYPE:dance-single;
#BANNER:;
#DESCRIPTION:;
#CHARTSTYLE:;
#DIFFICULTY:Beginner;
#METER:2;
#METERF:0.000000;
#LASTSECONDHINT:114.368240;
#RADARVALUES:0.095042,0.128793,0.042647,0.341175,0.000000,78.000000,73.000000,5.000000,40.000000,0.000000,0.000000,0.000000,0.000000,0.000000,0.095042,0.128793,0.042647,0.341175,0.000000,78.000000,73.000000,5.000000,40.000000,0.000000,0.000000,0.000000,0.000000,0.000000;
#CREDIT:YOSEFU;
#DISPLAYBPM:170.000000;
#NOTES:
// measure 0
0000
0000
0000
0000
,  // measure 1
0000
0000
0000
0000
,  // measure 2
0000
0000
0000
0000
,  // measure 3
0000
0000
0000
0000
,  // measure 4
1000
0000
0000
0000
,  // measure 5
0100
1001
0000
0000
,  // measure 6
0000
0001
0000
0000
,  // measure 7
0000
0100
0000
0000
,  // measure 8
0000
0010
0000
0000
,  // measure 9
0000
1000
0000
0000
,  // measure 10
0000
0100
0000
0000
,  // measure 11
0000
0010
0000
0000
,  // measure 12
0000
0001
0000
0000
,  // measure 13
0000
0100
0000
0000
,  // measure 14
0000
0010
0000
0000
,  // measure 15
0000
1000
0000
0000
,  // measure 16
0000
0001
0000
0000
,  // measure 17
0000
1000
0000
0000
,  // measure 18
0000
0100
0000
0000
,  // measure 19
0000
0010
0000
0000
,  // measure 20
0000
0001
0000
0000
,  // measure 21
0000
0200
0000
0300
,  // measure 22
0000
0020
0000
0030
,  // measure 23
0000
2000
0000
3000
,  // measure 24
0000
0002
0000
0003
,  // measure 25
0000
0020
0000
0030
,  // measure 26
0000
0200
0000
0300
,  // measure 27
0000
2000
0000
3000
,  // measure 28
0000
0020
0000
0030
,  // measure 29
0000
0200
0000
0300
,  // measure 30
0000
0002
0000
0003
,  // measure 31
0000
2000
0000
3000
,  // measure 32
0000
0020
0000
0030
,  // measure 33
0000
0200
0000
0300
,  // measure 34
0000
0002
0000
0003
,  // measure 35
0000
0020
0000
0030
,  // measure 36
0000
0200
0000
0300
,  // measure 37
0000
2002
0000
3003
,  // measure 38
0000
2000
0000
3000
,  // measure 39
0000
0020
0000
0030
,  // measure 40
0000
0200
0000
0300
,  // measure 41
0000
0002
0000
0003
,  // measure 42
0000
2000
0000
3000
,  // measure 43
0000
0200
0000
0300
,  // measure 44
0000
0020
0000
0030
,  // measure 45
0000
0002
0000
0003
,  // measure 46
0000
2000
0000
3000
,  // measure 47
0000
0020
0000
0030
,  // measure 48
0000
0200
0000
0300
,  // measure 49
0000
0002
0000
0003
,  // measure 50
0000
1000
1001
0000
,  // measure 51
0000
0000
1000
0000
,  // measure 52
0000
0000
0010
0000
,  // measure 53
0000
0000
0100
0000
,  // measure 54
0000
0000
0001
0000
,  // measure 55
0000
0000
0010
0000
,  // measure 56
0000
0000
0100
0000
,  // measure 57
0000
0000
1000
0000
,  // measure 58
0000
0000
1001
0000
,  // measure 59
0000
0000
0001
0000
,  // measure 60
0000
0000
0100
0000
,  // measure 61
0000
0000
0010
0000
,  // measure 62
0000
0000
1000
0000
,  // measure 63
0000
0000
0100
0000
,  // measure 64
0000
0000
0010
0000
,  // measure 65
0000
0000
0001
0000
,  // measure 66
0000
0000
2002
0000
,  // measure 67
3003
0000
2000
0000
,  // measure 68
3000
0000
0020
0000
,  // measure 69
0030
0000
0200
0000
,  // measure 70
0300
0000
0002
0000
,  // measure 71
0003
0000
2000
0000
,  // measure 72
3000
0000
0200
0000
,  // measure 73
0300
0000
0020
0000
,  // measure 74
0030
0000
0002
0000
,  // measure 75
0000
0000
0003
0000
;

//---------------dance-single - ----------------
#NOTEDATA:;
#CHARTNAME:;
#CHARTHASH:218632436;
#STEPSTYPE:dance-single;
#BANNER:;
#DESCRIPTION:;
#CHARTSTYLE:;
#DIFFICULTY:Easy;
#METER:8;
#METERF:0.000000;
#LASTSECONDHINT:115.074127;
#RADARVALUES:0.325334,0.356528,0.000000,0.102352,0.000000,267.000000,267.000000,0.000000,12.000000,0.000000,0.000000,0.000000,0.000000,0.000000,0.325334,0.356528,0.000000,0.102352,0.000000,267.000000,267.000000,0.000000,12.000000,0.000000,0.000000,0.000000,0.000000,0.000000;
#CREDIT:YOSEFU;
#DISPLAYBPM:170.000000;
#NOTES:
0000
0000
0000
0000
,
0000
0000
0000
0000
,
0000
0000
0000
0000
,
0000
0000
0000
0000
,
0001
0000
1000
0000
,
0010
1000
0001
0100
,
0001
1000
0100
0010
,
0001
0100
0010
1000
,
0001
1000
0100
0001
,
0100
1000
0001
0100
,
0010
1000
0100
0010
,
0001
1000
0001
0010
,
0001
1000
0010
0001
,
0020
1030
0001
1000
,
0100
0010
0001
0100
,
0010
1000
0001
0010
,
0001
1000
0100
0001
,
0100
1000
0001
0100
,
0010
1000
0100
0010
,
0001
1000
0010
0100
,
0010
1000
0100
0001
,
0100
2000
0000
0000
,
0000
0000
0000
0000
,
0000
3000
0001
0000
0100
0000
0010
0000
,
1000
0001
1000
0000
0001
0000
1000
0000
,
0100
0010
0100
0000
1000
0000
0001
0000
,
0100
0010
0100
0000
0001
0000
1000
0000
,
0100
0010
0100
0000
1000
0000
0001
0000
,
0100
0010
0100
0000
0010
0000
1000
0000
,
0002
1003
0100
0010
,
0001
1000
0001
0000
0100
0000
0010
0000
,
1000
0001
1000
0000
0100
0000
0010
0000
,
0001
0010
0001
0000
1000
0000
0010
0000
,
0100
0001
0100
0000
0001
0000
0010
0000
,
0100
1000
0100
0000
0010
0000
0001
0000
,
1000
0010
1000
0000
0001
0000
0010
0000
,
0100
1000
0100
0000
0010
0000
0001
0000
,
1000
0010
1000
0000
0000
0000
0001
0000
,
0100
0010
0000
1000
,
0100
0010
0000
0001
,
1000
0010
0000
0100
,
0001
1000
0000
0100
,
0010
0001
0000
0100
,
0010
1000
0000
0001
,
1000
0100
0000
0010
,
0001
1000
0000
0020
,
0000
1030
0000
0002
,
0000
0103
0000
0020
,
0000
1030
0000
0002
,
0000
0013
0000
0200
,
0000
1300
0001
0100
,
0010
1000
0100
0010
,
0001
1000
0001
0100
,
0010
0100
0001
0010
,
1000
0010
0001
1000
,
0010
0100
0001
1000
,
0100
0010
0001
0100
,
0010
1000
0001
0010
,
1000
0020
0031
1000
,
0010
0000
0100
0001
1000
0000
0100
0000
,
0010
0000
0001
0100
0010
0000
1000
0000
,
0001
0000
1000
0100
0010
0000
0001
0000
,
0100
0000
1000
0100
0010
0000
0100
0000
,
0001
0000
1000
0100
0010
0000
0001
0000
,
1000
0000
0010
1000
0100
0000
0010
0000
,
0001
0000
0100
0010
1000
0000
0001
0000
,
1000
0200
0310
0000
,
0001
1000
0010
0000
,
0100
0001
0010
0000
,
0100
1000
0010
0000
,
0100
0001
1000
0000
,
0100
0010
0001
0000
,
0100
0010
1000
0000
,
0001
1000
0100
0000
,
0020
0000
0002
0000
,
0000
0000
0000
0000
,
0033
0000
0000
0000
;

//---------------dance-single - ----------------
#NOTEDATA:;
#CHARTNAME:;
#CHARTHASH:1495694906;
#STEPSTYPE:dance-single;
#BANNER:;
#DESCRIPTION:;
#CHARTSTYLE:;
#DIFFICULTY:Medium;
#METER:13;
#METERF:0.000000;
#LASTSECONDHINT:115.074127;
#RADARVALUES:0.594619,0.550997,0.000000,0.059706,0.008529,488.000000,488.000000,0.000000,7.000000,12.000000,0.000000,0.000000,0.000000,0.000000,0.594619,0.550997,0.000000,0.059706,0.008529,488.000000,488.000000,0.000000,7.000000,12.000000,0.000000,0.000000,0.000000,0.000000;
#CREDIT:YOSEFU;
#DISPLAYBPM:170.000000;
#NOTES:
0000
0000
0000
0000
,
0000
0000
0000
0000
,
0000
0000
0000
0000
,
0000
0000
0000
0000
,
0000
0000
0001
0000
0000
0001
0000
0000
0000
0000
0000
1000
0000
0000
0010
0000
,
0000
0000
1000
0001
0100
0001
1000
0001
,
0010
0100
1000
0001
0100
0010
0100
0001
,
0010
0100
1000
0001
1000
0100
0010
0001
,
1000
0010
1000
0001
0010
0100
0001
0100
,
1000
0001
0100
0010
0100
0001
1000
0100
,
0010
0001
1000
0010
0100
0001
0010
0100
,
1000
0001
0100
0010
0100
0001
1000
0100
,
0010
0001
1000
0001
0100
0010
0001
0010
,
2000
0000
3001
0010
0100
0010
0001
1000
,
0010
0100
0010
1000
0001
0010
0100
1000
,
0010
0100
0001
1000
0100
0010
0001
1000
,
0001
0100
0001
1000
0100
0010
1000
0010
,
0001
1000
0010
0100
0001
1000
0100
0010
,
0100
1000
0001
0100
0001
0010
0100
1000
,
0010
0100
0001
1000
0100
0010
0001
1000
,
0001
0100
0001
1000
0100
0001
0100
1000
,
0002
0203
0000
0000
,
0000
0320
0000
0000
,
0000
0000
1030
0001
0010
0001
1000
0010
,
0100
0001
1000
0100
1000
0001
0100
1000
,
0100
0010
0100
0001
1000
0100
0010
0100
,
1000
0001
0100
0001
1000
0100
0010
0001
,
0100
0010
1000
0001
0010
0100
0010
0001
,
1000
0010
1000
0100
0010
0001
0100
1000
,
0200
0000
0301
1000
0100
0010
0001
1000
,
0010
1000
0100
0010
0001
0100
0010
1000
,
0001
0010
0100
0010
0001
1000
0010
0100
,
0010
1000
0001
0010
0100
1000
0010
0001
,
0010
0100
0001
0010
0100
1000
0001
0100
,
0001
1000
0100
1000
0001
0100
0001
0010
,
0100
1000
0010
0100
0001
1000
0100
0010
,
0001
1000
0001
0100
0001
1000
0100
0001
,
0100
1000
0001
0000
0100
0000
0010
1000
,
0001
0100
0010
0000
1000
0000
0001
0010
,
0100
1000
0001
0000
1000
0000
0100
0010
,
0001
1000
0010
0000
0100
0000
0001
1000
,
0100
0010
0001
0000
1000
0000
0010
0100
,
0001
0010
0100
0000
1000
0000
0001
0100
,
0010
1000
0100
0000
0010
0000
0001
1000
,
0010
0100
0001
0000
1000
0000
0100
0010
,
0001
0100
0010
0000
0000
0000
1000
0010
,
1000
0100
0010
0000
0000
0000
0001
0100
,
0001
0010
0100
0000
0000
0000
1000
0010
,
0100
0001
0010
0000
0000
0000
0100
1000
,
0010
0100
0001
0000
0000
0000
1000
0100
,
0010
0001
0000
0000
1000
0001
0010
0001
,
1000
0001
0100
0010
1000
0001
0010
0100
,
0010
0001
0100
0010
1000
0001
1000
0010
,
0100
0001
1000
0100
1000
0001
0100
0010
,
0001
0010
1000
0001
0010
0100
0010
0001
,
1000
0010
0100
0001
1000
0100
0010
0001
,
0100
0010
1000
0001
0010
0100
0010
0001
,
1000
0010
0100
0001
1000
0001
0010
0100
,
0001
0100
2000
0000
3001
0100
0010
0100
,
0001
1000
0100
0010
0100
1000
0001
0100
,
0010
1000
0100
0010
0001
1000
0010
0100
,
0001
1000
0001
0010
0001
1000
0010
0100
,
1000
0100
0001
1000
0100
0010
0001
1000
,
0010
0100
0010
1000
0001
0010
0001
0100
,
0010
1000
0100
0010
0001
1000
0010
0100
,
0001
1000
0001
0010
0001
1000
0010
0001
,
0010
1000
0000
0000
0001
0000
1000
0000
,
0001
0010
0100
1000
0001
0000
0100
0000
,
0010
1000
0001
0100
0010
0000
1000
0000
,
0001
0010
0100
1000
0010
0000
0100
0000
,
0001
1000
0100
0010
0001
0000
1000
0000
,
0100
1000
0010
0100
0001
0000
1000
0000
,
0100
0010
0001
0100
0010
0000
1000
0000
,
0001
0010
0001
0100
0010
0000
0000
0000
,
0001
0010
1000
0200
000M
00M0
000M
00M0
,
000M
00M0
000M
00M0
000M
00M0
000M
00M0
,
0300
0000
0000
0000
;

//---------------dance-single - ----------------
#NOTEDATA:;
#CHARTNAME:;
#CHARTHASH:1943559553;
#STEPSTYPE:dance-single;
#BANNER:;
#DESCRIPTION:;
#CHARTSTYLE:;
#DIFFICULTY:Hard;
#METER:17;
#METERF:0.000000;
#LASTSECONDHINT:115.074127;
#RADARVALUES:0.817601,0.745467,0.000000,0.051176,1.070436,671.000000,671.000000,0.000000,6.000000,12.000000,0.000000,0.000000,0.000000,0.000000,0.817601,0.745467,0.000000,0.051176,1.070436,671.000000,671.000000,0.000000,6.000000,12.000000,0.000000,0.000000,0.000000,0.000000;
#CREDIT:YOSEFU;
#DISPLAYBPM:170.000000;
#NOTES:
0000
0000
0000
0000
,
0000
0000
0000
0000
,
0000
0000
0000
0000
,
0000
0000
0000
0000
,
0000
0000
0001
0000
0000
0100
0000
0000
0010
0000
0000
0100
0000
0000
0001
0000
,
0000
0000
0000
0000
1000
0000
0001
0100
0010
1000
0000
0001
0010
0000
0010
0100
,
0000
0100
1000
0000
0001
0000
0100
0010
1000
0001
0000
0010
0100
0000
0100
1000
,
0000
1000
0010
0000
0100
0000
0001
1000
0100
0010
0000
0001
1000
0000
1000
0010
,
0000
0010
0100
0000
0001
0000
1000
0100
0010
0001
0000
1000
0010
0000
0001
0010
,
0100
0000
0001
0000
1000
0000
0100
0010
0001
1000
0000
0010
0100
0000
0100
0001
,
0000
0001
1000
0000
0100
0000
0010
0001
1000
0010
0000
0100
0001
0000
0001
0010
,
0000
0010
0100
0000
1000
0000
0001
0100
0010
1000
0000
0001
0010
0000
0010
0100
,
0000
0100
1000
0000
0001
0000
0100
0010
1000
0001
0000
0010
0100
0000
0001
0100
,
2000
0000
0000
0000
3001
0000
0100
0001
1000
0100
0000
0010
0001
0000
0001
1000
,
0000
1000
0010
0000
0100
0000
0001
1000
0100
0010
0000
0001
0100
0000
0100
0010
,
0000
0010
1000
0000
0001
0000
0010
0100
1000
0001
0000
0100
0001
0000
0001
1000
,
0000
1000
0100
0000
0010
0000
0001
1000
0010
0100
0000
0001
0010
0000
1000
0010
,
0100
0000
1000
0000
0001
0000
0100
0010
1000
0001
0000
0010
0100
0000
0100
1000
,
0000
1000
0001
0000
0100
0000
0010
1000
0001
0010
0000
0100
1000
0000
1000
0010
,
0000
0010
0100
0000
0001
0000
1000
0100
0010
0001
0000
1000
0010
0000
0010
0100
,
0000
0100
0001
0000
1000
0000
0100
1000
0001
0000
0100
0000
0010
0000
0001
0010
,
1000
0002
0000
0000
,
0100
0000
1003
0100
0010
0000
0001
1000
,
0010
0000
0000
0000
1000
0000
0100
0010
0001
1000
0000
0010
0100
0000
0100
0001
,
1000
0000
0100
0000
0010
0000
0001
1000
0100
0010
0000
0001
0100
0000
1000
0100
,
0010
0000
0100
0000
0001
0000
1000
0100
0010
0001
0000
0100
0001
0000
0001
0010
,
0100
0000
1000
0000
0001
0000
0100
0010
1000
0001
0000
1000
0100
0000
0010
0001
,
0100
0000
0010
0000
1000
0000
0001
0010
0100
1000
0000
0001
0100
0000
0100
0010
,
1000
0000
0001
0000
0010
0000
0100
1000
0001
0100
0000
1000
0100
0000
0001
0010
,
0200
0000
0000
0000
1300
0000
0001
0100
0010
1000
0000
0100
0010
0000
0010
0001
,
1000
0000
0010
0000
0100
0000
0001
1000
0100
1000
0000
0001
0100
0000
0100
0010
,
1000
0000
0100
0000
0010
0000
0001
1000
0010
0100
0000
0001
1000
0000
1000
0100
,
0010
0000
0001
0000
0100
0000
0010
0100
0001
1000
0000
0001
0100
0000
1000
0100
,
0010
0000
1000
0000
0001
0000
0010
0100
1000
0001
0000
0100
0010
0000
0010
1000
,
0001
0000
1000
0000
0100
0000
0010
0001
1000
0010
0000
0100
0001
0000
0001
0010
,
0100
0000
1000
0000
0010
0000
0100
0001
1000
0100
0000
0010
0001
0000
0001
1000
,
0010
0000
0100
0000
0001
0000
1000
0100
0010
0100
0000
1000
0010
0000
0001
0010
,
0100
0000
0001
0000
1000
0000
0000
0000
0001
0000
0000
0000
0100
0010
1000
0000
,
0001
0010
0100
0000
1000
0000
0000
0000
0001
0000
0000
0000
0010
0100
1000
0000
,
0001
0100
0010
0000
1000
0000
0000
0000
0001
0000
0000
0000
0100
0010
1000
0000
,
0001
0010
0100
0000
1000
0000
0000
0000
0001
0000
0000
0000
0100
0010
1000
0000
,
0001
1000
0100
0000
0010
0000
0000
0000
0001
0000
0000
0000
1000
0010
0100
0000
,
0001
1000
0100
0000
0010
0000
0000
0000
0001
0000
0000
0000
1000
0010
0100
0000
,
0001
1000
0100
0000
0010
0000
0000
0000
0001
0000
0000
0000
1000
0010
0100
0000
,
0001
0010
0100
0000
1000
0000
0000
0000
0001
0000
0000
0000
0100
0010
1000
0000
,
0100
0010
0001
0000
1000
0000
0000
0000
0000
0000
0000
0000
0001
0100
0010
0000
,
1000
0001
0010
0000
0000
0000
0000
0000
0000
0000
0000
0000
0100
1000
0001
0000
,
0100
0010
1000
0000
0000
0000
0000
0000
0000
0000
0000
0000
0001
0010
0100
0000
,
1000
0001
0100
0000
0000
0000
0000
0000
0000
0000
0000
0000
0010
1000
0001
0000
,
0010
0100
1000
0000
0000
0000
0000
0000
0000
0000
0000
0000
0100
0010
0001
0000
,
0100
0010
1000
0000
0000
0000
0000
0000
0001
0000
1000
0010
0100
0001
0000
1000
,
0100
0000
0100
0010
0000
0010
0001
0000
1000
0000
0010
0100
0001
1000
0000
0100
,
0010
0000
0010
0001
0000
0001
0100
0000
0010
0000
1000
0001
0010
0100
0000
1000
,
0001
0000
0001
0100
0000
0100
0010
0000
1000
0000
0001
0010
0100
1000
0000
0001
,
0100
0000
1000
0100
0010
0000
1000
0000
0001
0000
0010
0100
1000
0001
0000
0100
,
0010
0000
0010
1000
0000
1000
0001
0000
0010
0000
0100
1000
0001
0100
0000
0010
,
1000
0000
1000
0100
0000
0100
0010
0000
0001
0000
1000
0010
0100
0001
0000
1000
,
0100
0000
0100
0010
0000
0010
0001
0000
1000
0000
0010
0100
0001
1000
0000
0100
,
0010
0000
1000
0010
0002
0000
0000
0000
1003
0000
0010
1000
0001
0010
0000
0100
,
1000
0000
1000
0001
0000
0001
0100
0000
0010
0000
1000
0001
0010
0100
0000
1000
,
0010
0000
0010
0100
0000
0100
0001
0000
1000
0000
0100
0010
0001
1000
0000
0010
,
1000
0000
1000
0001
0000
0001
0010
0000
0100
0000
1000
0001
0100
0010
0000
1000
,
0100
0000
0001
0100
0010
0000
0001
0000
1000
0000
0010
0100
0001
1000
0000
0100
,
0010
0000
0010
0001
0000
0001
1000
0000
0010
0000
0100
0001
1000
0100
0000
0010
,
0001
0000
0001
0100
0000
0100
0010
0000
1000
0000
0001
0010
0100
1000
0000
0001
,
0100
0000
0100
0010
0000
0010
1000
0000
0100
0000
0010
0001
1000
0010
0000
0001
,
0010
0000
1000
0200
0000
0000
0000
0000
1300
0000
0000
0000
0001
0000
0000
0000
,
0010
0100
1000
0000
0001
0100
0010
0000
1000
0000
0000
0000
0001
0000
0000
0000
,
0100
0010
1000
0000
0001
0010
0100
0000
1000
0000
0000
0000
0001
0000
0000
0000
,
0010
0100
1000
0000
0001
0100
0010
0000
1000
0000
0000
0000
0001
0000
0000
0000
,
0010
0100
1000
0000
0001
1000
0010
0000
0100
0000
0000
0000
0001
0000
0000
0000
,
1000
0100
0010
0000
0001
1000
0010
0000
0100
0000
0000
0000
0001
0000
0000
0000
,
1000
0100
0010
0000
0001
1000
0010
0000
0100
0000
0000
0000
0001
0000
0000
0000
,
1000
0100
0010
0000
0001
0100
0010
0000
1000
0000
0000
0000
0000
0000
0000
0000
,
0001
0100
0010
0000
1000
0100
0010
0002
M000
0000
0M00
0000
M000
0000
0M00
0000
,
M000
0M00
M000
0M00
M000
0M00
M000
0M00
,
0003
0000
0000
0000
;

//---------------dance-single - XO, STR 16-14/15----------------
#NOTEDATA:;
#CHARTNAME:Keepin' It Movin';
#CHARTHASH:892051425;
#STEPSTYPE:dance-single;
#BANNER:;
#DESCRIPTION:XO, STR 16-14/15;
#CHARTSTYLE:;
#DIFFICULTY:Challenge;
#METER:18;
#METERF:0.000000;
#LASTSECONDHINT:115.074127;
#RADARVALUES:1.214826,1.069583,0.000000,0.153529,2.093960,997.000000,997.000000,0.000000,18.000000,13.000000,0.000000,0.000000,0.000000,0.000000,1.214826,1.069583,0.000000,0.153529,2.093960,997.000000,997.000000,0.000000,18.000000,13.000000,0.000000,0.000000,0.000000,0.000000;
#CREDIT:YOSEFU as ''Five Grains'';
#DISPLAYBPM:170.000000;
#NOTES:
0000
0000
0000
0000
,
0000
0000
0000
0000
,
0000
0000
0000
0000
,
0000
0000
0000
0000
,
1000
0000
0010
0000
0000
0100
0000
0000
0001
0000
0000
0010
0000
0000
0200
0000
,
0000
0000
0300
0000
1000
0001
0100
0001
1000
0100
0010
0001
0100
0001
1000
0100
,
0010
0001
1000
0010
0100
0001
1000
0001
0100
0001
0010
0100
1000
0010
1000
0001
,
0010
0100
1000
0001
0100
0001
0010
0100
1000
0001
0100
0001
1000
0100
0010
0001
,
1000
0010
0100
0010
1000
0001
0010
0100
1000
0001
0100
0010
1000
0100
0010
0100
,
0001
0100
1000
0001
0100
0010
0100
0001
1000
0100
0010
0001
1000
0010
0100
0001
,
1000
0100
0010
0001
0100
0001
1000
0100
0010
0001
1000
0010
0100
0001
0010
0100
,
1000
0001
0100
0010
1000
0001
0100
0001
1000
0100
0010
0001
1000
0010
1000
0001
,
0010
0001
0010
0100
1000
0001
0100
0001
1000
0100
0010
0001
0100
0010
0001
0010
,
2000
3200
0320
0032
1003
0010
0100
0010
1000
0001
0010
0100
1000
0001
0100
0001
,
1000
0100
0010
0001
1000
0100
1000
0001
0100
0001
1000
0100
0010
0001
0100
0001
,
1000
0100
0010
0001
1000
0010
1000
0001
0010
0100
0010
0001
1000
0010
1000
0010
,
0100
0001
1000
0100
0010
0100
1000
0001
0100
0010
1000
0001
1000
0100
0010
0100
,
0001
0100
1000
0001
0100
0010
1000
0001
0100
0001
1000
0010
1000
0001
0010
0100
,
1000
0001
0100
0010
0100
0001
1000
0100
0010
0100
1000
0001
0100
0001
0010
0100
,
1000
0010
0100
0001
1000
0100
0010
0100
1000
0001
0100
0010
0100
0001
1000
0010
,
0100
0001
1000
0100
0010
0100
1000
0001
0100
0010
1000
0100
0010
1000
0010
0001
,
1000
0010
0100
0001
1000
0000
0001
0000
0000
0001
0000
0000
1000
0000
0000
0100
,
0000
0000
0010
0000
0001
0000
0100
0000
0010
0000
1000
0001
0000
1000
0001
0000
,
0010
0000
0100
0000
1000
0010
0100
0001
1000
0100
1000
0100
0010
0001
0010
0100
,
1000
0001
0100
0010
0100
0001
1000
0100
0010
0001
1000
0010
0100
1000
0100
0001
,
1000
0100
0010
0001
1000
0010
0100
0010
0100
0001
1000
0100
0010
0100
1000
0001
,
0100
0010
1000
0001
0010
0100
1000
0001
0100
0001
0010
0100
1000
0010
0100
0001
,
1000
0100
0010
0001
0100
0001
1000
0100
0010
0100
1000
0001
0100
0010
0100
0001
,
1000
0010
1000
0001
0010
0100
0010
0001
1000
0010
0100
0001
1000
0100
0020
0230
,
0302
0203
2300
3002
0103
0010
1000
0001
0010
0100
0010
0001
1000
0010
0100
0001
,
1000
0100
0010
0100
1000
0001
0100
0010
0100
0001
1000
0100
0010
0001
0100
0010
,
1000
0001
0010
0100
1000
0001
0100
0001
0100
0010
1000
0010
0100
0001
1000
0100
,
0010
0001
1000
0010
0100
0001
1000
0100
0010
0001
1000
0010
0100
0010
0001
0010
,
1000
0001
0010
0100
1000
0001
0100
0001
1000
0100
0010
0001
1000
0010
0100
0001
,
1000
0100
1000
0001
0100
0010
1000
0001
0010
0100
1000
0010
0100
0001
1000
0010
,
1000
0100
0010
0001
1000
0001
0100
0010
1000
0001
0010
0100
1000
0100
0010
0001
,
1000
0010
0100
0010
1000
0001
0010
0100
0010
0001
1000
0010
0100
1000
0100
0001
,
0010
0100
1000
0001
1000
0000
0000
0001
0100
0000
0000
0001
1000
0100
0010
0001
,
1000
0100
0010
0001
1000
0000
0000
0100
1000
0000
0000
0001
1000
0010
0100
0001
,
1000
0010
0100
0001
1000
0000
0000
0001
0010
0000
0000
0001
1000
0010
0100
0001
,
1000
0100
0010
0001
1000
0000
0000
0001
0100
0000
0000
0001
1000
0100
0010
0001
,
1000
0001
0100
0010
1000
0000
0000
0001
0100
0000
0000
0001
1000
0001
0010
0100
,
1000
0010
0100
0001
1000
0000
0000
0001
0010
0000
0000
0001
0100
0001
0010
0100
,
1000
0010
0100
0001
1000
0000
0000
0010
1000
0000
0000
0100
0010
0001
0010
0100
,
1000
0010
0100
0001
0010
0000
0000
0100
1000
0000
0000
0001
0100
0010
1000
0100
,
1000
0010
0100
0001
0010
0000
0000
0100
0000
0000
0100
0000
1000
0100
0010
0100
,
1000
0001
0100
0010
1000
0000
0000
0001
0000
0000
0001
0000
1000
0010
0100
0001
,
1000
0100
0010
0001
1000
0000
0000
0010
0000
0000
0010
0000
0100
0001
0010
0100
,
1000
0001
0100
0010
1000
0000
0000
0100
0000
0000
0100
0000
1000
0010
0100
0001
,
1000
0100
0010
0001
1000
0000
0000
0001
0000
0000
0001
0000
0010
0100
1000
0010
,
0100
0001
1000
0200
0000
0000
0300
0000
1000
0010
0100
0001
1000
0100
0010
0100
,
1000
0001
0100
0010
0100
0001
1000
0100
0010
0001
1000
0010
0100
0001
0010
0100
,
1000
0001
0100
0010
1000
0100
0010
0001
1000
0001
0100
0001
1000
0100
1000
0001
,
0100
0010
1000
0010
0100
0001
1000
0100
0010
0001
1000
0010
0100
0001
1000
0100
,
0001
0100
0010
0001
1000
0010
0100
0001
0010
0001
1000
0010
0100
0001
1000
0100
,
0010
0100
1000
0001
0100
0010
1000
0001
0010
0100
1000
0001
0100
0001
0010
0100
,
1000
0010
0100
0001
1000
0100
0010
0001
1000
0010
0100
0001
1000
0100
0010
0100
,
1000
0001
0100
0010
1000
0001
0010
0100
1000
0001
0010
0100
1000
0010
0100
0001
,
1000
0010
0001
0010
2000
3200
0320
0032
1003
0001
1000
0100
0010
0001
0010
0100
,
1000
0001
0100
0010
1000
0001
0010
0100
0010
0001
1000
0010
0100
0001
1000
0100
,
0010
0001
0100
0001
1000
0100
1000
0010
0100
0001
0010
0100
1000
0001
0100
0001
,
1000
0100
0010
0001
0010
0100
1000
0001
0100
0010
1000
0001
0010
0100
0010
0001
,
0100
0010
0001
0010
1000
0001
0010
0100
1000
0001
0100
0010
1000
0001
0100
0001
,
1000
0100
0010
0100
1000
0001
0100
0001
1000
0100
0010
0001
1000
0010
0100
0001
,
0010
0100
1000
0010
1000
0001
0010
0100
1000
0001
0100
0010
0100
0001
1000
0100
,
0010
0001
1000
0010
0100
0010
1000
0001
0010
0100
1000
0010
0100
0001
1000
0100
,
1000
0010
0001
0020
0000
0000
0000
0000
1030
0000
0000
0001
0010
0000
0000
0001
,
1000
0010
0100
0001
1000
0010
0100
0001
1000
0000
0000
0010
1000
0000
0000
0001
,
1000
0100
0010
0001
1000
0100
0010
0001
1000
0000
0000
0001
0100
0000
0000
0001
,
1000
0100
0010
0001
1000
0010
0100
0001
1000
0000
0000
0001
0010
0000
0000
0001
,
1000
0010
0100
0001
1000
0001
0010
0100
1000
0000
0000
0001
0010
0000
0000
0001
,
1000
0001
0100
0010
1000
0100
0010
0001
1000
0000
0000
0001
0100
0000
0000
0001
,
0010
0001
0100
0010
1000
0100
0010
0001
1000
0000
0000
0100
1000
0000
0000
0010
,
0100
0001
0100
0010
1000
0100
0010
0001
0100
0000
0000
0000
0000
0000
0000
0000
,
0001
0010
0100
1000
0001
1000
0010
0200
000M
0000
M000
0000
000M
0000
M000
0000
,
000M
M000
000M
M000
000M
M000
000M
M000
,
030M
0000
0000
0000
;

//---------------dance-double - ----------------
#NOTEDATA:;
#CHARTNAME:;
#CHARTHASH:2191497141;
#STEPSTYPE:dance-double;
#BANNER:;
#DESCRIPTION:;
#CHARTSTYLE:;
#DIFFICULTY:Beginner;
#METER:2;
#METERF:0.000000;
#LASTSECONDHINT:114.368240;
#RADARVALUES:0.093823,0.128793,0.051176,0.230293,0.000000,77.000000,71.000000,6.000000,27.000000,0.000000,0.000000,0.000000,0.000000,0.000000,0.093823,0.128793,0.051176,0.230293,0.000000,77.000000,71.000000,6.000000,27.000000,0.000000,0.000000,0.000000,0.000000,0.000000;
#CREDIT:YOSEFU;
#DISPLAYBPM:170.000000;
#NOTES:
00000000
00000000
00000000
00000000
,
00000000
00000000
00000000
00000000
,
00000000
00000000
00000000
00000000
,
00000000
00000000
00000000
00000000
,
00010000
00000000
00000000
00000000
,
00000000
00011000
00000000
00000000
,
00000000
00001000
00000000
00000000
,
00000000
01000000
00000000
00000000
,
00000000
00010000
00000000
00000000
,
00000000
10000000
00000000
00000000
,
00000000
01000000
00000000
00000000
,
00000000
00100000
00000000
00000000
,
00000000
00001000
00000000
00000000
,
00000000
00010000
00000000
00000000
,
00000000
00000010
00000000
00000000
,
00000000
00001000
00000000
00000000
,
00000000
00000010
00000000
00000000
,
00000000
00000100
00000000
00000000
,
00000000
00000001
00000000
00000000
,
00000000
00000010
00000000
00000000
,
00000000
00000100
00000000
00000000
,
00000000
00020000
00000000
00000000
,
00030000
00002000
00000000
00000000
,
00003000
01000000
00000000
00000000
,
00000000
00010000
00000000
00000000
,
00000000
10000000
00000000
00000000
,
00000000
01000000
00000000
00000000
,
00000000
00100000
00000000
00000000
,
00000000
00001000
00000000
00000000
,
00000000
00010000
00000000
00000000
,
00000000
00000010
00000000
00000000
,
00000000
00001000
00000000
00000000
,
00000000
00000100
00000000
00000000
,
00000000
00000010
00000000
00000000
,
00000000
00000001
00000000
00000000
,
00000000
00000100
00000000
00000000
,
00000000
00000010
00000000
00000000
,
00000000
00002002
00000000
00003003
,
00000000
00002000
00000000
00003000
,
00000000
00000200
00000000
00000300
,
00000000
00020000
00000000
00030000
,
00000000
00002000
00000000
00003000
,
00000000
02000000
00000000
03000000
,
00000000
00020000
00000000
00030000
,
00000000
20000000
00000000
30000000
,
00000000
20020000
00000000
30030000
,
00000000
00020000
00000000
00030000
,
00000000
20000000
00000000
30000000
,
00000000
02000000
00000000
03000000
,
00000000
00200000
00000000
00300000
,
00000000
00000000
10010000
00000000
,
00000000
00000000
10000000
00000000
,
00000000
00000000
00100000
00000000
,
00000000
00000000
01000000
00000000
,
00000000
00000000
00001000
00000000
,
00000000
00000000
00010000
00000000
,
00000000
00000000
00000100
00000000
,
00000000
00000000
00000010
00000000
,
00000000
00000000
00000110
00000000
,
00000000
00000000
00000001
00000000
,
00000000
00000000
00000100
00000000
,
00000000
00000000
00000010
00000000
,
00000000
00000000
00010000
00000000
,
00000000
00000000
00001000
00000000
,
00000000
00000000
01000000
00000000
,
00000000
00000000
00100000
00000000
,
00000000
00000000
20020000
00000000
,
30030000
00000000
20000000
00000000
,
30000000
00000000
02000000
00000000
,
03000000
00000000
00200000
00000000
,
00300000
00000000
00002000
00000000
,
00003000
00000000
00020000
00000000
,
00030000
00000000
00000020
00000000
,
00000030
00000000
00000200
00000000
,
00000300
00000000
00000002
00000000
,
00000000
00000000
00000003
00000000
;

//---------------dance-double - ----------------
#NOTEDATA:;
#CHARTNAME:;
#CHARTHASH:3977883694;
#STEPSTYPE:dance-double;
#BANNER:;
#DESCRIPTION:;
#CHARTSTYLE:;
#DIFFICULTY:Easy;
#METER:8;
#METERF:0.000000;
#LASTSECONDHINT:115.074127;
#RADARVALUES:0.300965,0.291704,0.000000,0.093823,0.000000,247.000000,247.000000,0.000000,11.000000,0.000000,0.000000,0.000000,0.000000,0.000000,0.300965,0.291704,0.000000,0.093823,0.000000,247.000000,247.000000,0.000000,11.000000,0.000000,0.000000,0.000000,0.000000,0.000000;
#CREDIT:YOSEFU;
#DISPLAYBPM:170.000000;
#NOTES:
00000000
00000000
00000000
00000000
,
00000000
00000000
00000000
00000000
,
00000000
00000000
00000000
00000000
,
00000000
00000000
00000000
00000000
,
00010000
00000000
00001000
00000000
,
00000000
00010000
00001000
01000000
,
00010000
10000000
01000000
00100000
,
00001000
00010000
00000010
00001000
,
00000001
00000010
00000100
00000001
,
00000100
00010000
00001000
01000000
,
00100000
10000000
00010000
10000000
,
01000000
00100000
00001000
00010000
,
00000010
00000100
00000010
00001000
,
00000002
00000013
00001000
00010000
,
00100000
01000000
00010000
10000000
,
01000000
00100000
00010000
01000000
,
00001000
00010000
00100000
00010000
,
00001000
00000010
00000100
00001000
,
00000001
00000100
00000010
00001000
,
00000100
00000010
00000001
00000100
,
00001000
00010000
01000000
10000000
,
00010000
02000000
00000000
00000000
,
00000000
03002000
00000000
00000000
,
00000000
00003000
00010000
00000000
00100000
00000000
01000000
00000000
,
00010000
10000000
01000000
00010000
,
00001000
00000100
00000001
00000010
,
00000100
00001000
00000010
00000100
,
00000001
00001000
00000100
00000010
,
00001000
00010000
00100000
01000000
,
00020000
10030000
01000000
00100000
,
00010000
01000000
00001000
00010000
,
00000100
00000010
00000001
00000100
,
00001000
00010000
01000000
10000000
,
00100000
00010000
00100000
01000000
,
00010000
10000000
01000000
00010000
,
00001000
00010000
00100000
10000000
,
00100000
00010000
00001000
00000010
,
00000001
00000100
00000000
00001000
,
00010000
01000000
00000000
10000000
,
00100000
01000000
00000000
00100000
,
00010000
00001000
00000000
00000010
,
00000100
00001000
00000000
00000001
,
00000100
00000010
00000000
00000100
,
00001000
00010000
00000000
01000000
,
10000000
00100000
00000000
01000000
,
00010000
10000000
00000000
02000000
,
00000000
03100000
00000000
00002000
,
00000000
00013000
00000000
00000200
,
00000000
00001300
00000000
00000002
,
00000000
00000103
00000000
00000020
,
00000000
00010030
00001000
00010000
,
00000010
00001000
00000001
00000010
,
00000100
00010000
00001000
01000000
,
00010000
10000000
01000000
00100000
,
10000000
00100000
00001000
00010000
,
00000010
00000100
00000001
00001000
,
00000001
00000010
00000100
00010000
,
00001000
01000000
00100000
01000000
,
00010000
20000000
31000000
00010000
,
00001000
00000100
00000010
00001000
,
00000001
00000010
00000100
00001000
,
00000010
00010000
00001000
00000100
,
00001000
00010000
01000000
00100000
,
00010000
10000000
00100000
01000000
,
00010000
00100000
01000000
10000000
,
00100000
00010000
00001000
00000010
,
00000001
00000000
00000100
00000000
,
00000010
00000100
00001000
00000000
,
00010000
00100000
01000000
00000000
,
00010000
10000000
01000000
00000000
,
00010000
00001000
00000100
00000000
,
00000001
00000010
00001000
00000000
,
00010000
00100000
10000000
00000000
,
01000000
00010000
00001000
00000000
,
00000100
00001000
02000000
00000000
,
00000000
00000000
00000000
00000000
,
03000000
00000000
00000000
00000000
;

//---------------dance-double - ----------------
#NOTEDATA:;
#CHARTNAME:;
#CHARTHASH:2706575223;
#STEPSTYPE:dance-double;
#BANNER:;
#DESCRIPTION:;
#CHARTSTYLE:;
#DIFFICULTY:Medium;
#METER:14;
#METERF:0.000000;
#LASTSECONDHINT:115.074127;
#RADARVALUES:0.595837,0.550997,0.000000,0.051176,0.008529,489.000000,489.000000,0.000000,6.000000,12.000000,0.000000,0.000000,0.000000,0.000000,0.595837,0.550997,0.000000,0.051176,0.008529,489.000000,489.000000,0.000000,6.000000,12.000000,0.000000,0.000000,0.000000,0.000000;
#CREDIT:YOSEFU;
#DISPLAYBPM:170.000000;
#NOTES:
00000000
00000000
00000000
00000000
,
00000000
00000000
00000000
00000000
,
00000000
00000000
00000000
00000000
,
00000000
00000000
00000000
00000000
,
00000000
00000000
00001000
00000000
00000000
00001000
00000000
00000000
00000000
00000000
00000000
00100000
00000000
00000000
00001000
00000000
,
00000000
00000000
00010000
00000100
00001000
00000010
00000100
00000001
,
00001000
00000100
00000010
00000001
00000100
00000010
00010000
00001000
,
00100000
00010000
10000000
00100000
01000000
00100000
10000000
00010000
,
00100000
01000000
10000000
00100000
01000000
00100000
00010000
00001000
,
00000010
00000001
00000100
00000010
00001000
00000001
00000010
00000100
,
00001000
00000010
00000100
00000001
00001000
00000100
00010000
00001000
,
01000000
00010000
10000000
00100000
01000000
00010000
10000000
01000000
,
00100000
01000000
10000000
00100000
01000000
00100000
00010000
00001000
,
00000020
00000000
00000031
00000100
00000010
00001000
00000100
00000010
,
00000100
00001000
00000001
00000100
00000010
00000100
00000001
00001000
,
00000100
00010000
00001000
01000000
00010000
10000000
01000000
00100000
,
00010000
01000000
00100000
10000000
01000000
00010000
00001000
00000100
,
00000001
00000010
00000100
00001000
00000010
00000100
00000001
00001000
,
00000100
00000010
00000100
00010000
00001000
01000000
00010000
10000000
,
01000000
00100000
00010000
01000000
00100000
10000000
00010000
00100000
,
01000000
10000000
00100000
00010000
00001000
00000010
00000001
00000100
,
00001000
00010000
00002000
00000000
00000000
00000000
00000000
00000000
,
00000000
00203000
00000000
00000000
,
00000000
00300000
01000000
10000000
01000000
00100000
00010000
01000000
,
00100000
10000000
00010000
10000000
01000000
00010000
00001000
00000010
,
00000001
00000100
00001000
00000100
00000001
00000010
00000100
00001000
,
00000010
00000100
00000001
00001000
00000100
00010000
00001000
01000000
,
00010000
10000000
01000000
00100000
00010000
01000000
00100000
10000000
,
00010000
10000000
01000000
00100000
00001000
00010000
00000010
00000100
,
00000002
00000000
00000103
00000010
00001000
00000100
00000010
00000001
,
00001000
00000001
00000100
00000010
00010000
00001000
00100000
00010000
,
10000000
00100000
01000000
00010000
10000000
01000000
00100000
00010000
,
01000000
00100000
10000000
01000000
00010000
00001000
00000100
00000001
,
00000010
00001000
00000010
00000100
00001000
00000001
00000100
00000010
,
00001000
00000100
00000010
00000001
00001000
00000100
00010000
00001000
,
01000000
00010000
00100000
01000000
10000000
00100000
01000000
00010000
,
10000000
01000000
00100000
01000000
00010000
00001000
00000100
00000001
,
00000010
00001000
00000010
00000000
00000001
00000000
00000100
00000010
,
00010000
00001000
01000000
00000000
00010000
00000000
10000000
01000000
,
00100000
00001000
00010000
00000000
00000010
00000000
00000100
00000001
,
00000010
00000100
00010000
00000000
00001000
00000000
01000000
00100000
,
10000000
01000000
00100000
00000000
00001000
00000000
00010000
00000010
,
00001000
00000001
00000010
00000000
00000100
00000000
00010000
00001000
,
01000000
00100000
10000000
00000000
01000000
00000000
00100000
00001000
,
00010000
00000010
00000100
00000000
00000001
00000000
00001000
00000100
,
00000010
00000001
00001000
00000000
00000000
00000000
00000010
00010000
,
00001000
00100000
01000000
00000000
00000000
00000000
10000000
00100000
,
01000000
00001000
00010000
00000000
00000000
00000000
00000100
00000010
,
00000001
00001000
00000010
00000000
00000000
00000000
00010000
00001000
,
00100000
00010000
10000000
00000000
00000000
00000000
00100000
01000000
,
00001000
00010000
00000000
00000000
00001000
00100000
00010000
01000000
,
00100000
10000000
00010000
00100000
01000000
10000000
00100000
01000000
,
00001000
00010000
00000100
00001000
00000001
00000100
00000010
00000100
,
00000001
00001000
00000100
00000010
00000001
00000100
00000010
00000100
,
00001000
00010000
01000000
10000000
00100000
01000000
00010000
10000000
,
01000000
00100000
00010000
01000000
00100000
10000000
00010000
00100000
,
00001000
00010000
00000010
00001000
00000001
00000100
00000010
00001000
,
00000001
00000010
00000100
00000010
00000001
00000100
00000010
00000100
,
00001000
00010000
02000000
00000000
13000000
00100000
01000000
00010000
,
00100000
01000000
00100000
00010000
10000000
00100000
01000000
00100000
,
10000000
00010000
00100000
00001000
00010000
00000010
00001000
00000001
,
00000010
00000100
00001000
00000010
00000100
00000001
00000010
00001000
,
00010000
00100000
10000000
01000000
00100000
00010000
01000000
00100000
,
10000000
00010000
00100000
01000000
00100000
00001000
00010000
00000010
,
00001000
00000001
00000010
00000100
00001000
00000010
00000100
00000001
,
00001000
00000100
00000010
00000001
00000100
00001000
00010000
01000000
,
10000000
00100000
00000000
00000000
01000000
00000000
00010000
00000000
,
10000000
01000000
00100000
00001000
00010000
00000000
00000010
00000000
,
00000100
00000001
00000010
00000100
00010000
00000000
00001000
00000000
,
01000000
00100000
10000000
00010000
00100000
00000000
01000000
00000000
,
00100000
00001000
00010000
00000010
00000100
00000000
00000001
00000000
,
00001000
00000100
00000010
00000001
00000100
00000000
00000010
00000000
,
00001000
00000100
00010000
00001000
01000000
00000000
00100000
00000000
,
10000000
01000000
00100000
00001000
00010000
00000000
00000000
00000000
,
00000100
00000010
00000001
00000200
000000M0
0000M000
000M0000
00M00000
,
0M000000
M0000000
0M000000
00M00000
000M0000
0000M000
000000M0
0000M000
,
00000300
00000000
00000000
00000000
;

//---------------dance-double - ----------------
#NOTEDATA:;
#CHARTNAME:;
#CHARTHASH:2543367758;
#STEPSTYPE:dance-double;
#BANNER:;
#DESCRIPTION:;
#CHARTSTYLE:;
#DIFFICULTY:Hard;
#METER:17;
#METERF:0.000000;
#LASTSECONDHINT:115.074127;
#RADARVALUES:0.766425,0.680643,0.017059,0.025588,0.925436,629.000000,627.000000,2.000000,3.000000,12.000000,0.000000,0.000000,0.000000,0.000000,0.766425,0.680643,0.017059,0.025588,0.925436,629.000000,627.000000,2.000000,3.000000,12.000000,0.000000,0.000000,0.000000,0.000000;
#CREDIT:YOSEFU;
#DISPLAYBPM:170.000000;
#NOTES:
00000000
00000000
00000000
00000000
,
00000000
00000000
00000000
00000000
,
00000000
00000000
00000000
00000000
,
00000000
00000000
00000000
00000000
,
00000000
00000000
00001000
00000000
00000000
00100000
00000000
00000000
00010000
00000000
00000000
10000000
00000000
00000000
00100000
00000000
,
00000000
00000000
00000000
00000000
10000000
00000000
00100000
00000000
01000000
00001000
00000000
00001000
00010000
00000000
00001000
00010000
,
00000000
00010000
00000100
00000000
00000010
00000000
00000001
00000100
00000000
00000100
00000010
00000000
00001000
00000000
00000100
00000010
,
00000000
00000010
00000100
00000000
00010000
00000000
00001000
00000000
01000000
00010000
00000000
00010000
10000000
00000000
00100000
10000000
,
00000000
10000000
00010000
00000000
00100000
00000000
01000000
10000000
00000000
10000000
00100000
00000000
00010000
00000000
00001000
00000010
,
00000100
00000000
00001000
00000000
00000001
00000000
00000100
00000000
00000010
00001000
00000000
00001000
00000100
00000000
00010000
00001000
,
00000000
00001000
01000000
00000000
00010000
00000000
00100000
01000000
00000000
01000000
10000000
00000000
00100000
00000000
01000000
00010000
,
00000000
00010000
01000000
00000000
00100000
00000000
10000000
00000000
01000000
00100000
00000000
00100000
00001000
00000000
00010000
00000010
,
00000000
00000010
00001000
00000000
00000001
00000000
00000010
00000100
00000000
00000100
00001000
00000000
00000010
00000000
00000100
00001000
,
00010000
00000000
00000000
00001000
00100000
00000000
01000000
00000000
10000000
00100000
00000000
00100000
01000000
00000000
00001000
01000000
,
00000000
01000000
00010000
00000000
01000000
00000000
00001000
00010000
00000000
00010000
00000100
00000000
00001000
00000000
00000100
00000010
,
00000000
00000010
00000100
00000000
00001000
00000000
00000001
00000000
00000100
00000010
00000000
00000010
00001000
00000000
00000100
00010000
,
00000000
00010000
00001000
00000000
00100000
00000000
01000000
10000000
00000000
10000000
00010000
00000000
01000000
00000000
00100000
00010000
,
00001000
00000000
00010000
00000000
00000100
00000000
00000010
00000000
00000001
00000100
00000000
00000100
00000010
00000000
00010000
00000010
,
00000000
00000010
00001000
00000000
00000100
00000000
00010000
00001000
00000000
00001000
01000000
00000000
00010000
00000000
10000000
01000000
,
00000000
01000000
10000000
00000000
00100000
00000000
01000000
00000000
00001000
00100000
00000000
00100000
00010000
00000000
01000000
00001000
,
00000000
00001000
00010000
00000000
00000100
00000000
00000010
00000000
00000011
00000000
00000001
00000000
00000000
00000000
00001001
00000000
,
00001000
00000010
00000200
00000000
00000000
00000000
00000000
00000000
,
00000001
00000000
00000000
00000000
00001300
00000000
00010000
00000000
00001000
00000000
00000000
01000000
00000000
00000000
01000000
00000000
,
00001000
00000000
00100000
00000000
01000000
00000000
10000000
00000000
00100000
01000000
00000000
01000000
00001000
00000000
00010000
00000100
,
00000000
00000100
00001000
00000000
00000001
00000000
00000100
00000010
00000000
00000010
00001000
00000000
00000100
00000000
00000010
00001000
,
00010000
00000000
00100000
00000000
01000000
00000000
00010000
00000000
10000000
01000000
00000000
01000000
00100000
00000000
00001000
00010000
,
00000000
00010000
00000010
00000000
00000100
00000000
00000001
00001000
00000000
00001000
00000100
00000000
00000010
00000000
00000001
00000100
,
00000000
00000100
00000001
00000000
00001000
00000000
00000100
00000000
00010000
00001000
00000000
00001000
01000000
00000000
00010000
10000000
,
00000000
10000000
01000000
00000000
00100000
00000000
00001000
00010000
00000000
00010000
00000010
00000000
00000100
00000000
00001000
00010000
,
00000100
00000000
00000000
00010000
00001000
00000000
01000000
00000000
00010000
10000000
00000000
10000000
01000000
00000000
00100000
00010000
,
00000000
00010000
01000000
00000000
00100000
00000000
10000000
00010000
00000000
00010000
00100000
00000000
00001000
00000000
00010000
00000100
,
00000000
00000100
00010000
00000000
00000010
00000000
00000100
00000000
00000001
00001000
00000000
00001000
00000100
00000000
00000010
00000001
,
00000000
00000001
00000100
00000000
00000010
00000000
00010000
00001000
00000000
00001000
00100000
00000000
01000000
00000000
00010000
00001000
,
00000100
00000000
00000010
00000000
00001000
00000000
00000100
00000000
00000010
00000001
00000000
00000001
00000100
00000000
00000010
00010000
,
00000000
00010000
00001000
00000000
00100000
00000000
01000000
10000000
00000000
10000000
00100000
00000000
01000000
00000000
00010000
10000000
,
00000000
10000000
00010000
00000000
00100000
00000000
01000000
00000000
10000000
00010000
00000000
00010000
01000000
00000000
00001000
00010000
,
00000000
00010000
00000100
00000000
00000010
00000000
00000001
00000100
00000000
00000100
00000010
00000000
00000100
00000000
00001000
00010000
,
01000000
00000000
10000000
00000000
00010000
00000000
00000000
00000000
01000000
00000000
00000000
00000000
00100000
10000000
00010000
00000000
,
10000000
01000000
00100000
00000000
00001000
00000000
00000000
00000000
00010000
00000000
00000000
00000000
00000100
00001000
00000001
00000000
,
00000100
00000010
00001000
00000000
00000001
00000000
00000000
00000000
00001000
00000000
00000000
00000000
00000100
00010000
00001000
00000000
,
01000000
00010000
10000000
00000000
01000000
00000000
00000000
00000000
00100000
00000000
00000000
00000000
00001000
00010000
00000010
00000000
,
00000100
00000001
00001000
00000000
00000100
00000000
00000000
00000000
00000010
00000000
00000000
00000000
00000001
00000100
00000010
00000000
,
00010000
00001000
00100000
00000000
00010000
00000000
00000000
00000000
01000000
00000000
00000000
00000000
00100000
10000000
00010000
00000000
,
10000000
01000000
00100000
00000000
00001000
00000000
00000000
00000000
00010000
00000000
00000000
00000000
00000010
00001000
00000001
00000000
,
00000010
00000100
00001000
00000000
00000100
00000000
00000000
00000000
00010000
00000000
00000000
00000000
00001000
01000000
00010000
00000000
,
10000000
01000000
00100000
00000000
00001000
00000000
00000000
00000000
00000000
00000000
00000000
00000000
00010000
00000010
00000100
00000000
,
00000001
00001000
00000100
00000000
00000000
00000000
00000000
00000000
00000000
00000000
00000000
00000000
00000010
00000001
00001000
00000000
,
00000010
00000100
00000001
00000000
00000000
00000000
00000000
00000000
00000000
00000000
00000000
00000000
00001000
00000100
00010000
00000000
,
00001000
01000000
00010000
00000000
00000000
00000000
00000000
00000000
00000000
00000000
00000000
00000000
00100000
00010000
01000000
00000000
,
00100000
10000000
01000000
00000000
00000000
00000000
00000000
00000000
00000000
00000000
00000000
00000000
00100000
00001000
00010000
00000000
,
00000010
00001000
00000001
00000000
00000000
00000000
00000000
00000000
00001000
00000000
00000100
00000000
00010000
00001000
00000000
00001000
,
00100000
00000000
00010000
10000000
00000000
10000000
00100000
00000000
01000000
00000000
00010000
10000000
00000000
10000000
01000000
00000000
,
00100000
00000000
00001000
00010000
00000000
00010000
00001000
00000000
00010000
00000000
00000010
00000000
00000100
00000001
00000000
00000001
,
00000010
00000000
00000100
00001000
00000000
00001000
00000010
00000000
00000100
00000000
00000010
00001000
00000000
00001000
00000100
00000000
,
00000010
00000000
00001000
00010000
00100000
00000000
01000000
00000000
00010000
00000000
10000000
00000000
01000000
00100000
00000000
00100000
,
00001000
00000000
00010000
00000010
00000000
00000010
00001000
00000000
00000001
00000000
00000010
00000100
00000000
00000100
00010000
00000000
,
00001000
00000000
01000000
00010000
00000000
00010000
01000000
00000000
00100000
00000000
10000000
00000000
01000000
00100000
00000000
00100000
,
00001000
00000000
01000000
00010000
00000000
00010000
00100000
00000000
00001000
00000000
00010000
00000010
00000000
00000010
00001000
00000000
,
00000100
00000000
00000010
00001000
00020000
00000000
00000000
00000000
00031000
00000000
00100000
00000000
01000000
10000000
00000000
10000000
,
00100000
00000000
01000000
00001000
00000000
00001000
00010000
00000000
00000100
00000000
00000010
00000001
00000000
00000001
00001000
00000000
,
00000010
00000000
00000100
00000001
00000000
00000001
00000100
00000000
00000010
00000000
00010000
00000000
00001000
00100000
00000000
00100000
,
00010000
00000000
10000000
00100000
00000000
00100000
01000000
00000000
00010000
00000000
00100000
00001000
00000000
00001000
00010000
00000000
,
00100000
00000000
00010000
00001000
00000010
00000000
00000100
00000000
00001000
00000000
00000001
00000000
00000100
00000010
00000000
00000010
,
00010000
00000000
00001000
00100000
00000000
00100000
01000000
00000000
10000000
00000000
00100000
01000000
00000000
01000000
00001000
00000000
,
00010000
00000000
00000100
00000010
00000000
00000010
00000100
00000000
00001000
00000000
00000001
00000000
00000100
00000010
00000000
00000010
,
00010000
00000000
00001000
01000000
00000000
01000000
00100000
00000000
10000000
00000000
01000000
00100000
00000000
00100000
00001000
00000000
,
00010000
00000000
00000010
00000100
00000000
00000000
00000000
00000000
00000001
00000000
00000000
00000000
00000010
00000000
00000000
00000000
,
00000100
00010000
00001000
00000000
01000000
00001000
00010000
00000000
00001000
00000000
00000000
00000000
00100000
00000000
00000000
00000000
,
01000000
10000000
00010000
00000000
01000000
00100000
10000000
00000000
00010000
00000000
00000000
00000000
00100000
00000000
00000000
00000000
,
00001000
00010000
00000010
00000000
00000100
00000001
00001000
00000000
00000100
00000000
00000000
00000000
00000010
00000000
00000000
00000000
,
00000001
00000100
00000010
00000000
00010000
00001000
00100000
00000000
01000000
00000000
00000000
00000000
10000000
00000000
00000000
00000000
,
00100000
01000000
00010000
00000000
00100000
00001000
00010000
00000000
00000100
00000000
00000000
00000000
00000010
00000000
00000000
00000000
,
00000001
00000100
00000010
00000000
00010000
00001000
00100000
00000000
01000000
00000000
00000000
00000000
10000000
00000000
00000000
00000000
,
00100000
01000000
00001000
00000000
00010000
00000010
00000100
00000000
00000001
00000000
00000000
00000000
00000000
00000000
00000000
00000000
,
00000010
00000100
00001000
00000000
00010000
00001000
01000000
00020000
M0000000
00000000
00M00000
00000000
0000M000
00000000
00000M00
00000000
,
000000M0
0000000M
000000M0
00000M00
0000M000
00M00000
M0000000
00M00000
,
00030000
00000000
00000000
00000000
;

//---------------dance-double - XO, STR 16-14/15----------------
#NOTEDATA:;
#CHARTNAME:''Because the crowd said so'';
#CHARTHASH:1307122773;
#STEPSTYPE:dance-double;
#BANNER:;
#DESCRIPTION:XO, STR 16-14/15;
#CHARTSTYLE:;
#DIFFICULTY:Challenge;
#METER:19;
#METERF:0.000000;
#LASTSECONDHINT:115.074127;
#RADARVALUES:1.214826,1.069583,0.000000,0.153529,2.093960,997.000000,997.000000,0.000000,18.000000,12.000000,0.000000,0.000000,0.000000,0.000000,1.214826,1.069583,0.000000,0.153529,2.093960,997.000000,997.000000,0.000000,18.000000,12.000000,0.000000,0.000000,0.000000,0.000000;
#CREDIT:YOSEFU as ''Five Grains'';
#DISPLAYBPM:170.000000;
#NOTES:
00000000
00000000
00000000
00000000
,
00000000
00000000
00000000
00000000
,
00000000
00000000
00000000
00000000
,
00000000
00000000
00000000
00000000
,
00010000
00000000
00001000
00000000
00000000
01000000
00000000
00000000
00001000
00000000
00000000
00010000
00000000
00000000
02000000
00000000
,
00000000
00000000
03000000
00000000
10000000
01000000
00100000
00010000
10000000
00100000
01000000
00100000
10000000
00010000
01000000
00001000
,
00100000
00001000
00010000
00000010
00001000
00000001
00000010
00000100
00001000
00000001
00000100
00000010
00000100
00000001
00000010
00000100
,
00001000
00000001
00000100
00000010
00000100
00000001
00001000
00000100
00010000
00001000
01000000
00010000
10000000
01000000
00100000
00010000
,
10000000
00100000
01000000
00100000
10000000
00010000
00100000
01000000
00100000
00010000
10000000
00100000
01000000
00100000
00010000
00001000
,
00010000
00000100
00001000
00000001
00000100
00000010
00001000
00000001
00000010
00000100
00000010
00000001
00001000
00000010
00010000
00001000
,
00100000
00010000
10000000
00100000
01000000
00010000
10000000
01000000
00100000
01000000
10000000
00100000
01000000
00010000
10000000
01000000
,
00100000
01000000
10000000
00010000
01000000
00001000
00010000
00000100
00001000
00000001
00000100
00000010
00000100
00000001
00001000
00000100
,
00000010
00000001
00001000
00000010
00000100
00000010
00001000
00000001
00000010
00000100
00000010
00001000
00010000
00100000
01000000
00010000
,
20000000
32000000
03200000
00320000
10030000
00100000
01000000
00010000
10000000
01000000
00100000
01000000
10000000
00010000
00100000
00001000
,
01000000
00001000
00010000
00000100
00001000
00000001
00000100
00000010
00001000
00000001
00000010
00000100
00000010
00000001
00000100
00000010
,
00001000
00000001
00000010
00000100
00000010
00000001
00001000
00000010
00010000
00001000
00100000
00010000
10000000
00100000
01000000
00010000
,
10000000
01000000
00100000
01000000
10000000
00010000
01000000
00100000
01000000
00010000
10000000
01000000
00100000
01000000
00010000
00001000
,
00010000
00000010
00001000
00000001
00000010
00000100
00001000
00000001
00000100
00000010
00000100
00000001
00001000
00000100
00010000
00001000
,
01000000
00010000
10000000
01000000
00100000
00010000
10000000
00100000
01000000
00100000
10000000
01000000
00100000
00010000
10000000
00100000
,
01000000
00100000
10000000
00010000
00100000
00001000
00010000
00000010
00001000
00000001
00000010
00000100
00000010
00000001
00001000
00000010
,
00000100
00000001
00001000
00000100
00000010
00000100
00001000
00000001
00000100
00000010
00000100
00001000
00010000
01000000
00100000
00010000
,
10000000
00100000
01000000
00010000
10000000
00000000
01000000
00000000
00000000
01000000
00000000
00000000
00100000
00000000
00000000
00010000
,
00000000
00000000
01000000
00000000
00100000
00000000
10000000
00000000
00010000
00000000
00100000
01000000
00000000
00100000
01000000
00000000
,
10000000
00000000
00010000
00000000
10000000
01000000
00100000
00001000
00100000
00010000
10000000
00100000
01000000
00001000
00010000
00000100
,
00001000
00000010
00000100
00000001
00001000
00000100
00000010
00000001
00001000
00000010
00000100
00000010
00001000
00000100
00000010
00001000
,
00010000
00100000
01000000
00010000
10000000
01000000
10000000
00010000
01000000
00100000
01000000
00010000
10000000
01000000
10000000
00010000
,
01000000
00001000
00010000
00000100
00000010
00000100
00001000
00000001
00000100
00000010
00001000
00000100
00000010
00000001
00001000
00000010
,
00000100
00000010
00001000
00000001
00000010
00000100
00000010
00000001
00001000
00000010
00010000
00001000
00100000
00010000
10000000
00100000
,
01000000
00010000
10000000
01000000
00100000
00001000
00100000
01000000
10000000
00010000
01000000
00100000
00010000
00001000
00000020
00000230
,
00000302
00000203
00000320
00000032
00000103
00000010
00001000
00000001
00000010
00000100
00001000
00000001
00000100
00000001
00001000
00000100
,
00010000
00001000
01000000
00100000
10000000
01000000
00100000
00001000
00100000
00010000
01000000
00100000
10000000
01000000
00100000
01000000
,
10000000
00010000
01000000
00100000
01000000
00001000
00010000
00000100
00001000
00000001
00000100
00000010
00001000
00000001
00000010
00000100
,
00000010
00000001
00001000
00000010
00000100
00000001
00000100
00000010
00010000
00001000
00010000
00100000
01000000
00001000
00100000
01000000
,
00010000
00001000
00000010
00000100
00001000
00000001
00000010
00000100
00000010
00000001
00001000
00000010
00000100
00000001
00001000
00000100
,
00010000
00001000
01000000
00010000
10000000
01000000
00100000
00001000
00100000
01000000
10000000
00010000
01000000
00100000
10000000
01000000
,
00100000
00001000
00010000
00000010
00001000
00000001
00000010
00000100
00001000
00000001
00000100
00000010
00000100
00000001
00001000
00000100
,
00000010
00000001
00001000
00000010
00000100
00000001
00000100
00000010
00010000
00001000
00000010
00001000
00010000
00100000
01000000
00010000
,
00100000
01000000
10000000
00010000
01000000
00000000
00000000
00100000
10000000
00000000
00000000
00010000
00100000
01000000
00100000
00001000
,
00010000
00000010
00000100
00000001
00001000
00000000
00000000
00000001
00000010
00000000
00000000
00000100
00010000
00001000
01000000
00010000
,
10000000
01000000
00100000
00010000
10000000
00000000
00000000
00100000
01000000
00000000
00000000
00010000
10000000
01000000
00100000
00001000
,
00010000
00000010
00001000
00000001
00000100
00000000
00000000
00000001
00001000
00000000
00000000
00000100
00000010
00000100
00010000
00001000
,
01000000
00010000
10000000
01000000
00100000
00000000
00000000
01000000
10000000
00000000
00000000
00010000
01000000
00001000
00010000
00000100
,
00001000
00000100
00000010
00000001
00001000
00000000
00000000
00000010
00000100
00000000
00000000
00000001
00001000
00000100
00010000
00001000
,
01000000
00010000
10000000
01000000
00100000
00000000
00000000
00010000
01000000
00000000
00000000
00100000
10000000
00010000
00100000
00001000
,
00010000
00000010
00001000
00000001
00000010
00000000
00000000
00000100
00001000
00000000
00000000
00000001
00000100
00000010
00001000
00000010
,
00010000
00001000
00100000
00010000
10000000
00000000
00000000
00100000
00000000
00000000
00100000
00000000
10000000
01000000
00100000
00010000
,
10000000
00100000
01000000
00010000
10000000
00000000
00000000
01000000
00000000
00000000
01000000
00000000
00100000
00001000
00010000
00000010
,
00001000
00000001
00000100
00000010
00001000
00000000
00000000
00000001
00000000
00000000
00000001
00000000
00001000
00000100
00000010
00000001
,
00001000
00000010
00000100
00000001
00001000
00000000
00000000
00000100
00000000
00000000
00000100
00000000
00000010
00000100
00010000
00001000
,
00100000
00010000
10000000
00100000
01000000
00000000
00000000
00010000
00000000
00000000
00010000
00000000
10000000
01000000
00100000
00010000
,
01000000
00100000
10000000
00020000
00000000
00000000
00030000
00000000
10000000
00100000
01000000
00010000
10000000
01000000
00100000
01000000
,
10000000
00010000
00100000
00001000
01000000
00001000
00010000
00000100
00001000
00000001
00000100
00000010
00001000
00000001
00000010
00000100
,
00000010
00000001
00000100
00000010
00001000
00000001
00000010
00000100
00000010
00000001
00001000
00000010
00010000
00001000
00100000
00010000
,
10000000
00100000
01000000
00010000
10000000
01000000
00100000
01000000
10000000
00010000
01000000
00100000
01000000
00010000
10000000
01000000
,
00100000
01000000
00010000
00001000
00010000
00000010
00001000
00000001
00000010
00000100
00001000
00000001
00000100
00000010
00000100
00000001
,
00001000
00000100
00010000
00001000
01000000
00010000
10000000
01000000
00100000
00010000
10000000
00100000
01000000
00100000
10000000
01000000
,
00100000
00010000
10000000
00100000
01000000
00100000
10000000
00010000
00100000
00001000
00010000
00000010
00001000
00000001
00000010
00000100
,
00000010
00000001
00001000
00000010
00000100
00000001
00001000
00000100
00000010
00000100
00001000
00000001
00000100
00000010
00000100
00001000
,
00010000
01000000
00100000
00010000
20000000
30200000
02300000
03020000
10030000
01000000
00100000
00010000
10000000
00100000
01000000
00100000
,
10000000
00010000
01000000
00001000
00100000
00001000
00010000
00000010
00001000
00000001
00000010
00000100
00001000
00000001
00000100
00000010
,
00000100
00000001
00000010
00000100
00001000
00000001
00000100
00000010
00000100
00000001
00001000
00000100
00010000
00001000
01000000
00010000
,
10000000
01000000
00100000
00010000
10000000
00100000
01000000
00100000
10000000
00010000
00100000
01000000
00100000
00010000
10000000
00100000
,
01000000
00100000
00010000
00001000
00010000
00000100
00001000
00000001
00000100
00000010
00001000
00000001
00000010
00000100
00000010
00000001
,
00001000
00000010
00010000
00001000
00100000
00010000
10000000
00100000
01000000
00010000
10000000
01000000
00100000
01000000
10000000
00100000
,
01000000
00010000
10000000
01000000
00100000
01000000
10000000
00010000
01000000
00001000
00010000
00000100
00001000
00000001
00000100
00000010
,
00000100
00000001
00001000
00000100
00000010
00000001
00001000
00000010
00000100
00000010
00001000
00000001
00000010
00000100
00000010
00001000
,
00010000
00100000
01000000
00020000
00000000
00000000
00000000
00000000
10030000
00000000
00000000
00100000
01000000
00000000
00000000
00010000
,
10000000
01000000
00100000
00001000
00010000
00000010
00000100
00000001
00001000
00000000
00000000
00000001
00000010
00000000
00000000
00000100
,
00010000
00001000
01000000
00010000
10000000
01000000
00100000
00010000
01000000
00000000
00000000
00100000
10000000
00000000
00000000
00010000
,
00100000
00001000
00010000
00000010
00001000
00000001
00000010
00000100
00001000
00000000
00000000
00000001
00000100
00000000
00000000
00000010
,
00010000
00001000
00100000
00010000
10000000
00100000
01000000
00010000
00100000
00000000
00000000
01000000
10000000
00000000
00000000
00010000
,
01000000
00001000
00010000
00000100
00001000
00000001
00000100
00000010
00001000
00000000
00000000
00000001
00000010
00000000
00000000
00000100
,
00001000
00000001
00000100
00000010
00010000
00001000
00100000
00010000
10000000
00000000
00000000
00100000
01000000
00000000
00000000
00010000
,
10000000
01000000
00100000
00001000
00010000
00000010
00001000
00000001
00000100
00000000
00000000
00000000
00000000
00000000
00000000
00000000
,
00000001
00000100
00000010
00010000
00001000
00100000
01000000
00200000
M0000000
00000000
000M0000
00000000
0000M000
00000000
00000M00
00000000
,
000000M0
0000000M
000000M0
00000M00
0000M000
000M0000
M0000000
000M0000
,
00300000
00000000
00000000
00000000
;
