#VERSION:0.83;
#TITLE:ヤミナベ!!!!;
#SUBTITLE:;
#ARTIST:cosMo@暴走P feat.初音ミク;
#TITLETRANSLIT:YAMINABE!!!!;
#SUBTITLETRANSLIT:;
#ARTISTTRANSLIT:cosMo@BousouP feat. Hatsune Miku;
#GENRE:YES;
#ORIGIN:;
#TAGS:;
#CREDIT:;
#BANNER:YAMINABE!!!!.png;
#BACKGROUND:YAMINABE!!!!-bg.png;
#PREVIEWVID:;
#JACKET:YAMINABE!!!!-jacket.png;
#CDIMAGE:;
#DISCIMAGE:;
#LYRICSPATH:;
#CDTITLE:../_YSD cdtitles/ysd br2023 cdtitle.png;
#MUSIC:YAMINABE!!!!.ogg;
#OFFSET:0.000000;
#SAMPLESTART:57.839001;
#SAMPLELENGTH:20.943001;
#SELECTABLE:YES;
#BPMS:0.000000=264.000000
,84.000000=200.000000
,141.000000=190.000000
,145.000000=180.000000
,149.000000=174.000000
,193.000000=116.000000
,201.000000=232.000000
,276.500000=215.000000
,278.000000=202.800003
,281.000000=182.000000
,313.000000=136.500000
,329.000000=273.000000
,361.000000=285.000000
,393.000000=300.000000
,425.000000=150.000000
,429.000000=300.000000
;
#STOPS:;
#DELAYS:;
#WARPS:;
#TIMESIGNATURES:0.000000=4=4
,84.000000=1=4
,85.000000=4=4
;
#TICKCOUNTS:0.000000=4
;
#COMBOS:0.000000=1
;
#SPEEDS:0.000000=1.000000=0.000000=0
;
#SCROLLS:0.000000=1.000000
;
#FAKES:;
#LABELS:0.000000=Song Start
;
#BGCHANGES:;
#KEYSOUNDS:;
#ATTACKS:
;

//---------------dance-single - ----------------
#NOTEDATA:;
#CHARTNAME:;
#CHARTHASH:3980831211;
#STEPSTYPE:dance-single;
#BANNER:;
#DESCRIPTION:;
#CHARTSTYLE:;
#DIFFICULTY:Beginner;
#METER:10;
#METERF:0.000000;
#LASTSECONDHINT:38.787399;
#RADARVALUES:0.416195,0.547121,0.269045,0.061496,0.011530,379.000000,344.000000,35.000000,8.000000,0.000000,0.000000,0.000000,0.000000,0.000000,0.416195,0.547121,0.269045,0.061496,0.011530,379.000000,344.000000,35.000000,8.000000,0.000000,0.000000,0.000000,0.000000,0.000000;
#CREDIT:YOSEFU;
#NOTES:
// measure 0
0000
0000
0000
0000
,  // measure 1
0000
0000
0000
0000
,  // measure 2
0000
0000
0000
0000
,  // measure 3
0000
0000
0000
0000
,  // measure 4
0000
0000
0000
0000
,  // measure 5
1000
0000
0100
0000
,  // measure 6
0010
0100
1000
0000
,  // measure 7
0001
0000
0100
0000
,  // measure 8
0010
0100
0001
0000
,  // measure 9
1000
0000
0100
0000
,  // measure 10
0010
0100
1000
0001
,  // measure 11
0100
0000
0010
0000
,  // measure 12
1000
0000
0001
0000
,  // measure 13
1000
0100
0010
0100
,  // measure 14
1000
0001
0100
0000
,  // measure 15
0010
0000
1000
0000
,  // measure 16
1001
0000
0001
0000
,  // measure 17
1001
0000
1001
0000
,  // measure 18
0110
0000
0110
0000
,  // measure 19
1001
0000
0000
0000
,  // measure 20
0000
0000
1000
0000
0000
0000
0001
0000
0000
0000
0100
0000
,  // measure 21
0001
1000
0100
1000
,  // measure 22
0000
0001
0100
0001
,  // measure 23
0000
1000
0100
0010
,  // measure 24
0100
1000
0001
0100
,  // measure 25
0010
1001
0000
1000
,  // measure 26
0100
0010
0000
0001
,  // measure 27
0100
0010
0000
1000
,  // measure 28
0001
0010
0100
1000
,  // measure 29
0001
1000
0010
0001
,  // measure 30
0010
1000
0001
0010
,  // measure 31
1000
0010
0001
1000
,  // measure 32
0010
0001
1000
0100
,  // measure 33
0001
2000
0000
0000
,  // measure 34
0100
3002
0000
0010
,  // measure 35
0000
2003
0000
0000
,  // measure 36
0000
3020
0000
0000
,  // measure 37
0000
0030
0000
0000
,  // measure 38
0000
0000
1000
0000
0001
0000
1000
0100
,  // measure 39
1000
0000
0001
0000
0100
0000
0001
1000
,  // measure 40
0001
1000
0100
0010
,  // measure 41
0000
0001
1000
0010
,  // measure 42
0000
0000
0100
0000
1000
0000
0100
0010
,  // measure 43
0100
0000
0001
0000
0010
0000
0100
1000
,  // measure 44
0100
0000
0010
0000
0001
0000
1000
0001
,  // measure 45
1000
0010
0100
0001
,  // measure 46
1000
0000
1001
0000
0000
0110
0000
0000
,  // measure 47
1001
0000
0000
0110
0000
0000
1001
0000
,  // measure 48
0001
2000
0000
0000
,  // measure 49
0000
0000
0000
0000
3001
0000
0000
0000
0100
0000
0000
0000
0010
0000
0000
1001
,  // measure 50
0000
1000
0100
0010
,  // measure 51
0100
1000
0001
0100
,  // measure 52
0100
0000
0010
1000
,  // measure 53
0001
1000
0100
0010
,  // measure 54
0000
0001
0001
0100
,  // measure 55
0100
0010
0010
1000
,  // measure 56
1000
0001
0010
1000
,  // measure 57
0010
0001
1000
1001
,  // measure 58
0000
0000
0001
0000
0000
0001
0000
0000
,  // measure 59
1000
0000
0000
1000
0000
0000
0100
0000
,  // measure 60
0010
0001
1000
0010
,  // measure 61
0000
0100
0001
1000
,  // measure 62
0100
0010
0010
0100
,  // measure 63
1000
0001
0001
0000
,  // measure 64
1000
0010
0010
0100
,  // measure 65
0100
0001
1000
0100
,  // measure 66
1001
0001
0100
1000
,  // measure 67
0100
0001
1000
0100
,  // measure 68
0001
0200
0000
0000
,  // measure 69
0000
0000
0000
0000
,  // measure 70
0000
1300
0001
0100
,  // measure 71
0000
0010
1000
0001
,  // measure 72
0000
0010
0100
0010
,  // measure 73
0001
1000
0010
0000
,  // measure 74
0000
0100
0001
1000
,  // measure 75
0000
0100
0010
0001
,  // measure 76
0000
1001
0000
0110
,  // measure 77
0000
1001
0000
0001
,  // measure 78
0000
2001
0000
0000
,  // measure 79
0000
3002
0000
0000
,  // measure 80
0000
0103
0100
0010
,  // measure 81
0010
0000
1000
0001
1000
0001
0000
0000
,  // measure 82
0000
1001
1000
0000
0001
0000
0100
0000
,  // measure 83
0000
0001
1000
0100
,  // measure 84
0000
0010
0001
0010
,  // measure 85
0100
1000
0001
0100
,  // measure 86
0000
0010
1000
0010
,  // measure 87
1000
0001
0010
0100
,  // measure 88
0000
1000
0001
0100
,  // measure 89
0010
1000
1001
0000
,  // measure 90
0000
0001
0010
0100
,  // measure 91
1000
0010
0100
0001
,  // measure 92
0000
1000
0100
0010
,  // measure 93
0001
0100
0010
1000
,  // measure 94
0000
0001
0010
1000
,  // measure 95
0010
0001
1000
0010
,  // measure 96
0001
0010
1000
0001
,  // measure 97
0010
0100
1001
0000
,  // measure 98
0000
1000
0100
0001
,  // measure 99
0100
0010
0001
1000
,  // measure 100
0010
0001
0000
0010
,  // measure 101
0000
1000
0000
1001
,  // measure 102
0000
1001
0000
0110
,  // measure 103
0000
1001
0000
0110
,  // measure 104
0000
1000
1000
0001
,  // measure 105
0001
0100
0010
0110
,  // measure 106
0000
0001
0000
0000
,  // measure 107
0000
1001
0000
0110
,  // measure 108
0000
1001
1001
1001
,  // measure 109
0000
1000
0010
0100
,  // measure 110
0000
0001
0010
0100
,  // measure 111
0000
1000
0001
1000
,  // measure 112
0000
0010
0100
0010
,  // measure 113
0000
0000
1000
0000
0000
1000
0000
0000
,  // measure 114
0001
0000
0000
0001
0000
0000
0010
0000
,  // measure 115
0000
0010
1001
1000
,  // measure 116
0000
0010
0000
1000
,  // measure 117
0001
0100
0000
0110
,  // measure 118
0000
0000
0010
0000
0000
0010
0000
0000
;

//---------------dance-single - ----------------
#NOTEDATA:;
#CHARTNAME:;
#CHARTHASH:2147483647;
#STEPSTYPE:dance-single;
#BANNER:;
#DESCRIPTION:;
#CHARTSTYLE:;
#DIFFICULTY:Easy;
#METER:13;
#METERF:13.000000;
#LASTSECONDHINT:127.382004;
#RADARVALUES:0.590800,1.003056,0.622646,0.176801,0.069183,538.000000,457.000000,81.000000,23.000000,7.000000,0.000000,0.000000,0.000000,0.000000,0.590800,1.003056,0.622646,0.176801,0.069183,538.000000,457.000000,81.000000,23.000000,7.000000,0.000000,0.000000,0.000000,0.000000;
#CREDIT:YOSEFU;
#NOTES:
// measure 0
0000
0000
0000
0000
,  // measure 1
0000
0000
0000
0000
,  // measure 2
0000
0000
0000
0000
,  // measure 3
0000
0000
0000
0000
,  // measure 4
0000
0000
0000
0000
,  // measure 5
1000
0010
0100
0001
,  // measure 6
1000
0000
0001
1000
0000
0000
0010
0000
0000
0000
0000
0000
,  // measure 7
0100
0000
0000
0001
0000
0000
1000
0000
0000
0010
0000
1000
,  // measure 8
0000
0000
0010
1000
0000
0000
0001
0000
1000
0000
0000
0000
,  // measure 9
0100
0010
0001
1000
,  // measure 10
0010
0001
0010
1000
,  // measure 11
0100
0000
0000
0010
0000
0000
0001
0000
1000
0000
0000
0020
,  // measure 12
0000
0000
0000
0130
0000
0000
0001
0000
1000
0001
0000
0000
,  // measure 13
1010
1000
1100
0100
,  // measure 14
0110
0000
0010
0000
0011
0000
0000
0001
,  // measure 15
0010
0000
0001
0000
1000
0001
0000
1000
,  // measure 16
0000
0000
0001
0100
,  // measure 17
0101
0101
1001
1001
,  // measure 18
1100
1100
1001
1001
,  // measure 19
1000
0010
0100
0001
,  // measure 20
0000
0000
1000
0000
0000
0000
0010
0000
0000
0000
0000
0000
,  // measure 21
10M0
0000
0001
0100
0001
0000
1000
0100
,  // measure 22
1000
0000
0001
0100
0010
0100
0001
1000
,  // measure 23
0100
0010
0001
1000
0001
0000
0100
0010
,  // measure 24
0100
0000
0001
1000
0100
0010
0001
0100
,  // measure 25
0010
1000
2001
0000
3010
0000
0100
0001
,  // measure 26
1000
0000
0100
0010
0100
0000
1000
0001
,  // measure 27
0100
0000
0010
1000
0010
0000
0100
0001
,  // measure 28
1000
0000
0100
0010
0001
0020
0000
0000
,  // measure 29
0000
0000
0130
1000
0100
0001
0100
0010
,  // measure 30
0001
0000
0100
0001
0010
1000
0010
0100
,  // measure 31
1000
0001
0100
0010
0001
0010
1000
0001
,  // measure 32
0010
0000
0000
0000
1000
0000
0010
0000
0001
0000
1000
0000
0010
0000
0000
0100
,  // measure 33
0000
0001
0201
0000
0000
0000
0010
0000
,  // measure 34
0301
1002
0000
0100
,  // measure 35
0003
0220
0000
0000
,  // measure 36
0330
2002
0000
0000
,  // measure 37
0000
3003
0000
0000
,  // measure 38
0000
0000
1000
0100
0010
0100
1000
0001
,  // measure 39
0100
0010
1000
0001
0010
0100
1000
0010
,  // measure 40
0100
0000
0001
0000
1000
0000
0000
0100
0000
0000
1000
0000
1001
0000
0000
0000
,  // measure 41
0001
0000
0200
0000
0310
2000
0000
0000
,  // measure 42
0001
0001
3001
0010
1000
0010
0100
1000
,  // measure 43
0001
0100
0010
0100
1000
0100
0001
0010
,  // measure 44
0100
0000
1000
0000
0001
0000
0000
0000
1001
0000
0000
0000
1000
0001
1000
0000
,  // measure 45
0100
0000
0000
0000
0110
0000
0000
0010
0000
0000
0002
0000
0000
0000
1003
0000
,  // measure 46
1001
0000
0000
0000
0101
0000
0000
1001
0000
0000
1100
0000
0000
1001
0000
0000
,  // measure 47
0101
0000
0000
0000
0000
0110
0000
0000
1010
0000
0000
1001
0000
0000
0011
0000
,  // measure 48
0000
0110
0000
0000
210M
0000
0000
0000
0000
0000
0000
0000
0000
0000
3001
0000
,  // measure 49
0010
0000
0100
0000
1100
0000
0000
0000
1010
0000
0000
0000
0101
0000
0000
0001
,  // measure 50
0000
10M0
0100
0010
,  // measure 51
0100
0000
1000
0001
1000
0000
0010
0000
,  // measure 52
0010
0100
0010
1000
,  // measure 53
0001
1000
0001
0000
0010
0000
0100
0000
,  // measure 54
1000
0100
0000
1000
0100
0000
1000
0000
,  // measure 55
0001
0000
0100
0001
0100
0001
0000
0100
,  // measure 56
0001
1001
0100
1001
,  // measure 57
0010
1001
0110
1001
,  // measure 58
0000
0000
1000
0000
0001
1000
0000
0001
,  // measure 59
0100
0000
0001
1000
0000
0100
1000
0000
,  // measure 60
0001
1000
1010
0201
,  // measure 61
0000
0000
0301
0100
0000
0000
0000
0001
,  // measure 62
1000
0001
1000
0000
0100
0000
0010
0000
,  // measure 63
0001
0000
1000
0010
1000
0000
0001
0000
,  // measure 64
1000
0000
0100
0000
0010
0001
0000
0010
,  // measure 65
0001
0000
1000
0000
0010
1000
0000
0010
,  // measure 66
1000
1010
0100
1001
,  // measure 67
0100
1010
1001
0011
,  // measure 68
0110
2002
0000
0000
,  // measure 69
0000
0000
0000
0000
,  // measure 70
3003
1000
0010
1010
,  // measure 71
0000
0001
0010
0011
,  // measure 72
0000
1000
0100
1100
,  // measure 73
0000
0001
0100
0101
,  // measure 74
0000
1000
0100
0110
,  // measure 75
0000
0001
0100
0110
,  // measure 76
0000
1000
0100
0011
,  // measure 77
0000
0001
0100
1010
,  // measure 78
0000
200M
0000
0000
,  // measure 79
0000
3002
0000
0000
,  // measure 80
0000
0103
0100
0100
,  // measure 81
0100
0000
0001
0100
0001
0100
0000
0000
,  // measure 82
0000
1001
10M0
0000
0100
0000
0010
0000
,  // measure 83
0100
1000
0001
0100
,  // measure 84
0010
1000
0100
0001
,  // measure 85
0100
1000
0010
0100
,  // measure 86
0001
0101
0100
0110
,  // measure 87
0010
1010
1001
1010
,  // measure 88
0000
1000
0010
0001
,  // measure 89
0010
1000
1001
0000
,  // measure 90
0000
0001
0010
0100
,  // measure 91
1000
0010
0100
0001
,  // measure 92
1000
0001
0100
0010
,  // measure 93
1000
0100
0010
0001
,  // measure 94
1000
0001
0100
0010
,  // measure 95
0100
0001
0010
0100
,  // measure 96
0010
0001
0100
0010
,  // measure 97
1000
0001
1001
0000
,  // measure 98
0000
1000
0100
0001
,  // measure 99
0100
0010
0001
0100
,  // measure 100
0010
1010
0000
1001
,  // measure 101
0000
0001
1000
0010
,  // measure 102
0000
0100
1001
0100
,  // measure 103
1010
0100
0011
0100
,  // measure 104
1001
1000
0100
0001
,  // measure 105
0100
1000
0001
1001
,  // measure 106
0000
20M0
0000
0000
,  // measure 107
0000
30M1
0100
1000
,  // measure 108
0100
0001
1000
1001
,  // measure 109
0000
0001
0010
0200
,  // measure 110
0000
1300
0010
0200
,  // measure 111
0000
0302
0000
0000
,  // measure 112
0000
2000
0000
0000
,  // measure 113
3003
0000
1000
0000
0000
1010
0000
0000
,  // measure 114
0001
0000
0000
0011
0000
0000
1000
0000
,  // measure 115
0000
1010
0000
0000
1001
0000
1000
0000
,  // measure 116
0100
0001
0100
0010
,  // measure 117
0001
1001
0000
0110
,  // measure 118
0000
0000
1001
0000
0000
1001
0000
0000
;

//---------------dance-single - ----------------
#NOTEDATA:;
#CHARTNAME:;
#CHARTHASH:519761132;
#STEPSTYPE:dance-single;
#BANNER:;
#DESCRIPTION:;
#CHARTSTYLE:;
#DIFFICULTY:Medium;
#METER:16;
#METERF:16.000000;
#LASTSECONDHINT:127.382004;
#RADARVALUES:0.790661,1.048649,0.315166,0.184488,0.449689,720.000000,679.000000,41.000000,24.000000,7.000000,0.000000,0.000000,0.000000,0.000000,0.790661,1.048649,0.315166,0.184488,0.449689,720.000000,679.000000,41.000000,24.000000,7.000000,0.000000,0.000000,0.000000,0.000000;
#CREDIT:YOSEFU;
#NOTES:
// measure 0
0000
0000
0000
0000
,  // measure 1
0000
0000
0000
0000
,  // measure 2
0000
0000
0000
0000
,  // measure 3
0000
0000
0000
0000
,  // measure 4
0000
0000
0000
0000
,  // measure 5
1000
0000
0001
1000
0000
0001
0010
0000
0001
1000
0000
0001
,  // measure 6
0100
0000
0001
0010
0000
0000
0200
0000
0000
0000
0000
0000
,  // measure 7
1300
0000
0001
1000
0000
0001
0010
0000
0001
0100
0000
0010
,  // measure 8
1000
0000
0001
0010
0000
0100
1000
0000
0002
0000
0000
0000
,  // measure 9
0103
0000
0010
1000
0000
0001
0010
0000
0100
1000
0000
0010
,  // measure 10
0100
0000
0001
0010
0000
0100
1000
0000
0001
0100
0000
0010
,  // measure 11
1000
0000
0001
1000
0000
0001
0010
0000
0100
0000
0000
1000
,  // measure 12
0001
0000
0000
0100
0000
0000
0010
1000
0010
1000
0000
0000
,  // measure 13
0001
0010
0001
1000
0010
0100
0001
1000
,  // measure 14
0100
0000
0020
0000
0100
0000
0000
0031
,  // measure 15
1000
0000
0010
0100
0001
0100
0000
0001
,  // measure 16
0000
0000
0000
0000
0000
0000
1000
0000
0000
0100
0000
0010
,  // measure 17
0001
0011
1001
1010
,  // measure 18
0110
0101
0011
1001
,  // measure 19
1000
0001
1000
0001
0000
0000
1000
0001
1000
0001
0000
0000
,  // measure 20
0000
0000
1000
0000
0010
0000
0100
0000
0001
0000
1000
0000
,  // measure 21
010M
0000
0000
0000
0010
0000
0001
0000
0010
0000
0100
0000
0001
0000
0100
1000
,  // measure 22
0000
0000
0001
0000
0100
0000
0010
0000
0001
0000
0010
0000
1000
0000
0001
0010
,  // measure 23
0000
0100
1000
0100
0001
0100
1000
0010
,  // measure 24
0001
0010
1000
0100
0010
0001
0100
0010
,  // measure 25
1000
0000
0001
0010
0200
0000
0000
0000
0000
0000
1300
0001
0200
0000
0000
0310
,  // measure 26
0000
0000
1000
0000
0100
0000
0000
0001
0000
0000
0100
0000
0010
0000
0000
0001
,  // measure 27
0000
0000
1000
0000
0020
0000
0000
0000
0000
0000
0130
0001
0200
0000
0000
0000
,  // measure 28
0320
0000
1030
0001
1000
0100
0020
0000
,  // measure 29
0000
0000
0000
0000
0031
0000
1000
0000
0010
0000
0100
0001
1000
0000
0100
0000
,  // measure 30
0010
0000
0001
1000
0010
0000
0100
0000
0001
0000
1000
0100
0010
0000
0100
0000
,  // measure 31
1000
0000
0001
0100
0010
0000
1000
0000
0001
0000
0010
0100
1000
0000
0001
0000
,  // measure 32
0100
0000
0010
1000
0001
0000
0010
0000
0100
0000
0010
0001
1000
0000
0000
0010
,  // measure 33
0000
0000
0000
0100
0000
0000
0201
0000
0000
0000
0000
0000
0301
0000
1000
0000
0001
0000
0010
0000
0000
0100
0000
0000
,  // measure 34
1000
0000
0000
0000
2010
0000
0000
0000
3100
0000
0000
0000
1100
0000
0000
1000
,  // measure 35
0000
0001
0102
0000
0000
0000
1003
0000
,  // measure 36
0000
2100
0000
3001
,  // measure 37
0000
0000
0000
0000
,  // measure 38
0000
1000
0001
0000
1000
0000
0100
0000
0010
0001
0010
0000
0100
0000
1000
0000
,  // measure 39
0001
0000
0100
0000
0010
1000
0010
1000
0010
0000
0100
0000
0001
1000
0001
1000
,  // measure 40
0001
0000
0010
0000
0100
0000
0000
1000
0000
0000
0001
0000
0101
0000
0100
0000
,  // measure 41
0010
0000
0100
0000
0001
0000
1000
0000
1001
0000
0001
0000
1000
0100
0000
1000
,  // measure 42
0001
0000
0100
0000
0010
1000
0010
1000
0010
0000
0100
0000
0001
0000
1000
0000
,  // measure 43
0100
0000
0010
0000
0001
0010
0001
0010
0001
0000
1000
0000
0010
0000
0100
0000
,  // measure 44
0010
0000
1000
0000
0001
0000
0010
0000
0100
0000
1000
0000
0001
1000
0001
1000
,  // measure 45
0001
0000
0100
0000
0001
0000
0000
1000
0000
0000
0100
0000
0010
0000
0001
0000
,  // measure 46
1001
0000
0000
0000
1010
0000
1000
0001
0000
0010
0001
0000
1000
0001
0000
1000
,  // measure 47
0100
0000
0000
0000
0000
1000
0000
0001
0010
0000
0001
1000
0000
0100
1000
0000
,  // measure 48
0001
1000
0000
0000
2M01
0000
0000
0000
0001
0000
0000
0000
3001
0000
1000
0001
,  // measure 49
1000
0010
1000
0000
1010
0000
0000
0000
1001
0000
0000
0000
0011
0000
0000
1001
,  // measure 50
0000
0000
0000
1000
001M
0000
0000
0000
0100
0000
0001
0000
0000
0000
1000
0000
,  // measure 51
0000
0001
0000
0010
0100
0010
1000
0000
,  // measure 52
0010
0001
1000
0010
,  // measure 53
0100
0001
1000
0000
0100
0010
0000
0001
,  // measure 54
1000
0010
0000
0100
0001
0100
0010
0100
,  // measure 55
0001
0000
0100
0000
0010
0000
1000
0000
0001
0000
0000
0010
0000
0000
0100
0000
,  // measure 56
1000
0001
0101
0000
0100
0000
0110
0000
,  // measure 57
0010
1010
1001
0011
,  // measure 58
0010
0001
1000
0100
0010
0001
0100
0010
,  // measure 59
1000
0100
0010
0001
0100
0010
1000
0001
,  // measure 60
0010
0100
1000
0000
0010
0000
0200
0000
,  // measure 61
0010
0000
0301
1000
0000
0000
0100
0001
,  // measure 62
0100
1000
0001
0000
0100
0010
0000
1000
,  // measure 63
0000
0001
0000
0010
0001
0000
0000
1000
,  // measure 64
0010
0100
0001
0000
1000
0100
0000
1000
,  // measure 65
0000
0010
0001
0010
0000
1000
0000
0100
,  // measure 66
0000
0000
1100
0000
1000
0001
0100
0010
,  // measure 67
0100
2000
0000
3100
0001
1000
0100
0010
,  // measure 68
0001
1000
2002
0000
0000
0000
0000
0000
,  // measure 69
0000
0000
0000
0000
,  // measure 70
3003
1000
0001
0101
,  // measure 71
0000
0000
0001
0000
0000
1000
0000
0000
0000
0100
0000
0000
,  // measure 72
0010
0001
1000
0010
,  // measure 73
0000
0000
0100
0000
0000
0000
0001
0000
0000
1000
0000
0000
,  // measure 74
0100
0010
0100
0000
,  // measure 75
0000
0000
0000
1000
0000
0000
0100
0000
0000
1000
0000
0001
,  // measure 76
0000
0010
0000
0100
,  // measure 77
1000
0000
0010
0000
0000
0000
0000
0000
0000
0100
0000
0000
,  // measure 78
0000
0001
0000
01M2
0000
0000
0100
0000
0000
0100
0000
0000
,  // measure 79
0100
0000
0000
0000
2003
0000
0000
0000
0100
0000
0000
0000
3100
0000
0100
1000
,  // measure 80
0001
0100
0101
0000
0100
0000
0110
0000
,  // measure 81
0010
0000
0000
0000
1010
0000
1000
0000
0001
1000
0001
1000
0000
0000
0000
0000
,  // measure 82
0000
0000
0000
0100
0000
0000
1001
0000
0000
0000
0000
0000
10M0
0000
0000
0000
0000
0000
0000
0000
0001
0000
0000
0000
0100
0000
0000
0000
0000
0000
0000
0000
0001
0000
0000
0000
1000
0000
0000
0000
0000
0000
0000
0000
0001
0000
0000
0000
,  // measure 83
0100
0000
0000
0001
0000
1000
0100
0000
1000
0001
0000
1000
,  // measure 84
0010
0000
0000
1000
0000
0001
0010
0000
0100
1000
0000
0001
,  // measure 85
0100
0000
0000
0010
0000
1000
0001
0000
0100
0010
0000
1000
,  // measure 86
0001
0000
0000
1000
0000
0000
0000
0001
0000
1000
0000
0000
,  // measure 87
0000
0010
0000
0100
0000
0000
0001
0000
0000
1001
0000
0000
,  // measure 88
1000
0000
0000
0100
0000
0010
0001
0000
1000
0010
0000
0100
,  // measure 89
0001
0000
1000
0100
0000
0000
1001
0000
0000
0000
0000
0000
,  // measure 90
0000
0000
1000
0100
0010
0001
0010
0100
,  // measure 91
1000
0000
0001
0100
0010
1000
0010
0100
,  // measure 92
0001
0000
1000
0001
0010
0100
1000
0100
,  // measure 93
0010
0000
0001
1000
0010
0100
0001
0100
,  // measure 94
0010
1000
0001
0010
0100
1000
0010
0100
,  // measure 95
0001
0000
1000
0100
0010
0001
0100
0010
,  // measure 96
1000
0000
0001
0100
0001
0010
0001
0100
,  // measure 97
0010
1000
0001
0000
1001
0000
0000
0000
,  // measure 98
0000
0000
1000
0010
1000
0010
1000
0001
,  // measure 99
1000
0001
1000
0100
1000
0100
1000
0001
,  // measure 100
1000
0000
0000
0001
0000
0000
1000
0000
0000
0000
0001
0000
0000
0000
1000
0000
0000
0000
0001
0000
0000
0000
0100
0000
,  // measure 101
0000
0000
0000
0000
0001
0000
0000
0000
0000
0000
0000
0000
1000
0000
0000
0000
0000
0000
0010
0000
0000
0000
0000
0000
1000
0000
0000
0000
0000
0000
0000
0000
0000
0000
0000
0000
0001
0000
0000
0000
0000
0000
0000
0000
0000
0010
0000
0000
,  // measure 102
0000
0100
1000
0100
1000
0000
0001
0100
,  // measure 103
0001
0000
1000
0010
1000
0000
0001
0010
,  // measure 104
0001
0000
1000
0010
1000
0010
0100
0001
,  // measure 105
0100
0001
1000
0100
0010
0001
1000
0000
,  // measure 106
0000
00M2
0000
0100
,  // measure 107
0000
0000
10M3
0100
0010
0001
0100
0010
,  // measure 108
1000
0001
0010
0100
1000
0001
0100
0000
,  // measure 109
0000
0000
0010
1000
0000
0020
0000
0000
,  // measure 110
1030
0000
0001
0010
0001
0000
1000
0010
,  // measure 111
1000
2002
0000
0000
,  // measure 112
3003
0000
1000
0100
0010
0001
1000
0010
,  // measure 113
0100
0001
1000
0000
0010
0100
0000
0000
,  // measure 114
0001
0000
0010
0100
0000
0000
1000
0000
,  // measure 115
0001
0100
0000
0000
1001
0000
1000
0100
,  // measure 116
0010
0001
0100
0010
1000
0001
0010
0100
,  // measure 117
1000
0001
0100
0000
0000
0000
1001
0000
,  // measure 118
0000
0000
0110
0000
0010
0100
0000
0000
;

//---------------dance-single - ----------------
#NOTEDATA:;
#CHARTNAME:;
#CHARTHASH:805650403;
#STEPSTYPE:dance-single;
#BANNER:;
#DESCRIPTION:;
#CHARTSTYLE:;
#DIFFICULTY:Hard;
#METER:18;
#METERF:18.000000;
#LASTSECONDHINT:127.382004;
#RADARVALUES:0.979542,1.367803,0.361288,0.184488,0.991621,892.000000,845.000000,47.000000,24.000000,6.000000,0.000000,0.000000,0.000000,0.000000,0.979542,1.367803,0.361288,0.184488,0.991621,892.000000,845.000000,47.000000,24.000000,6.000000,0.000000,0.000000,0.000000,0.000000;
#CREDIT:YOSEFU;
#NOTES:
// measure 0
0000
0000
0000
0000
,  // measure 1
0000
0000
0000
0000
,  // measure 2
0000
0000
0000
0000
,  // measure 3
0000
0000
0000
0000
,  // measure 4
0000
0000
0000
0000
,  // measure 5
1000
0010
1000
0010
0100
0010
0100
0010
0100
0001
0100
0001
,  // measure 6
1000
0001
1000
0001
0000
0000
0010
0000
0000
0000
0000
0000
,  // measure 7
0100
1000
0100
1000
0001
1000
0001
1000
0001
0100
0001
0100
,  // measure 8
0000
0000
0010
1000
0000
0001
1000
0000
0100
0000
0000
0000
,  // measure 9
0010
0001
0010
0001
1000
0001
1000
0001
1000
0010
0000
0000
,  // measure 10
0100
0001
0100
0001
1000
0001
1000
0001
0010
0100
0000
0000
,  // measure 11
1000
0000
0001
0100
0000
0001
1000
0000
0100
0010
0000
0001
,  // measure 12
1000
0000
0000
0010
0000
0000
0100
0001
0100
0001
0000
0000
,  // measure 13
1000
0100
0010
0001
1000
0010
0100
0001
,  // measure 14
1000
0000
0100
0000
0010
0000
0000
0001
,  // measure 15
1000
0000
0010
0100
0001
1000
0000
0100
,  // measure 16
0020
0000
0000
0000
0000
0000
0031
0000
0000
1000
0000
0010
,  // measure 17
1000
1010
1001
0011
,  // measure 18
1001
0000
1000
0010
0000
0000
0110
0000
0100
0001
0000
0000
,  // measure 19
1000
0001
1000
0001
0010
0100
0010
0000
0001
1000
0000
0001
,  // measure 20
0000
0000
0011
0000
1001
0000
1010
0000
1001
0000
0011
0000
,  // measure 21
0M00
0000
0000
0000
1001
0000
1000
0010
0100
0000
0001
1000
0100
0000
0010
0001
,  // measure 22
0000
0000
1000
0000
0010
0000
0010
0000
0100
0001
1000
0001
0100
0000
0001
1000
,  // measure 23
0000
0100
0000
0010
0001
0000
0001
0000
0100
0010
0000
1000
0001
0000
0010
0100
,  // measure 24
1000
0000
0010
0100
0001
0000
0001
0000
1000
0100
0010
0100
1000
0000
1000
0000
,  // measure 25
0001
0010
0100
1000
0100
0000
0010
0000
0011
0000
0000
0000
0000
0000
0001
0000
,  // measure 26
1001
0000
0000
0000
1000
0000
0010
0000
0110
0000
0100
0000
0001
1000
0100
0000
,  // measure 27
0110
0000
0010
0001
1001
0000
1000
0010
,  // measure 28
0110
0000
0000
0000
0100
0000
0001
0000
1000
0000
0001
0000
1000
0100
0010
0100
,  // measure 29
1000
0001
0100
0001
1000
0000
0001
0000
0100
0010
1000
0001
0010
0000
0100
0000
,  // measure 30
1000
0001
0100
0010
1000
0000
0001
0000
0010
0100
0010
0001
1000
0000
0010
0000
,  // measure 31
0100
0001
1000
0100
0010
0000
0100
0000
1000
0001
0100
0010
1000
0000
0100
0000
,  // measure 32
0010
0100
1000
0001
0100
0000
0010
0000
1000
0001
0010
0100
1000
0000
0100
0000
,  // measure 33
0010
0000
0000
0001
0000
0000
0100
0000
0000
0010
0000
0000
2000
0000
0000
0000
0000
0000
0000
0000
0000
0000
0000
0000
3100
0000
0000
0000
0010
0000
0000
0000
0001
0000
0000
0000
1000
0000
0000
0000
0000
0000
0010
0000
0000
0000
0000
0000
,  // measure 34
0100
0000
0000
0000
0101
0000
0000
0000
0001
0000
0000
0000
1000
0000
0000
0100
,  // measure 35
0000
0010
0012
0000
0000
0000
0203
0000
,  // measure 36
0000
0320
0032
0000
0000
0023
2030
0000
,  // measure 37
3000
0000
0000
0000
,  // measure 38
0000
0001
0100
0001
0100
0000
0010
1000
0001
1000
0100
1000
0001
0000
0010
0000
,  // measure 39
0100
0000
1000
0000
0001
0100
0010
0100
0001
1000
0100
0010
0001
1000
0010
0100
,  // measure 40
0010
1000
0001
0010
0100
1000
0001
0100
0000
0000
0001
1000
0100
0010
0001
1000
,  // measure 41
0010
0000
0100
0000
0001
1000
0010
1000
0001
0010
0100
0000
1000
0010
0100
0001
,  // measure 42
1000
0001
0010
0100
1000
0010
0100
0010
1000
0001
0010
0100
1000
0000
0100
0000
,  // measure 43
0001
0000
0100
0000
0010
0001
1000
0010
0100
0001
0010
0100
1000
0000
0010
0000
,  // measure 44
0100
0000
1000
0000
0100
0000
0001
0000
1000
0000
0100
0000
0010
0001
0010
0100
,  // measure 45
1000
0001
0100
0010
1000
0000
0000
0010
0000
0000
0100
0001
1000
0100
0010
0001
,  // measure 46
1000
0000
0001
0000
1000
0100
1000
0001
0100
0001
1000
0100
1000
0001
0100
0001
,  // measure 47
1000
0000
0000
0000
0000
0001
0010
0001
1000
0010
1000
0001
0010
0001
1000
0010
,  // measure 48
1000
0001
0000
0000
2M00
0000
0000
0000
0000
0000
0000
0000
0000
0000
3001
0010
,  // measure 49
0100
1000
0001
1000
0010
0000
0000
0000
0110
0000
0000
0000
0101
0000
0000
1001
,  // measure 50
0000
1100
10M1
0000
1000
0010
0000
0100
,  // measure 51
0000
0101
0000
0001
1000
0100
0001
0000
,  // measure 52
0100
0000
0010
0000
0001
1000
0010
0000
,  // measure 53
0100
0001
1000
0000
0100
0010
0000
0001
,  // measure 54
1000
0000
0010
0000
0000
0000
0100
0001
0100
0000
0001
1000
0001
0000
1000
0100
,  // measure 55
1000
0000
0100
0000
0010
0000
0001
0000
1000
0001
0000
1000
0000
0000
0010
0000
,  // measure 56
0100
0001
1001
0000
1000
0000
1100
0100
,  // measure 57
0010
0001
0011
0000
1001
0000
1010
0000
,  // measure 58
0000
0000
0000
0000
1000
0001
1000
0001
1000
0000
0100
0000
1000
0000
0001
0000
,  // measure 59
0100
0000
0001
0000
1000
0000
0100
0000
1000
0000
0001
0000
1000
0001
1000
0001
,  // measure 60
1000
0100
0010
0000
1000
0010
0001
0000
,  // measure 61
1000
0010
0100
0001
0000
0100
0010
0001
,  // measure 62
0010
1000
0001
0000
0010
0100
0000
1000
,  // measure 63
0000
0001
0000
1000
0010
0000
0100
0001
,  // measure 64
1000
0100
0010
0000
0100
1000
0000
0100
,  // measure 65
0000
0010
0001
1000
0000
1010
0000
1001
,  // measure 66
0000
0000
1001
0001
0010
1000
0010
0001
,  // measure 67
1000
0010
0001
0010
1000
0100
0010
0001
,  // measure 68
1000
0010
1020
0000
0000
0000
0000
0000
,  // measure 69
0000
0000
0000
0000
,  // measure 70
0000
0000
0000
1030
0000
0000
0001
0000
0000
0100
0000
0010
,  // measure 71
0000
0000
1000
0000
0000
0001
0010
0000
0000
0001
0000
0100
,  // measure 72
0000
0000
0010
0200
0000
0000
2300
0000
0000
3100
0000
0010
,  // measure 73
0000
0000
1000
0000
0000
0000
0002
0000
0000
0023
0000
0000
,  // measure 74
0032
0000
0000
0000
0000
0000
1003
0000
0000
0000
0010
0000
0200
0000
0000
0000
0000
0000
0000
0000
0000
0300
0000
0000
,  // measure 75
0000
0000
0001
1000
0000
0000
0100
0000
0000
0010
0000
0001
,  // measure 76
0000
0000
0000
0000
1000
0000
0002
0000
0000
0003
0000
0000
0000
0000
0000
0000
1000
0000
0001
0000
0000
0000
0000
0000
,  // measure 77
0100
0000
0020
0000
0000
0000
0030
0000
0000
2000
0000
0000
,  // measure 78
3000
0002
0000
20M3
0000
0000
0100
0000
0000
0100
0000
0000
,  // measure 79
0100
0000
0100
0000
3002
0000
0000
0000
0100
0000
0000
0000
0100
0000
0103
0010
,  // measure 80
1000
0001
0010
0000
0110
0000
0000
0000
1100
0000
0000
0000
1001
0000
0000
0000
,  // measure 81
0101
0000
0000
0000
0110
0000
1010
0000
1000
0001
1000
0001
1000
0000
0000
0000
,  // measure 82
0000
0000
0000
0100
0000
0000
1001
0000
0000
0000
0000
0000
1000
0000
0000
0000
0100
0000
0000
0000
1000
0000
0000
0000
0100
0000
0000
0000
0010
0000
0000
0000
0001
0000
0000
0000
0010
0000
0000
0000
0001
0000
0000
0000
1000
0000
0000
0000
,  // measure 83
0001
0000
0000
1000
0010
1000
0010
0100
0010
0100
0001
0100
,  // measure 84
0001
0000
0000
1000
0100
0010
0001
0010
0100
1000
0001
0100
,  // measure 85
0010
1000
0010
0100
0001
1000
0100
0010
0001
1000
0010
0100
,  // measure 86
0010
0000
0000
1000
0000
1000
0000
1000
0000
0010
0000
0010
,  // measure 87
0000
0010
0000
0100
0000
0000
0101
0000
0000
0001
1000
0100
,  // measure 88
0010
0001
0010
0100
1000
0001
1000
0010
0100
0001
0100
0010
,  // measure 89
1000
0001
0010
0100
0000
1000
0001
0000
0000
0000
0000
0000
,  // measure 90
0000
0000
1000
0010
0100
0010
1000
0001
,  // measure 91
0010
0100
0010
0001
1000
0100
0010
0100
,  // measure 92
1000
0000
0001
1000
0010
0100
0001
0010
,  // measure 93
0100
1000
0001
0100
0010
1000
0100
0000
,  // measure 94
0010
0001
1000
0001
0010
0100
1000
0100
,  // measure 95
0010
1000
0010
0001
0100
0010
1000
0010
,  // measure 96
0100
0000
0000
1000
0000
0000
0100
0000
0000
0001
0000
0000
1000
0000
0000
0001
0000
0000
1000
0000
0001
0000
1000
0000
,  // measure 97
0001
1000
0001
0010
0000
0000
1001
0000
0000
0000
0000
0000
,  // measure 98
0000
0000
1000
0100
0010
0001
0100
0010
,  // measure 99
1000
0001
0010
0100
1000
0010
0100
0001
,  // measure 100
1000
0000
0000
0100
0000
0000
0010
0000
0000
0000
0001
0000
0000
0000
1000
0000
0000
0000
0010
0000
0000
0000
0100
0000
,  // measure 101
0000
0000
0000
0000
0001
0000
0000
0000
0000
0000
0000
0000
1000
0000
0000
0000
0000
0000
0100
0000
0000
0000
0000
0000
0010
0000
0000
0000
0000
0000
0000
0000
0000
0000
0000
0000
0001
0000
0000
0000
0000
0000
0000
0000
0000
1000
0000
0000
,  // measure 102
0000
0000
0000
0010
0000
0000
0100
0000
0001
0000
0100
0000
0001
0000
0000
0000
0000
0000
1000
0000
0001
0000
1000
0000
,  // measure 103
0001
0000
0000
1000
0100
1000
0100
0000
0000
1000
0001
1000
,  // measure 104
0001
0000
0100
0010
0100
0001
1000
0001
,  // measure 105
0010
0000
0000
0100
0000
0000
1000
0000
0000
0000
0001
0000
1000
0000
0000
0000
0001
0000
1000
0000
0000
0000
0000
0000
,  // measure 106
0000
0000
0000
0000
0000
0000
0M10
0000
0000
1000
0000
0000
0001
0000
0010
0000
0000
0001
0000
0000
0000
1000
0000
0000
,  // measure 107
0010
0100
00M1
1000
0100
0001
0100
0010
,  // measure 108
0001
1000
0010
0100
0001
1000
0100
0000
,  // measure 109
0000
0000
0010
0001
0000
2000
0000
0000
,  // measure 110
3010
0000
0100
0001
1000
0100
0010
0001
,  // measure 111
0010
0100
2000
0000
0001
0000
0001
0000
,  // measure 112
0001
0000
0000
3001
0100
0001
0100
0010
0100
0010
1000
0010
,  // measure 113
1000
0000
0001
0000
1000
0000
0001
0000
0000
0100
0000
0000
0001
0000
0000
0010
0000
0000
0000
0000
0000
0000
0000
0000
,  // measure 114
0100
1000
0100
0010
0000
0000
0001
1000
,  // measure 115
0010
0000
0000
0100
0000
0000
0001
0000
0000
0000
0000
0000
1001
0000
0000
0000
0000
0000
1000
0000
0100
0000
0010
0000
,  // measure 116
0100
1000
0001
0100
0010
0100
0001
1000
0100
0010
0000
0000
,  // measure 117
0011
1001
0000
1010
,  // measure 118
0000
0000
1000
0001
1000
0001
0000
0000
;

//---------------dance-single - ----------------
#NOTEDATA:;
#CHARTNAME:;
#CHARTHASH:1586641915;
#STEPSTYPE:dance-single;
#BANNER:;
#DESCRIPTION:;
#CHARTSTYLE:;
#DIFFICULTY:Challenge;
#METER:19;
#METERF:0.000000;
#LASTSECONDHINT:127.382004;
#RADARVALUES:1.127791,1.504583,0.438158,0.099931,1.418249,1027.000000,970.000000,57.000000,13.000000,7.000000,0.000000,0.000000,0.000000,0.000000,1.127791,1.504583,0.438158,0.099931,1.418249,1027.000000,970.000000,57.000000,13.000000,7.000000,0.000000,0.000000,0.000000,0.000000;
#CREDIT:YOSEFU Brings the Hot Pot;
#NOTES:
0000
0000
0000
0000
,
0000
0000
0000
0000
,
0000
0000
0000
0000
,
0000
0000
0000
0000
,
0000
0000
0000
0000
,
1000
0100
0010
0100
1000
0001
0100
0010
1000
0100
0010
0001
,
1000
0010
0100
0001
0010
0100
1000
0001
0100
0010
1000
0001
,
0010
0100
0010
0001
1000
0010
0100
0000
0001
1000
0100
0010
,
0000
0000
0001
0100
0000
1000
0100
0000
0010
0000
0000
0000
,
1000
0100
0010
0100
1000
0010
0100
0001
0010
0100
0010
0001
,
1000
0010
0100
0001
0010
0100
1000
0001
0100
0010
0100
0001
,
1000
0000
0010
1000
0000
0001
0010
0000
0100
0000
0000
0001
,
0200
0000
0000
1300
0000
0000
0001
0100
0010
0100
0001
1000
,
0100
0010
0001
0100
0010
1000
0001
0010
,
2000
0000
0000
3010
0000
0000
0001
0100
0010
1000
0001
0010
,
0100
0000
0010
0001
0100
0010
1000
0001
,
0010
0000
0000
0000
0000
0000
0110
0000
0000
1000
0000
0001
,
1000
1100
0011
0101
,
1010
0000
0001
1000
0000
0000
0110
0000
0001
2000
0000
0000
,
3001
0010
0100
1000
0001
0100
0010
0100
0001
1000
0100
0010
,
0000
0000
0011
0000
0110
0000
1001
0000
1010
0000
0101
0000
,
00M1
0000
0000
0000
1000
0001
0100
0010
1000
0000
0001
0010
0100
0010
0001
0100
,
0000
0000
0010
0000
1000
0000
0001
0100
0010
1000
0001
0010
0100
0010
0001
0100
,
0000
0001
1000
0001
0010
0100
1000
0010
0100
0001
1000
0100
1000
0001
0100
0010
,
1000
0000
0001
0010
0100
0000
1000
0010
0100
0001
0010
0100
1000
0000
0001
0100
,
0010
1000
0001
0010
1000
0000
0010
0000
0110
0000
0100
1000
0001
0000
1000
0000
,
0100
0000
0010
0000
0001
0000
0001
0000
1001
0000
1000
0000
0100
0010
0100
1000
,
0001
0000
0000
0000
0100
0000
0010
0000
1001
0000
0000
1000
0010
0000
0100
0000
,
1001
0000
0000
0000
0001
0000
0010
0000
0100
0000
0010
0000
0001
0100
0010
1000
,
0001
0010
0100
1000
0001
0100
0010
0100
0001
1000
0100
0010
0100
1000
0001
0100
,
0010
1000
0100
0010
0001
1000
0001
0100
0010
0100
1000
0100
0010
0100
0001
1000
,
0100
0010
0100
1000
0001
0100
0010
1000
0100
0010
0001
0010
0100
1000
0001
0100
,
0010
1000
0001
0010
1000
0000
0010
0000
0001
1000
0010
0100
0001
1000
0100
0001
,
0000
0000
0000
0100
0000
0000
1000
0000
0000
0000
0000
0000
1001
0000
0000
0000
0000
0000
0000
0000
0000
0000
0000
0000
0001
0000
0000
0000
0010
0000
0000
0000
0100
0000
0000
0000
1000
0000
0000
0000
0000
0000
0001
0000
0000
0000
0000
0000
,
1001
0000
0000
0000
0012
0000
0000
0000
0103
0000
0000
0000
0010
0000
0000
1000
,
0000
0001
0102
0000
0000
0000
0023
0000
,
0030
0100
0002
0000
0000
0103
2000
0000
,
0000
3000
0000
0000
,
0000
0010
0100
0010
0001
0000
0010
0100
0001
1000
0010
0100
0001
0000
0010
0000
,
0100
0000
1000
0000
0100
0001
0100
0010
0001
1000
0010
0100
0001
0010
0100
1000
,
0001
0100
0010
1000
0001
0010
0100
1000
0001
0100
0010
0100
0001
1000
0001
0100
,
1000
0000
0100
0000
0010
1000
0001
0010
0001
1000
0010
0100
0001
0010
0100
1000
,
0001
0100
0010
1000
0001
0010
0100
0010
0001
1000
0010
0100
0001
0010
0100
1000
,
0001
0100
0010
0100
0001
1000
0100
0010
0001
0100
0010
1000
0001
0010
0100
0010
,
0001
1000
0010
0100
0001
0000
0100
0000
0010
0000
1000
0000
0001
0100
0010
1000
,
0001
0010
0100
1000
0001
0000
0000
0100
0001
0000
1000
0100
0010
0100
1000
0001
,
0100
0010
1000
0001
1000
0100
0010
0001
0100
0010
1000
0100
0010
0001
0100
0010
,
1000
0000
0000
0000
0000
0001
0010
0100
1000
0010
0100
0001
0010
0100
1000
0010
,
0100
0001
0010
0100
200M
0000
0000
0000
0100
0000
0000
0000
0010
0000
3001
0010
,
0001
0100
0010
1000
1001
0000
0000
0000
0011
0000
0000
0000
0110
0000
0000
1100
,
0000
1001
11M0
0000
1000
0001
0000
0101
,
0000
1001
0000
1000
0001
0100
1000
0000
,
0100
0110
0101
1001
,
1000
0000
0010
0000
0100
0000
0001
0000
0010
0000
1000
0000
0000
0000
0010
0100
,
1000
0000
0001
0000
0100
0000
0001
1000
0100
0000
1000
0001
0100
0000
0001
1000
,
0100
0000
0010
0000
0001
0000
1000
0000
0010
0100
0000
0001
1000
0000
0100
0000
,
0010
0100
1100
0000
0110
0000
0011
0001
,
1000
0000
0010
0000
0110
0000
0000
0000
0101
0000
0000
0000
1010
0000
0010
1000
,
0001
0000
0010
0000
0001
1000
0001
1000
0001
0000
0010
0000
0100
0000
1000
0000
,
0010
0000
0100
0000
0001
0000
1000
0000
0100
0000
0010
0000
0001
0100
0001
0100
,
0010
1000
0010
1000
0001
0000
0010
0000
1000
0000
0000
0000
1010
0000
0000
0000
,
0010
0001
1000
0010
0000
0100
0010
1000
,
0100
0010
0011
0001
1000
0010
0000
0110
,
0000
0101
0000
0100
0001
0000
1000
0100
,
0010
0001
1000
0010
0100
0001
0000
0011
,
0000
0010
0001
1001
0000
0101
0000
1010
,
0000
0000
0000
0000
1001
0000
1000
0001
0100
0000
0001
1000
0100
0000
0010
0001
,
1000
0000
0010
1000
0001
0000
0010
0100
1000
0000
0001
0100
0010
1000
0010
1000
,
0001
0010
0001
0010
0200
0000
0000
0000
0000
0000
0000
0000
0000
0000
0000
0000
,
0000
0000
0000
0000
,
0000
0000
0000
1300
0000
0000
0001
0000
0000
1000
0000
0010
,
0000
0000
1000
0001
0000
0010
0100
0000
0000
1000
0000
0000
,
0001
0000
1000
0010
0000
0000
0001
0000
0000
0010
0000
0100
,
0000
0000
0001
0000
0000
1000
0100
0000
0000
0010
0000
0000
,
0001
0000
0000
0100
0000
0010
1000
0000
0000
0001
0000
0010
,
0000
0000
0100
1000
0000
0000
0001
0000
0000
0100
0000
0010
,
1000
0000
0100
0010
0000
0000
0001
0000
1000
0001
0000
0010
,
0000
0000
0000
0000
0001
0000
1000
0000
0000
0000
1000
0000
0000
0000
1000
0000
0000
0000
0010
0000
0000
0000
0010
1000
,
0001
0010
0100
200M
0000
0000
0100
0000
0000
0100
0000
0000
,
0100
0000
0100
0000
3002
0000
0000
0000
0100
0000
0000
0000
0103
0000
0001
0100
,
0001
1000
0100
0010
0011
0000
0000
0000
1001
0000
0000
0000
1010
0000
0000
0000
,
1001
0000
0000
0000
0011
0000
1100
0000
1000
0010
0100
0001
1000
0000
0000
0000
,
0000
0000
0000
0100
0000
0000
1001
0000
0000
0000
0000
0000
10M0
0000
0000
0000
0100
0000
0000
0000
0010
0000
0000
0000
0001
0000
0000
0000
0100
0000
0000
0000
0010
0000
0000
0000
1000
0000
0000
0000
0001
0000
0000
0000
0010
0000
0000
0000
,
0100
0010
0001
1000
0010
0100
0001
1000
0100
0010
0100
1000
,
0010
0100
0001
0010
0100
1000
0001
0010
0100
0001
0100
0010
,
0001
1000
0001
0100
0010
0100
1000
0100
0010
0100
0001
1000
,
0100
0000
0000
0010
0001
1000
0000
0010
0000
1000
0010
0100
,
0001
1000
0100
0010
0000
0100
0001
0000
0000
0100
0010
0001
,
1000
0010
0100
0001
1000
0100
0010
0001
0100
1000
0100
0010
,
1000
0100
0010
0001
0000
0000
1010
0000
0000
0000
0000
0000
,
0000
0000
1000
0010
0100
0001
0010
0100
,
1000
0000
0000
0001
0000
0000
0100
0000
0000
0010
0000
0000
1000
0000
0000
0000
0100
0000
0000
0000
1000
0000
0010
0000
,
0001
0000
0000
0000
0010
0000
1000
0000
0000
0001
0000
0000
0100
0000
0000
0010
0000
0000
1000
0000
0000
0100
0000
0000
,
0010
0000
0000
0001
0000
0000
1000
0000
0000
0000
0010
0000
0100
0000
0000
0000
0001
0000
0100
0000
0000
0000
0000
0000
,
1000
0100
0001
1000
0100
0010
0001
0100
,
0010
0001
0010
1000
0100
0010
0001
0100
,
0010
0000
0000
0001
0000
0000
0010
0000
0000
1000
0000
0000
0001
0000
0000
0010
0000
0000
0100
0000
1000
0000
0010
0000
,
0100
0001
1000
0010
0000
0000
1001
0000
0000
0000
0000
0000
,
0000
0000
1000
0100
0001
0100
0010
0001
,
0100
1000
0100
0001
1000
0100
0001
1000
,
0010
0000
0000
0001
0000
0000
1000
0000
0000
0000
1000
0000
0000
0000
1000
0000
0000
0000
0001
0000
0000
0000
0001
0000
,
0000
0000
0000
0000
0001
0000
0000
0000
0000
0000
0000
0000
0100
0000
0000
0000
0000
0000
0010
0000
0000
0000
0000
0000
1000
0000
0000
0000
0000
0000
0000
0000
0000
0000
0000
0000
0001
0000
0000
0000
0000
0000
0000
0000
0000
0010
0000
0000
,
0000
0000
0000
0100
0000
0000
1000
0000
0100
0000
1000
0000
0010
0000
0000
0000
0000
0000
0100
0000
0001
0000
0100
0000
,
0010
0000
0000
1000
0001
1000
0100
0000
0000
0010
0001
1000
,
0010
0000
0000
0000
0000
0000
0000
0000
0000
0000
0000
0000
1000
0000
0000
0010
0000
0000
1000
0000
0000
0000
0000
0000
0001
0000
0000
0000
0000
0000
0010
0000
0000
0000
0000
0000
0100
0000
0000
0000
1000
0000
0000
0000
0010
0000
0000
0000
,
0100
0001
1000
0100
0000
0100
0010
0000
0010
0001
0000
0000
,
0000
0000
0000
0000
0000
0000
1M00
0000
0000
0001
0000
0100
0001
0000
1000
0000
0000
0100
0010
0000
0000
0001
0000
1000
,
0010
0000
0000
0100
0000
0001
1M00
0000
0010
0000
0100
0000
0001
0000
0010
0000
0100
0000
1000
0000
0001
0000
0100
0000
,
0010
0000
0100
0000
0001
0000
1000
0000
0000
0001
0000
0000
1000
0000
0000
0100
0000
0000
0010
0000
0000
0000
0000
0000
,
0000
0000
0001
1000
0010
0200
0000
0000
,
0301
0000
1000
0100
0010
0100
1000
0010
,
0100
0001
1000
0000
0100
0000
0010
0000
,
0001
0000
0000
1000
0100
1000
0010
1000
0001
1000
0001
0100
,
0001
0000
0010
0000
0100
0000
1000
0000
0000
0001
0000
0000
0100
0000
0000
0010
0000
0000
0000
0000
0000
0000
0000
0000
,
1000
0100
0010
0001
0000
0000
0100
0000
,
0101
0000
0001
1000
0000
0000
1001
0000
0000
0001
0100
0010
,
1000
0100
0010
0001
1000
0010
0100
0001
0010
0100
1000
0001
,
0100
0010
0100
0001
0000
0000
0000
0000
0000
1001
0000
0000
,
0000
0000
1000
0100
0010
0001
0000
0000
;

//---------------dance-single - ----------------
#NOTEDATA:;
#CHARTNAME:(slight smile emoji);
#CHARTHASH:2147483647;
#STEPSTYPE:dance-single;
#BANNER:;
#DESCRIPTION:;
#CHARTSTYLE:;
#DIFFICULTY:Edit;
#METER:20;
#METERF:20.000000;
#LASTSECONDHINT:127.382004;
#RADARVALUES:1.169520,1.422140,0.422784,0.099931,1.679606,1065.000000,1010.000000,55.000000,13.000000,10.000000,0.000000,0.000000,0.000000,0.000000,1.169520,1.422140,0.422784,0.099931,1.679606,1065.000000,1010.000000,55.000000,13.000000,10.000000,0.000000,0.000000,0.000000,0.000000;
#CREDIT:Yosefu feat.TRUE BPM;
#OFFSET:0.000000;
#BPMS:0.000000=264.000000
,84.000000=200.000000
,133.000000=100.000000
,137.000000=95.000000
,139.000000=90.000000
,141.000000=174.000000
,185.000000=116.000000
,193.000000=232.000000
,268.500000=215.000000
,270.000000=202.800003
,273.000000=91.000000
,289.000000=136.500000
,305.000000=273.000000
,337.000000=285.000000
,369.000000=300.000000
,401.000000=75.000000
,403.000000=300.000000
;
#STOPS:;
#DELAYS:;
#WARPS:;
#TIMESIGNATURES:0.000000=4=4
,84.000000=1=4
,85.000000=4=4
,401.000000=2=4
,403.000000=4=4
;
#TICKCOUNTS:0.000000=4
;
#COMBOS:0.000000=1
;
#SPEEDS:0.000000=1.000000=0.000000=0
;
#SCROLLS:0.000000=1.000000
;
#FAKES:;
#LABELS:0.000000=Song Start
;
#NOTES:
0000
0000
0000
0000
,
0000
0000
0000
0000
,
0000
0000
0000
0000
,
0000
0000
0000
0000
,
0000
0000
0000
0000
,
1000
0100
0010
0100
1000
0001
0100
0010
1000
0100
0010
0001
,
1000
0010
0100
0001
0010
0100
1000
0001
0100
0010
1000
0001
,
0010
0100
0010
0001
1000
0010
0100
0000
0001
1000
0100
0010
,
0000
0000
0001
0100
0000
1000
0100
0000
0010
0000
0000
0000
,
1000
0100
0010
0100
1000
0010
0100
0001
0010
0100
0010
0001
,
1000
0010
0100
0001
0010
0100
1000
0001
0100
0010
0100
0001
,
1000
0000
0010
1000
0000
0001
0010
0000
0100
0000
0000
0001
,
0200
0000
0000
1300
0000
0000
0001
0100
0010
0100
0001
1000
,
0100
0010
0001
0100
0010
1000
0001
0010
,
2000
0000
0000
3010
0000
0000
0001
0100
0010
1000
0001
0010
,
0100
0000
0010
0001
0100
0010
1000
0001
,
0010
0000
0000
0000
0000
0000
0110
0000
0000
1000
0000
0001
,
1000
1100
0011
0101
,
1010
0000
0001
1000
0000
0000
0110
0000
0001
2000
0000
0000
,
3001
0010
0100
1000
0001
0100
0010
0100
0001
1000
0100
0010
,
0000
0000
0011
0000
0110
0000
1001
0000
1010
0000
0101
0000
,
00M1
0000
0000
0000
1000
0001
0100
0010
1000
0000
0001
0010
0100
0010
0001
0100
,
0000
0000
0010
0000
1000
0000
0001
0100
0010
1000
0001
0010
0100
0010
0001
0100
,
0000
0001
1000
0001
0010
0100
1000
0010
0100
0001
1000
0100
1000
0001
0100
0010
,
1000
0000
0001
0010
0100
0000
1000
0010
0100
0001
0010
0100
1000
0000
0001
0100
,
0010
1000
0001
0010
1000
0000
0010
0000
0110
0000
0100
1000
0001
0000
1000
0000
,
0100
0000
0010
0000
0001
0000
0001
0000
1001
0000
1000
0000
0100
0010
0100
1000
,
0001
0000
0000
0000
0100
0000
0010
0000
1001
0000
0000
1000
0010
0000
0100
0000
,
1001
0000
0000
0000
0001
0000
0010
0000
0100
0000
0010
0000
0001
0100
0010
1000
,
0001
0010
0100
1000
0001
0100
0010
0100
0001
1000
0100
0010
0100
1000
0001
0100
,
0010
1000
0100
0010
0001
1000
0001
0100
0010
0100
1000
0100
0010
0100
0001
1000
,
0100
0010
0100
1000
0001
0100
0010
1000
0100
0010
0001
0010
0100
1000
0001
0100
,
0010
1000
0001
0010
1000
0000
0010
0000
0001
1000
0010
0100
0001
1000
0100
0001
,
0000
0000
0000
0100
0000
0000
1000
0000
0000
0000
0000
0000
10M1
0000
0000
0000
0000
0000
0001
0000
0010
0000
0100
0000
1000
0000
0000
0001
0000
0000
1001
0000
0000
0000
0000
0000
0012
0000
0000
0000
0000
0000
0103
0000
0000
0000
0000
0000
,
0010
0000
0000
1000
0000
0000
0001
0000
0102
0000
0000
0000
0000
0000
0000
0000
0023
0000
0000
0000
0030
0000
0100
0000
0002
0000
0000
0000
0000
0000
0103
0000
,
2000
30M0
0000
0000
,
0000
0010
0100
0010
0001
0000
0010
0100
0001
1000
0010
0100
0001
0000
0010
0000
,
0100
0000
1000
0000
0100
0001
0100
0010
0001
1000
0010
0100
0001
0010
0100
1000
,
0001
0100
0010
1000
0001
0010
0100
1000
0001
0100
0010
0100
0001
1000
0001
0100
,
1000
0000
0100
0000
0010
1000
0001
0010
0001
1000
0010
0100
0001
0010
0100
1000
,
0001
0100
0010
1000
0001
0010
0100
0010
0001
1000
0010
0100
0001
0010
0100
1000
,
0001
0100
0010
0100
0001
1000
0100
0010
0001
0100
0010
1000
0001
0010
0100
0010
,
0001
1000
0010
0100
0001
0000
0100
0000
0010
0000
1000
0000
0001
0100
0010
1000
,
0001
0010
0100
1000
0001
0000
0000
0100
0001
0000
1000
0100
0010
0100
1000
0001
,
0100
0010
1000
0001
1000
0100
0010
0001
0100
0010
1000
0100
0010
0001
0100
0010
,
1000
0000
0000
0000
0000
0001
0010
0100
1000
0010
0100
0001
0010
0100
1000
0010
,
0100
0001
0010
0100
200M
0000
0000
0000
0100
0000
0000
0000
0010
0000
3001
0010
,
0001
0100
0010
1000
1001
0000
0000
0000
0011
0000
0000
0000
0110
0000
0000
1100
,
0000
1001
11M0
0000
1000
0001
0000
0101
,
0000
1001
0000
1000
0001
0100
1000
0000
,
0100
0110
0101
1001
,
1000
0000
0010
0000
0100
0000
0001
0000
0010
0000
1000
0000
0000
0000
0010
0100
,
1000
0000
0001
0000
0100
0000
0001
1000
0100
0000
1000
0001
0100
0000
0001
1000
,
0100
0000
0010
0000
0001
0000
1000
0000
0010
0100
0000
0001
1000
0000
0100
0000
,
0010
0100
1100
0000
0110
0000
0011
0001
,
1000
0000
0010
0000
0110
0000
0000
0000
0101
0000
0000
0000
1010
0000
0010
1000
,
0001
0000
0010
0000
0001
1000
0001
1000
0001
0000
0010
0000
0100
0000
1000
0000
,
0010
0000
0100
0000
0001
0000
1000
0000
0100
0000
0010
0000
0001
0100
0001
0100
,
0010
1000
0010
1000
0001
0000
0010
0000
1000
0000
0000
0000
1010
0000
0000
0000
,
0010
0001
1000
0010
0000
0100
0010
1000
,
0100
0010
0011
0001
1000
0010
0000
0110
,
0000
0101
0000
0100
0001
0000
1000
0100
,
0010
0001
1000
0010
0100
0001
0000
0011
,
0000
0010
0001
1001
0000
0101
0000
1010
,
0010
0000
1000
0000
0001
0010
0100
1000
0001
0100
0010
0100
0001
1000
0100
0010
,
0001
0100
0010
1000
0001
0010
0100
0010
0001
1000
0010
0100
0010
1000
0001
0010
,
0100
1000
0001
1000
0200
0000
0000
0000
0000
0000
0000
0000
0000
0000
0000
0000
,
0000
0000
0000
0000
,
0000
0000
0000
0000
0000
0000
13M0
0000
0000
0001
0000
0000
1000
0000
0010
0000
0000
1000
0001
0000
0010
0100
0000
0000
,
1000
0000
0000
0001
0000
1000
0010
0000
0000
0001
0000
0000
0010
0000
0100
0000
0000
0001
0000
0000
1000
0100
0000
0000
,
0010
0000
0000
0001
0000
0000
0100
0000
0010
1000
0000
0000
0001
0000
0010
0000
0000
0100
1000
0000
0000
0001
0000
0000
,
0100
0000
0010
1000
0000
0100
0010
0000
0000
0001
0000
1000
0001
0000
0010
0000
0000
0001
1000
0000
1000
0000
1000
0000
,
0010
0000
0000
0000
0010
1000
0001
0000
0010
0000
0100
0000
200M
0000
0000
0000
0000
0000
0000
0000
0000
0000
0000
0000
0100
0000
0000
0000
0000
0000
0000
0000
0000
0000
0000
0000
0100
0000
0000
0000
0000
0000
0000
0000
0000
0000
0000
0000
,
0100
0000
0100
0000
3002
0000
0000
0000
0100
0000
0000
0000
0103
0000
0001
0100
,
0001
0000
1000
0000
0100
0000
0010
0001
1000
0000
0000
0000
0000
0000
0000
0000
1001
0000
0000
0000
0000
0000
0000
0000
1010
0000
0000
0000
0000
0000
0000
0000
,
1001
0000
0000
0000
0011
0000
1100
0000
1000
0010
0100
0001
1000
0000
0000
0000
,
0000
0000
0000
0100
0000
0000
1001
0000
0000
0000
0000
0000
10M0
0000
0000
0000
0100
0000
0000
0000
0010
0000
0000
0000
0001
0000
0000
0000
0100
0000
0000
0000
0010
0000
0000
0000
1000
0000
0000
0000
0001
0000
0000
0000
0010
0000
0000
0000
,
0100
0010
0001
1000
0010
0100
0001
1000
0100
0010
0100
1000
,
0010
0100
0001
0010
0100
1000
0001
0010
0100
0001
0100
0010
,
0001
1000
0001
0100
0010
0100
1000
0100
0010
0100
0001
1000
,
0100
0000
0000
0010
0001
1000
0000
0010
0000
1000
0010
0100
,
0001
1000
0100
0010
0000
0100
0001
0000
0000
0100
0010
0001
,
1000
0010
0100
0001
1000
0100
0010
0001
0100
1000
0100
0010
,
1000
0100
0010
0001
0000
0000
1010
0000
0000
0000
0000
0000
,
0000
0000
0000
1000
0100
0010
0100
1000
0001
0100
0010
1000
,
0001
0010
0100
0010
0001
0100
0001
0000
0100
0000
0001
0010
,
1000
0000
0010
0001
1000
0010
0100
0001
1000
0100
0010
0001
,
0100
0010
1000
0001
0000
0100
0010
0000
1000
0010
0000
0000
,
0001
0000
0000
0010
0000
0000
1000
0000
0001
0000
0010
0000
0100
0000
0010
0000
0001
0000
1000
0000
0010
0000
0100
0000
,
0010
1000
0001
0010
0100
1000
0001
0100
0010
1000
0001
0010
,
0100
1000
0010
0100
0001
1000
0100
0010
0100
1000
0010
0100
,
0001
1000
0100
0010
0000
0000
1001
0000
0000
0000
0000
0000
,
0000
0000
0000
1000
0100
0010
0001
0100
0010
1000
0001
0010
,
0100
1000
0010
0100
0001
1000
0100
0010
0001
1000
0010
0100
,
0010
1000
0001
1000
0000
1000
0000
1000
0000
0001
0000
0001
,
0000
0000
0000
0000
0001
0000
0000
0000
0000
0000
0000
0000
0100
0000
0000
0000
0000
0000
0010
0000
0000
0000
0000
0000
1000
0000
0000
0000
0000
0000
0000
0000
0000
0000
0000
0000
0001
0000
0000
0000
0000
0000
0000
0000
0000
0010
0000
0000
,
0000
0000
0000
0100
0000
0000
1000
0000
0100
0000
1000
0000
0010
0000
0000
0000
0000
0000
0100
0000
0001
0000
0100
0000
,
0010
0000
0000
1000
0001
1000
0100
0000
0000
0010
0001
1000
,
0010
0000
0000
0000
1000
0010
1000
0000
0001
0000
0010
0000
0100
1000
0100
0010
,
0001
0000
0000
1000
0000
0000
0001
0000
0000
1000
0000
0000
0100
0000
0000
0000
0000
0000
0000
0000
0100
0000
0000
0000
0010
0000
0000
0000
0000
0000
0000
0000
0010
0000
0000
0000
0001
0000
0000
0000
0000
0000
0000
0000
0000
0000
0000
0000
,
0000
0000
0000
0000
0000
0000
0000
0000
0000
0000
0000
0000
1M00
0000
0000
0001
0000
0100
0001
0000
1000
0000
0000
0100
0010
0000
0000
0001
0000
1000
0010
0000
0000
0100
0000
0001
1M00
0000
0000
0000
0010
0000
0000
0000
0100
0000
0000
0000
,
0001
0000
0000
0000
0010
0000
0000
0000
0100
0000
0000
0000
1000
0000
0000
0001
0000
0000
0010
0000
0000
0100
0000
0000
1000
0000
0000
0001
0000
0000
0100
0000
0000
0010
0000
0000
1000
0000
0000
0000
0000
0000
0001
0000
0000
0000
0000
0000
,
1000
0100
0010
0000
0000
0000
0001
1000
,
0010
0200
0000
0000
0301
0000
1000
0100
,
0010
0100
1000
0010
0100
0001
1000
0000
,
0100
0000
0000
0010
0000
0000
0001
0000
0000
1000
0100
1000
,
0010
0000
1000
0000
0001
0000
1000
0000
0001
0000
0100
0000
0001
0000
0010
0000
0100
0000
1000
0000
0000
0001
0000
0000
,
0100
0010
0000
0000
1000
0100
0010
0001
,
0000
0000
0000
0100
0000
0000
0101
0000
0001
1000
0000
0000
,
1001
0000
0000
0001
0100
0010
1000
0100
0010
0001
1000
0010
,
0100
0001
0010
0100
1000
0001
0100
0010
0100
0001
0000
0000
,
0000
0000
1001
0000
0000
0000
1000
0100
,
0010
0001
0000
0000
0000
0000
0000
0000
;
