#TITLE:Xroniàl Xéro;
#SUBTITLE:;
#ARTIST:かめりあ as "menaXe inXonnu";
#TITLETRANSLIT:;
#SUBTITLETRANSLIT:;
#ARTISTTRANSLIT:Camellia as "menaXe inXonnu";
#GENRE:Speedcore;
#CREDIT:;
#BANNER:Xronial Xero.png;
#BACKGROUND:Xronial Xero-bg.png;
#LYRICSPATH:;
#CDTITLE:../_YSD cdtitles/ysd sum mem cdtitle.png;
#MUSIC:Xronial Xero.ogg;
#OFFSET:0.000000;
#SAMPLESTART:93.145218;
#SAMPLELENGTH:25.074631;
#SELECTABLE:YES;
#DISPLAYBPM:167.500000:335.000000;
#BPMS:0.000000=335.000000
,100.000000=167.500000
,104.000000=335.000000
,184.000000=670.000000
,185.000000=335.000000
,224.000000=167.500000
,228.000000=335.000000
,368.000000=167.500000
,396.000000=335.000000
,458.000000=167.500000
,459.000000=335.000000
,465.000000=167.500000
,466.000000=335.000000
,474.000000=167.500000
,478.000000=335.000000
,651.000000=670.000000
,652.000000=335.000000
,678.000000=670.000000
,679.000000=335.000000
,679.500000=167.500000
,680.000000=335.000000
;
#STOPS:184.000000=0.089554,
651.000000=0.089554,
667.937500=0.179100,
675.000000=0.179092,
676.000000=0.179108,
677.000000=0.179108
;
#BGCHANGES:;
#KEYSOUNDS:;
#ATTACKS:;

//---------------dance-single - ----------------
#NOTES:
     dance-single:
     :
     Beginner:
     11:
     0.472631,0.775095,0.087240,0.496598,0.000000,493.000000,480.000000,13.000000,74.000000,0.000000,0.000000,0.472631,0.775095,0.087240,0.496598,0.000000,493.000000,480.000000,13.000000,74.000000,0.000000,0.000000:
// measure 0
0000
0000
0000
0000
,  // measure 1
0000
0000
0000
0000
,  // measure 2
0000
0000
0000
0000
,  // measure 3
0000
0000
0000
0000
,  // measure 4
0000
0000
0000
0000
,  // measure 5
0000
0000
0000
0000
,  // measure 6
0000
0000
0000
0000
,  // measure 7
0000
0000
0000
0000
,  // measure 8
2002
0000
0000
0000
,  // measure 9
0000
0000
0000
0000
,  // measure 10
0000
0000
3003
0000
,  // measure 11
1000
0000
0100
0000
,  // measure 12
1000
0000
0001
0000
,  // measure 13
0100
0000
0001
0000
,  // measure 14
1000
0000
0100
0000
,  // measure 15
0010
0000
0100
0000
,  // measure 16
1000
0000
0001
0000
,  // measure 17
0100
0000
0010
0000
,  // measure 18
1000
0000
0001
0000
,  // measure 19
0010
0000
0010
0000
,  // measure 20
0100
0000
0100
0000
,  // measure 21
1000
0000
1000
0000
,  // measure 22
0001
0000
0001
0000
,  // measure 23
0100
0010
0100
0010
,  // measure 24
1000
0001
1000
0001
,  // measure 25
2000
3020
0000
0030
,  // measure 26
1000
0001
0010
0000
,  // measure 27
0100
0000
0000
1000
0000
0000
0001
0000
,  // measure 28
0100
0010
1000
0000
,  // measure 29
0001
0000
0000
0010
0000
0000
0100
0000
,  // measure 30
0010
0000
0000
0001
0000
0000
1000
0000
,  // measure 31
0010
0000
0000
0100
0000
0000
0001
0000
,  // measure 32
0010
0100
1000
0000
,  // measure 33
0010
0001
0010
1000
,  // measure 34
0001
0010
0100
0000
,  // measure 35
1000
0000
0000
0001
0000
0000
0100
0000
,  // measure 36
0010
1000
0001
0000
,  // measure 37
0010
0000
0000
0100
0000
0000
0010
0000
,  // measure 38
0001
1000
0010
0000
,  // measure 39
0100
0001
1000
0000
,  // measure 40
0000
0100
0000
0000
0100
0000
0000
1000
,  // measure 41
0000
0000
1000
0000
0000
0001
0000
0000
,  // measure 42
0001
0100
0010
1000
,  // measure 43
0000
0001
0010
0100
,  // measure 44
0000
1000
0001
0100
,  // measure 45
0000
0001
1000
0100
,  // measure 46
0000
0010
0001
1000
,  // measure 47
0000
0010
0100
0001
,  // measure 48
0000
0010
0100
1000
,  // measure 49
0000
0001
0200
0000
,  // measure 50
0301
1000
0001
0000
,  // measure 51
1000
0100
1000
0000
,  // measure 52
0001
0100
0001
0000
,  // measure 53
1000
0010
1000
0000
,  // measure 54
0001
0010
0100
1000
,  // measure 55
0001
0100
0010
2000
,  // measure 56
0000
0000
0000
3000
,  // measure 57
0001
0100
0001
0100
,  // measure 58
0010
1000
0001
0000
,  // measure 59
1000
0100
1000
0100
,  // measure 60
0010
0001
1000
0000
,  // measure 61
0001
0100
0001
1000
,  // measure 62
0001
0010
0001
0000
,  // measure 63
1000
0100
1000
0001
,  // measure 64
1000
0010
1000
0000
,  // measure 65
0001
0010
0100
1000
,  // measure 66
0010
0100
0001
0000
,  // measure 67
1000
0100
0010
0001
,  // measure 68
0100
0010
1000
0000
,  // measure 69
0010
1000
0100
0010
,  // measure 70
0001
1000
0010
0000
,  // measure 71
0100
0000
0000
0100
0000
0000
0001
0000
,  // measure 72
0000
0001
0000
0000
2000
0000
0000
0000
,  // measure 73
3200
0000
0000
0310
0000
0010
0000
0001
,  // measure 74
0000
0001
0000
1000
0000
1000
0000
0010
,  // measure 75
0000
0100
0000
0001
0000
0010
0000
0100
,  // measure 76
0000
1000
0000
0010
0000
0100
0000
0001
,  // measure 77
0000
0000
0000
1000
0000
1000
0000
0100
,  // measure 78
0000
0100
0000
0010
0000
0010
0000
0000
,  // measure 79
0002
0000
0000
0000
,  // measure 80
0000
0000
1003
0000
,  // measure 81
2020
0000
3030
0000
,  // measure 82
2020
0000
3030
0000
,  // measure 83
2002
0000
3003
0000
,  // measure 84
2002
0000
3003
0000
,  // measure 85
0022
0000
0033
0000
,  // measure 86
0022
0000
0033
0000
,  // measure 87
2002
0000
3003
0000
,  // measure 88
2002
0000
3003
0000
,  // measure 89
0002
0000
0000
0000
,  // measure 90
0000
0000
0203
0000
,  // measure 91
0000
0000
0000
0000
,  // measure 92
0320
0000
0000
0000
,  // measure 93
2030
0000
0000
3200
0000
0000
0320
0000
,  // measure 94
0230
0000
0000
0000
,  // measure 95
2300
0000
0000
3002
0000
0000
0203
0000
,  // measure 96
0320
0000
0000
0000
,  // measure 97
2030
0000
3002
0000
,  // measure 98
0023
0000
0000
0000
,  // measure 99
0031
0000
0000
0001
0000
0000
1000
0000
,  // measure 100
0000
1000
0000
0000
0020
0000
0000
0000
,  // measure 101
0230
0000
0000
0302
,  // measure 102
2003
0000
0000
0000
,  // measure 103
0000
0000
3200
0000
,  // measure 104
0320
0000
0032
0000
,  // measure 105
2003
0000
0000
3020
,  // measure 106
0230
0000
0000
0000
,  // measure 107
0000
0000
0302
0000
,  // measure 108
0023
0000
0032
0000
,  // measure 109
2003
0000
0000
3200
,  // measure 110
0320
0000
0000
0000
,  // measure 111
0000
0000
0230
0000
,  // measure 112
2300
0000
0000
0000
,  // measure 113
3001
0100
0001
0100
,  // measure 114
0010
1000
0002
1003
,  // measure 115
0100
1000
0100
0010
,  // measure 116
0001
0000
2000
3000
0001
0000
0010
0000
,  // measure 117
0100
1000
0001
0100
,  // measure 118
0010
1000
0200
0320
,  // measure 119
0000
0030
0001
0100
,  // measure 120
0001
0100
0010
1000
,  // measure 121
0010
1000
0001
0010
,  // measure 122
0001
0010
0100
1000
,  // measure 123
0100
1000
0001
1000
,  // measure 124
0001
1000
0010
0100
,  // measure 125
0010
0100
0001
1000
,  // measure 126
0001
1000
0100
0010
,  // measure 127
0100
0010
0001
1000
,  // measure 128
0100
0010
0001
0000
,  // measure 129
1000
0000
0001
0100
,  // measure 130
0010
1000
0001
0000
,  // measure 131
1000
0000
0001
0010
,  // measure 132
0100
1000
0001
0000
,  // measure 133
1000
0000
0000
0000
0010
0000
0000
0010
,  // measure 134
0000
0000
0100
0000
0000
0100
0000
0000
,  // measure 135
0002
0000
1003
0100
,  // measure 136
0010
0001
0010
0100
,  // measure 137
1000
0001
0100
0010
,  // measure 138
1000
0100
0010
0001
,  // measure 139
1000
0010
0100
0001
,  // measure 140
0010
0100
1000
0001
,  // measure 141
0100
0001
1000
0100
,  // measure 142
1000
0001
0100
0010
,  // measure 143
1000
0100
0010
0001
,  // measure 144
1000
0010
0100
0000
,  // measure 145
0001
0000
0010
0100
,  // measure 146
1000
0001
0100
0000
,  // measure 147
0010
0000
1000
0001
,  // measure 148
0010
0001
1000
0010
,  // measure 149
1000
0000
0001
0000
0010
0000
0000
0010
,  // measure 150
0000
0000
0100
0000
0000
0100
0000
0000
,  // measure 151
0000
0000
1000
0000
0000
1000
0000
0000
,  // measure 152
0001
0000
0000
0001
0000
0000
0000
0000
,  // measure 153
0200
0000
0000
0000
,  // measure 154
0000
0000
0300
0000
,  // measure 155
0020
0000
0000
0000
,  // measure 156
0000
0000
0000
0000
,  // measure 157
2030
3000
0002
0003
,  // measure 158
2000
3000
0200
0300
,  // measure 159
0020
0000
0000
0000
,  // measure 160
0000
0000
0000
0000
,  // measure 161
0031
1000
0001
1000
,  // measure 162
0010
0100
0020
0030
,  // measure 163
0100
0001
0100
0001
,  // measure 164
1000
0100
1000
0100
,  // measure 165
0010
0001
0010
0001
,  // measure 166
1000
0010
0100
0001
,  // measure 167
1000
0100
0010
0001
,  // measure 168
0010
0100
1000
0001
,  // measure 169
0101
1001
1002
0000
,  // measure 170
1003
0100
0010
0100
,  // measure 171
1000
0010
1000
0001
,  // measure 172
0100
0001
0010
0100
,  // measure 173
1000
0001
0100
0001
,  // measure 174
0010
0100
1000
0010
,  // measure 175
0100
0001
1000
0100
,  // measure 176
0000
0010
0000
0000
0010
0000
0000
0001
,  // measure 177
0000
0000
0001
0000
0000
1000
0000
0000
,  // measure 178
0010
0000
0000
0010
0000
0000
0100
0000
,  // measure 179
0000
0100
0000
0000
0000
0000
0001
0000
,  // measure 180
0000
0001
0000
0000
1000
0000
0000
1000
,  // measure 181
0000
0000
0000
0000
0100
0000
0000
0100
,  // measure 182
0000
0000
0010
0000
0000
0010
0000
0000
,  // measure 183
0000
0000
0100
0000
0000
0100
0000
0000
,  // measure 184
1000
0000
0000
1000
0000
0000
0001
0000
,  // measure 185
0000
0001
0000
0000
0000
0100
0000
0100
,  // measure 186
0000
0020
0000
0000
,  // measure 187
0000
0000
0030
2002
,  // measure 188
0000
0000
0000
0000
,  // measure 189
0000
0000
0000
0000
,  // measure 190
0000
0000
0000
0000
,  // measure 191
0000
0000
0000
0000
,  // measure 192
0000
0000
3003
0000
;

//---------------dance-single - ----------------
#NOTES:
     dance-single:
     :
     Easy:
     14:
     0.626978,0.775095,0.429490,0.724764,0.000000,654.000000,590.000000,64.000000,108.000000,0.000000,0.000000,0.626978,0.775095,0.429490,0.724764,0.000000,654.000000,590.000000,64.000000,108.000000,0.000000,0.000000:
0000
0000
0000
0000
,
0000
0000
0000
0000
,
0000
0000
0000
0000
,
0000
0000
0000
0000
,
0000
0000
0000
0000
,
0000
0000
0000
0000
,
0000
0000
0000
0000
,
0000
0000
0000
0000
,
2002
0000
0000
0000
,
0000
0000
0000
0000
,
0000
0000
3003
0000
,
1000
0100
1000
0001
,
0100
0001
1000
0000
,
0001
0010
0001
1000
,
0010
1000
0001
0000
,
1000
0100
0010
0001
,
0010
0100
1000
0000
,
0001
0100
0010
1000
,
0010
0100
0001
0000
,
1000
0100
0001
0100
,
1000
0001
0100
0000
,
0001
0010
1000
0010
,
0001
1000
0010
0000
,
1000
0010
0100
0001
,
1000
0000
0100
0000
0010
0001
0010
0001
,
2000
3020
0230
0000
0000
0000
0301
0000
,
1000
0000
0100
0000
0010
0001
0000
1000
,
0001
0000
0100
0001
0000
0000
1000
0000
,
0100
0000
0010
0000
0001
1000
0000
0001
,
0100
0000
0001
1000
0000
0000
0100
0000
,
0010
0000
0100
0000
1000
0001
0000
0100
,
0001
0000
1000
0100
0000
0000
0010
0000
,
1000
0000
0010
0000
0001
1000
0000
0000
,
0010
0100
0001
0000
2000
0000
3200
0000
,
0310
0000
0001
0000
1000
0010
0000
0100
,
0001
0000
1000
0100
0000
0000
0010
0000
,
0100
0000
1000
0000
0001
0100
0000
0010
,
1000
0000
0001
0010
0000
0000
0100
0000
,
1000
0000
0001
0000
0100
0010
0000
0000
,
1000
0000
0100
0000
0010
0001
0000
0000
,
0000
0011
0000
0000
0011
0000
0000
1001
,
0000
0000
1001
0000
0000
1010
0000
0000
,
1000
0001
0010
0001
,
1000
0010
0100
0000
,
0001
0010
0100
1000
,
0001
0100
0010
1000
,
0000
0100
0010
0001
,
1000
0010
0100
0000
,
0001
0010
0100
0010
,
0001
1000
0020
0000
,
0130
0001
0100
0001
,
1000
0100
1000
0100
,
0010
0001
0010
0001
,
1000
0010
1000
0010
,
0100
1000
0100
0001
,
1000
0000
0010
0000
1000
0001
1000
0002
,
0000
0000
0000
0003
,
0100
0001
1000
0001
,
0010
0000
0100
0000
1000
0100
1000
0000
,
0100
0010
0001
1000
,
0010
0000
0100
0000
0010
1000
0010
0000
,
0100
0001
0010
0100
,
1000
0000
0001
0000
0100
0010
0100
0000
,
0001
1000
0001
0100
,
0001
0000
1000
0000
0001
1000
0001
1000
,
0100
0010
0001
0100
,
0010
0000
1000
0000
0001
1000
0001
0000
,
1000
0100
0010
0100
,
1000
0000
0001
0000
0100
0010
0100
0000
,
0001
0010
0100
1000
,
0001
0100
0010
1000
,
1010
0000
0000
1010
0000
0000
1001
0000
,
0000
1001
0000
0000
0011
0000
0000
0000
,
0002
0000
0000
0103
0000
0100
0000
0010
,
0000
0010
0000
1000
0000
1000
0000
0001
,
0010
0001
0000
0001
0000
1000
0000
1000
,
0000
0100
0000
0100
0000
0010
0000
0010
,
0002
0000
0000
1003
0000
1000
0000
0010
,
0000
0010
0000
0100
0000
0100
0000
0001
,
1000
0001
1000
0000
0001
0000
1000
0000
,
0010
0100
0010
0000
0100
0000
0000
0000
,
0202
0000
0303
0000
,
2002
0000
3003
0000
,
2200
0000
3300
0000
,
0220
0000
0330
0000
,
0022
0000
0033
0000
,
2002
0000
3003
0000
,
2020
0000
3030
0000
,
2002
0000
3003
0000
,
2000
0000
0000
0000
,
0000
0000
3200
0000
,
0000
0000
0000
0000
,
0320
0000
0000
0000
,
0032
0000
0000
2003
0000
0000
3020
0000
,
0230
0000
0000
0000
,
0302
0000
0000
0023
0000
0000
0230
0000
,
0302
0000
0000
0000
,
0203
0000
2300
0000
,
3002
0000
0000
0003
,
0101
0000
0000
0101
0000
0000
1001
0000
,
0000
1001
0000
0000
2000
0000
0000
0000
,
3100
0000
0010
0000
0001
0000
0010
0100
,
1000
0001
0100
0000
,
0010
1000
0001
0010
,
0100
1000
0001
0000
,
0100
0000
0010
0000
1000
0000
0001
0010
,
0100
1000
0001
0000
,
0100
0010
1000
0001
,
0010
0100
1000
0000
,
0001
0000
0100
0000
0010
0000
1000
0001
,
0010
0100
1000
0000
,
0001
0100
0001
0010
,
0100
1000
0001
0000
,
1000
0010
0001
0010
,
0100
0001
2000
3001
,
0010
1000
0010
0100
,
1000
0000
0002
0003
1000
0000
0100
0000
,
0001
0100
1000
0001
,
0100
0001
0100
0001
2000
3002
0023
0000
,
0000
0000
0130
0000
1000
0000
0000
0010
,
0000
0100
0000
0001
0000
0000
1000
0000
,
0100
0000
0010
0000
0100
0000
0000
1000
,
0000
0001
0000
0100
0000
0010
0000
0000
,
1000
0000
0001
0000
0010
0000
0000
0100
,
0000
1000
0000
0001
0000
0000
0100
0000
,
0010
0000
1000
0000
0010
0000
0000
0100
,
0000
0001
0000
1000
0000
0000
0100
0000
,
0010
0000
0001
0000
0100
0000
0000
0010
,
0000
0100
0000
1000
0000
0100
0000
0000
,
0001
0000
0000
0000
1000
0000
0000
0100
,
0000
0010
0000
1000
0000
0010
0000
0000
,
0001
0000
1000
0000
0010
0000
0000
0100
,
0000
1000
0000
0100
0000
0001
0000
0000
,
1000
0000
0100
0000
0110
0000
0000
0110
,
0000
0000
0011
0000
0000
0011
0000
0000
,
0002
0000
1003
0010
,
0100
0001
0010
0100
,
1000
0010
1000
0001
,
0010
0100
0010
0001
,
1000
0010
0001
0010
,
0100
0001
0010
0100
,
1000
0000
0001
0000
0100
0000
0000
0010
,
0000
0010
0000
0010
0000
0010
0000
0000
,
1000
0000
0001
0000
0010
0000
0000
0100
,
0000
0001
0000
0100
0000
1000
0000
0000
,
0001
0000
0100
0000
0010
0000
0000
0001
,
0000
0010
0000
1000
0000
0000
0001
0000
,
0020
0230
1300
0010
,
0001
0010
1000
0100
,
0001
0000
0100
0000
1100
0000
0000
1100
,
0000
0000
1001
0000
0000
1001
0000
0000
,
0000
0000
0101
0000
0000
0101
0000
0000
,
0110
0000
0000
0110
0000
0000
0000
0000
,
2000
0000
0000
0000
,
0000
0000
3000
0000
,
0002
0000
0000
0000
,
0000
0000
0000
0000
,
2003
3020
2030
3020
,
0230
0000
0000
0302
0000
0000
2003
0000
,
3200
0000
0000
0000
,
0000
0000
0000
0000
,
0310
1000
0010
0001
,
1000
0001
1000
0001
0200
0000
0300
0000
,
0020
2030
3002
0023
,
2030
3020
0230
2300
,
3020
0032
0023
0230
,
0302
0023
0230
2300
,
3002
0203
2300
3200
,
0320
2030
3200
0310
,
0011
1001
2010
0000
,
3002
0203
0320
0032
,
0023
2030
3200
0320
,
2030
3020
0032
0203
,
0320
2030
3200
0320
,
0032
0203
2300
3200
,
0310
0000
0000
1000
0000
0000
0001
0000
,
0000
0011
0000
0000
0011
0000
0000
1001
,
0000
0000
1001
0000
0000
1010
0000
0000
,
1001
0000
0000
1001
0000
0000
0011
0000
,
0000
0011
0000
0000
0000
0000
1001
0000
,
0000
1001
0000
0000
1010
0000
0000
1010
,
0000
0000
0000
0000
0110
0000
0000
0110
,
0000
0000
0101
0000
0000
0101
0000
0000
,
0000
0000
1001
0000
0000
1001
0000
0000
,
1100
0000
0000
1100
0000
0000
0110
0000
,
0000
0110
0000
0000
0011
0000
0000
0011
,
0000
0002
0000
0000
,
0000
0000
0003
2002
,
0000
0000
0000
0000
,
0000
0000
0000
0000
,
0000
0000
0000
0000
,
0000
0000
0000
0000
,
0000
0000
3003
0000
;

//---------------dance-single - ----------------
#NOTES:
     dance-single:
     :
     Medium:
     16:
     0.778450,1.098051,0.187902,0.429490,0.006711,812.000000,784.000000,28.000000,64.000000,0.000000,0.000000,0.778450,1.098051,0.187902,0.429490,0.006711,812.000000,784.000000,28.000000,64.000000,0.000000,0.000000:
0000
0000
0000
0000
,
0000
0000
0000
0000
,
0000
0000
0000
0000
,
0000
0000
0000
0000
,
0000
0000
0000
0000
,
0000
0000
0000
0000
,
0000
0000
0000
0000
,
0000
0000
0000
0000
,
2002
0000
0000
0000
,
0000
0000
0000
0000
,
0000
0000
3003
0000
,
1000
0100
1000
0100
,
0010
0001
0010
0001
,
1000
0010
1000
0010
,
0100
0001
0100
0001
,
1000
0100
0010
0001
,
0010
0100
1000
0001
,
0100
0010
1000
0010
,
0100
0001
1000
0100
,
0010
0001
0010
0001
1000
0010
1000
0010
,
0100
0001
1000
0100
,
1000
0001
1000
0001
0100
0010
0100
0010
,
1000
0001
0010
0100
,
1000
0010
1000
0010
0100
0001
0100
0001
,
1000
0100
1000
0100
0010
0001
0010
0001
,
2000
3020
0230
0000
0000
0000
0301
0000
,
1000
0001
1000
0001
1000
0001
0000
1000
,
0001
0000
1000
0100
0000
1000
0010
0000
,
0100
0001
1000
0001
1000
0001
0000
0010
,
0100
0000
1000
0001
0000
0100
0001
0000
,
1000
0010
0100
0010
0100
0010
0000
1000
,
0001
0000
0010
0100
0000
1000
0010
0000
,
0001
0010
0100
0010
0100
0010
0000
0000
,
0001
0010
0100
0010
2000
0000
3002
0000
,
0013
0100
1000
0100
0010
0001
0000
1000
,
0010
0000
0100
0010
0000
1000
0100
0000
,
0010
0001
1000
0010
0100
0001
0000
1000
,
0100
0000
0010
0001
0000
0100
0010
0000
,
1000
0001
0100
0001
0010
0100
1000
0000
,
0001
1000
0010
1000
0100
0010
0001
0000
,
0000
0101
0000
0000
0101
0000
0000
1001
,
0000
0000
1001
0000
0000
1100
0000
0000
,
1000
0100
1000
0100
,
0010
0001
0010
0001
,
1000
0010
1000
0010
,
0100
0001
0100
0001
,
0000
1000
0100
0010
,
0001
0010
0100
1000
,
0001
0100
0010
1000
,
0100
0010
0002
0000
,
0103
1000
0100
0001
,
0010
0100
1000
0001
,
0010
1000
0010
0001
,
1000
0010
0001
0010
,
1000
0001
1000
0001
0010
0100
0010
0100
,
1000
0001
1000
0001
0100
0010
0100
0020
,
0000
0000
0000
0030
,
0100
0001
1000
0000
0100
1000
0000
0001
,
0000
0001
0100
0000
0010
0000
1000
0000
,
0100
0010
0001
0000
1000
0010
0000
0100
,
0000
0100
0001
0000
1000
0100
0010
0001
,
0100
0001
1000
0000
0100
1000
0000
0010
,
0000
0010
0100
0000
0001
0000
1000
0000
,
0100
0010
0000
0010
0000
0010
0000
0010
,
0000
0010
0001
0000
0100
0010
1000
0100
,
0010
0001
0100
0000
0010
1000
0000
0100
,
0000
0100
0010
0000
0001
0000
1000
0000
,
0010
1000
0001
0000
0100
0010
0000
1000
,
0000
1000
0100
0000
0010
0001
0100
0010
,
1000
0001
0010
0000
0001
0100
0000
0010
,
0000
0010
1000
0000
0100
0000
0010
0000
,
0011
0000
0000
1001
0000
0000
1010
0000
,
0000
0110
0000
0000
0101
0000
0000
0000
,
0002
0000
1003
0100
0000
0001
0000
0100
,
0000
1000
0000
0010
0000
0001
0000
0010
,
0100
0001
0000
0010
0000
1000
0000
0010
,
0000
0001
0000
1000
0000
0010
0000
0100
,
0002
0000
0013
0100
0000
0001
0000
0100
,
0000
1000
0000
0010
0000
0001
0000
0010
,
1000
0010
0100
0001
0010
0100
1000
0001
,
0100
0010
1000
0100
0010
0000
0000
0000
,
0022
0000
0033
0000
,
2002
0000
3003
0000
,
2020
0000
3030
0000
,
0220
0000
0330
0000
,
0202
0000
0303
0000
,
0022
0000
0033
0000
,
0220
0000
0330
0000
,
2200
0000
3300
0000
,
2000
0000
0000
0000
,
0000
0000
3002
0000
,
0000
0000
0000
0000
,
0203
0000
0000
0000
,
0320
0000
0000
2030
0000
0000
3002
0000
,
0023
0000
0000
0000
,
0230
0000
0000
2300
0000
0000
3020
0000
,
0032
0000
0000
0000
,
0023
0000
2030
0000
,
3002
0000
0000
0000
,
1003
0010
0000
1000
0001
0000
1000
0010
,
0000
1000
0001
0000
2000
0000
0000
0000
,
3100
0000
0010
0000
0001
0000
1000
0010
,
0100
0001
0010
0100
,
1000
0001
0100
0010
,
0001
0010
1000
0100
,
0010
0000
0001
0000
1000
0000
0001
1000
,
0010
0100
0001
0010
,
0100
1000
0010
1000
,
0100
0000
0010
0000
0001
1000
0001
1000
,
0010
0000
0100
0000
0001
0000
0010
0100
,
1000
0001
0100
1000
,
0100
0010
1000
0100
,
0010
0001
0100
0010
,
1000
0001
1000
0001
1000
0001
1000
0000
,
0010
0100
0010
0100
0020
0000
1030
0001
,
1000
0001
1000
0001
1000
0000
0100
0010
,
0100
0010
0200
0000
1000
0001
1000
0001
,
1000
0001
1000
0000
0010
0100
0010
0100
,
0010
0100
0010
0000
2000
3002
0023
0000
,
0000
0000
0130
0000
1000
0000
0001
0010
,
0000
0001
0000
0100
0000
0010
1000
0000
,
0001
0000
0010
0000
0100
0000
0010
0001
,
0000
0100
0000
1000
0000
0100
0010
1000
,
0000
0001
0010
0100
1000
0000
0001
0100
,
0000
0010
0000
0100
0000
0001
1000
0000
,
0100
0010
0100
1000
0010
0000
0100
0001
,
0000
1000
0000
0100
0000
0100
0010
0000
,
1000
0000
0010
0001
1000
0000
0010
0100
,
0000
0010
0000
0001
0000
0010
1000
0000
,
0001
0010
0001
1000
0010
0000
1000
0100
,
0000
0010
0000
1000
0000
0010
0001
0000
,
1000
0100
1000
0001
0100
0000
0010
1000
,
0000
0100
0000
0010
0000
0001
0100
0000
,
0010
0000
1000
0000
0001
0010
0000
0001
,
1000
0000
0001
0010
0000
0001
1000
0000
,
0020
0000
0000
0000
0130
0000
0001
1000
,
0000
0100
0000
0010
0000
0100
1000
0000
,
0001
0000
0100
0000
0010
0000
1000
0001
,
0000
0010
0000
1000
0000
0010
0100
1000
,
0000
0001
0100
0010
1000
0000
0010
0100
,
0000
1000
0000
0100
0000
0010
1000
0001
,
0010
0000
0100
1000
0001
0100
0000
0100
,
0000
0100
0000
0100
0000
0100
0010
0000
,
1000
0100
0010
0001
0100
0000
0010
1000
,
0000
0100
0000
0001
0000
0100
0010
0000
,
0001
1000
0010
0100
0001
0000
1000
0100
,
0000
0010
0000
1000
0000
0010
0001
0000
,
2000
0000
3020
0000
0130
0001
1000
0000
,
0100
1000
0001
0000
0010
0001
1000
0000
,
0010
1000
0001
0000
0010
0100
0000
0010
,
0001
0000
1000
0001
0000
1000
0010
0000
,
0000
0000
0100
0001
0000
0100
0010
0000
,
1000
0010
0000
1000
0001
0000
0000
0000
,
0020
0000
0000
0000
,
0000
0000
0030
0000
,
0200
0000
0000
0000
,
0000
0000
0000
0000
,
2300
3002
2003
3002
,
0203
0000
0000
0320
0000
0000
2030
0000
,
3200
0000
0000
0000
,
0000
0000
0000
0000
,
0310
0001
0010
0001
1000
0010
1000
0010
,
0100
0001
0100
0001
2000
0000
3000
0000
,
0001
0000
0100
1000
0000
0100
0000
0001
,
1000
0100
0010
0001
0000
1000
0010
0000
,
1000
0000
0100
0001
0000
0100
0000
1000
,
0010
0000
0001
0000
0000
0010
0000
0000
0100
0000
0000
0000
0001
0000
0000
0000
,
1000
0000
0010
0000
1000
0100
0000
0000
,
1000
0010
0001
0010
0100
0000
0001
0000
,
0101
1010
1002
0000
,
0013
0000
0100
1000
0000
0001
0000
0100
,
0010
1000
0001
0010
0000
0000
1000
0010
,
0001
1000
0010
0001
0000
0010
0100
1000
,
0100
0000
0000
0001
0000
0000
1000
0000
0100
0000
0000
0000
0010
0000
0000
0000
,
0001
0000
1000
0100
0000
1000
0000
0010
,
1000
0100
0010
0001
0000
1000
0010
0000
,
0000
0101
0000
0000
1001
0000
0000
1100
,
0000
0000
0011
0000
0000
1001
0000
0000
,
1000
0010
0000
1000
0001
0000
1000
0010
,
0000
1000
0001
0000
0000
0000
1000
0100
,
0000
1000
0001
0000
1000
0100
0000
1000
,
0001
0000
0000
0000
0010
0100
0000
0010
,
0001
0000
0010
0100
0000
0010
0001
0000
,
0000
0000
1000
0010
0000
0100
0001
0000
,
0010
0100
0000
1000
0001
0000
0100
0010
,
0000
1000
0100
0000
0010
0001
0000
1000
,
0010
0200
0000
0000
,
0000
0000
0300
2002
,
0000
0000
0000
0000
,
0000
0000
0000
0000
,
0000
0000
0000
0000
,
0000
0000
0000
0000
,
0000
0000
3003
0000
;

//---------------dance-single - ----------------
#NOTES:
     dance-single:
     :
     Hard:
     18:
     0.930881,1.098051,0.154348,0.456333,0.000000,971.000000,948.000000,23.000000,68.000000,0.000000,0.000000,0.930881,1.098051,0.154348,0.456333,0.000000,971.000000,948.000000,23.000000,68.000000,0.000000,0.000000:
0000
0000
0000
0000
,
0000
0000
0000
0000
,
0000
0000
0000
0000
,
0000
0000
0000
0000
,
0000
0000
0000
0000
,
0000
0000
0000
0000
,
0000
0000
0000
0000
,
0000
0000
0000
0000
,
2002
0000
0000
0000
,
0000
0000
0000
0000
,
0000
0000
3003
0000
,
1000
0010
0100
0010
,
1000
0001
0010
0001
,
1000
0100
0010
0001
,
1000
0010
0100
0010
,
1000
0000
0001
0000
0100
0000
0001
1000
,
0010
0100
0001
0010
,
0100
1000
0001
0000
0100
0010
1000
0000
,
0001
0000
1000
0010
0000
1000
0001
0010
,
0100
1000
0100
1000
0001
0100
0001
0100
,
0010
1000
0010
1000
0001
0010
0001
0010
,
0100
1000
0100
1000
0010
0100
0010
0100
,
0001
0010
0001
0010
0001
0100
0001
0100
,
0010
1000
0001
0010
0100
1000
0010
1000
,
0100
0010
0001
0100
0010
1000
0001
0010
,
0200
2300
3002
0000
0000
0000
0103
0000
,
0001
1000
0010
1000
0001
0010
0001
1000
,
0010
1000
0001
0010
0100
1000
0001
0100
,
0001
0100
0010
1000
0001
0010
0001
1000
,
0010
1000
0001
0100
0010
1000
0001
0010
,
0001
0100
0010
1000
0001
0010
0001
1000
,
0010
0100
0001
1000
0100
0010
0001
0100
,
0001
0010
0100
0010
0001
1000
0010
0100
,
1000
0100
0010
1000
0001
0010
0100
1000
,
0001
0100
0010
1000
0001
1000
0100
0010
,
0001
1000
0010
1000
0001
0100
0010
1000
,
0001
0100
0001
0010
0100
1000
0001
0100
,
0010
1000
0100
0010
0001
1000
0010
0100
,
0001
1000
0001
0100
0010
1000
0100
0010
,
0001
1000
0010
0100
0001
0010
0100
1000
,
0000
1100
0000
0000
1001
0000
0000
0101
,
0000
0000
0110
0000
0000
1010
0000
0000
,
1000
0001
0010
0001
,
1000
0100
0010
0100
,
1000
0001
0100
0010
,
1000
0100
0010
0001
,
0000
1000
0001
0100
,
0010
1000
0100
0010
,
0001
1000
0010
0100
,
0001
0010
0200
0000
,
1300
0001
0100
1000
,
0100
0010
1000
0001
,
0010
0100
0001
0100
,
1000
0001
0100
0010
,
1000
0100
0010
0001
1000
0001
0100
0010
,
1000
0001
0010
0100
1000
0001
0100
0020
,
0000
0000
0000
0030
,
1000
0010
1000
0001
0010
0001
0000
1000
,
0000
1000
0010
0000
0100
0001
1000
0000
,
0100
0010
0100
0010
0001
1000
0000
0010
,
0000
0010
0100
0000
1000
0100
0010
1000
,
0001
0010
0001
1000
0010
1000
0000
0100
,
0000
0100
0010
0000
0001
1000
0010
0000
,
0100
0001
1000
0100
0000
0100
0000
0100
,
0000
0100
0010
0000
0100
0010
1000
0010
,
0001
1000
0010
1000
0100
0010
0000
0001
,
0000
0001
1000
0000
0010
0100
0001
0000
,
1000
0001
0010
0001
0100
0010
0000
1000
,
0000
1000
0100
0000
0001
0100
0010
0001
,
1000
0001
0010
0001
0100
0010
0000
1000
,
0000
1000
0001
0000
0010
0100
1000
0000
,
0001
0100
0000
0001
1000
0000
0001
0010
,
0000
0001
1000
0000
0020
0000
0000
0000
,
2030
0000
3001
0010
0100
0010
0001
1000
,
0010
1000
0001
0010
0100
0010
0001
1000
,
0010
0001
0010
1000
0010
0001
0010
1000
,
0010
0001
0010
1000
0010
0001
0010
1000
,
0020
0000
1030
0001
0010
0001
1000
0100
,
0010
0100
1000
0001
0100
0001
1000
0100
,
0010
1000
0010
0001
0010
1000
0010
0001
,
0010
1000
0010
0001
0010
0000
0000
0000
,
0220
0000
0330
0000
,
2200
0000
3300
0000
,
2002
0000
3003
0000
,
0202
0000
0303
0000
,
0220
0000
0330
0000
,
2020
0000
3030
0000
,
2002
0000
3003
0000
,
0022
0000
0033
0000
,
0002
0000
0000
0000
,
0000
0000
2003
0000
,
0000
0000
0000
0000
,
3020
0000
0000
0000
,
0230
0000
0000
0302
0000
0000
2003
0000
,
3200
0000
0000
0000
,
0320
0000
0000
2030
0000
0000
3020
0000
,
0032
0000
0000
0000
,
2003
0000
3020
0000
,
0230
0000
0000
0000
,
0301
1000
0000
0010
1000
0000
0100
1000
,
0000
0001
0100
0000
0020
0000
0000
0000
,
1030
0001
0010
0001
,
1000
0010
1000
0001
,
0100
0001
0010
0100
,
1000
0100
0010
1000
,
0010
0001
1000
0010
,
0100
1000
0100
0001
,
0010
0100
1000
0001
,
0100
0000
0010
0000
1000
0001
1000
0001
,
0010
0100
1000
0100
,
0001
0100
0010
0001
,
0100
0010
1000
0001
,
0010
0100
1000
0010
,
0100
0001
1000
0100
0010
0001
0010
0100
,
1000
0001
0100
0010
2000
0000
3001
0010
,
0100
1000
0010
1000
0001
0010
0100
1000
,
0001
0100
0020
2030
3001
0010
0100
0001
,
0100
0010
0001
1000
0010
0100
0001
0010
,
0100
1000
0001
0100
0020
2030
3200
0000
,
0000
0000
0310
0000
0001
1000
0010
1000
,
0001
0010
0100
1000
0001
1000
0010
0100
,
0001
1000
0100
1000
0001
0100
0001
1000
,
0100
0010
0001
0100
0001
1000
0100
0010
,
0100
1000
0001
0100
0010
1000
0001
0010
,
0100
1000
0010
1000
0001
0010
0001
1000
,
0010
1000
0010
0100
0001
1000
0100
1000
,
0001
0010
0100
1000
0001
1000
0010
1000
,
0100
0010
0001
1000
0010
0000
1000
0010
,
0000
0100
0000
1000
0000
0100
0001
0000
,
2000
3200
0320
0032
1003
0000
0001
0010
,
0000
0100
0000
0001
0000
0100
1000
0000
,
0002
0203
0320
2030
3001
0000
1000
0010
,
0000
0100
0000
1000
0000
0100
0001
0000
,
1000
0100
0010
0001
1000
0010
0000
0100
,
0001
0000
0010
0100
0000
1000
0010
0000
,
0100
0001
0100
0001
0100
0000
0010
1000
,
0000
0001
0000
0010
0000
0100
0010
0000
,
0001
1000
0010
0100
0001
0000
1000
0100
,
0000
1000
0000
0010
0000
0100
0001
0010
,
0100
1000
0010
0100
0001
0000
0010
0001
,
0000
0100
0000
0010
0000
1000
0001
0010
,
0001
1000
0010
0100
0001
0010
0000
0010
,
0000
0010
0000
0010
0000
0010
1000
0010
,
0001
1000
0010
0100
0001
0000
1000
0100
,
0000
0001
0000
0100
0000
1000
0001
0000
,
0200
0320
2030
3002
0013
0000
0001
0010
,
0000
1000
0000
0001
0000
0100
1000
0000
,
0002
0000
0203
0000
0310
0001
0010
1000
,
0001
0010
1000
0010
0001
1000
0010
0100
,
0001
0010
0100
1000
0001
0010
0000
1000
,
0010
0000
0001
0100
0000
1000
0100
0000
,
0000
0000
0001
0100
0000
1000
0100
0000
,
0001
0010
0000
1000
0010
0000
0000
0000
,
0002
0000
0000
0000
,
0000
0000
0003
0000
,
1000
0010
0100
0001
1000
0100
0010
0001
,
1000
0010
0100
0001
1000
0100
0010
0001
,
1000
0010
0100
0001
0000
0010
0100
1000
,
0000
0001
0100
0010
0000
1000
0100
0010
,
0002
0000
0000
0000
,
0000
0000
0000
0000
,
1003
0100
0001
0100
1000
0010
0001
0010
,
1000
0100
0010
0001
0200
0000
0300
0000
,
0001
0010
0100
1000
0010
1000
0001
0100
,
1000
0100
0010
1000
0100
0010
1000
0010
,
0001
1000
0010
0001
0010
0100
0001
1000
,
0100
0010
0001
0100
0001
1000
0100
0010
,
0001
1000
0010
0001
0010
0100
0001
0010
,
0100
1000
0010
0100
1000
0100
0001
0000
,
0101
1010
1002
0000
,
1003
0100
0010
1000
0010
0001
1000
0010
,
0001
0010
0100
0001
0010
0100
0001
0100
,
1000
0001
0100
1000
0100
0010
1000
0100
,
0001
1000
0010
0001
1000
0010
0001
0010
,
0100
0001
1000
0100
0010
0001
0100
0010
,
0001
0010
1000
0100
0010
0001
1000
0010
,
0000
0110
0000
0000
0101
0000
0000
1001
,
0000
0000
1100
0000
0000
1010
0000
0000
,
1000
0010
0000
0100
0001
0000
1000
0100
,
0000
0010
0001
0000
0000
0000
1000
0010
,
0000
1000
0100
0000
1000
0001
0000
0010
,
0100
0000
0000
0000
0001
0100
0000
1000
,
0001
0000
0100
1000
0000
0100
0001
0000
,
0000
0000
1000
0100
0000
0001
1000
0000
,
0010
0001
0000
1000
0010
0000
0001
1000
,
0000
0100
0001
0000
1000
0100
0000
0010
,
0001
0200
0000
0000
,
0000
0000
0300
2002
,
0000
0000
0000
0000
,
0000
0000
0000
0000
,
0000
0000
0000
0000
,
0000
0000
0000
0000
,
0000
0000
3003
0000
;

//---------------dance-single - ----------------
#NOTES:
     dance-single:
     you're in danger (slight smile emoji):
     Challenge:
     19:
     1.056468,1.614781,0.167769,0.449622,0.463044,1102.000000,1077.000000,25.000000,67.000000,0.000000,0.000000,1.056468,1.614781,0.167769,0.449622,0.463044,1102.000000,1077.000000,25.000000,67.000000,0.000000,0.000000:
0000
0000
0000
0000
,
0000
0000
0000
0000
,
0000
0000
0000
0000
,
0000
0000
0000
0000
,
0000
0000
0000
0000
,
0000
0000
0000
0000
,
0000
0000
0000
0000
,
0000
0000
0000
0000
,
2002
0000
0000
0000
,
0000
0000
0000
0000
,
0000
0000
3003
0000
,
1000
0000
0000
0010
0000
0000
0100
0000
0000
0010
0100
0001
,
1000
0001
0010
0001
,
1000
0100
0001
0000
0100
1000
0001
0100
,
1000
0000
0100
0001
0010
0000
0100
0000
,
1000
0000
0000
0100
0000
0000
0010
0000
0000
0001
1000
0001
,
0100
0010
1000
0001
,
1000
0010
0001
0000
0010
1000
0001
0000
,
0100
0000
0001
0010
0000
0001
1000
0010
,
1000
0001
1000
0100
1000
0001
0010
0001
,
0100
0001
0010
0100
1000
0001
0100
0010
,
1000
0100
1000
0010
1000
0001
1000
0001
,
0100
0001
0010
0001
0100
0001
0010
0100
,
1000
0010
0100
1000
0100
0001
1000
0100
,
0010
0001
0010
1000
0010
0100
1000
0001
,
0200
0320
2030
0000
0000
0000
3001
0000
,
1000
0100
0010
0100
1000
0001
0100
0001
,
0010
0100
1000
0001
0100
0010
1000
0001
,
0010
0100
0010
0001
1000
0100
1000
0001
,
0100
0001
1000
0100
0010
0001
0100
0001
,
1000
0100
0010
0100
1000
0001
0100
0001
,
1000
0100
0010
0100
1000
0001
0100
0010
,
1000
0100
0010
0001
1000
0010
0100
0001
,
0010
1000
0010
0001
0100
0001
1000
0100
,
0010
0100
1000
0001
0100
0010
1000
0010
,
0100
0001
1000
0100
0010
0001
0010
0100
,
0001
0100
1000
0001
0100
0010
0100
0001
,
1000
0100
0010
0001
0100
0001
1000
0100
,
0010
0100
1000
0001
0100
0010
0001
0010
,
1000
0001
0010
0100
1000
0010
0100
0001
,
1000
0100
0000
0000
0110
0000
0000
0011
,
0000
0000
0101
0000
0000
0110
0000
0000
,
1010
1000
0010
0001
,
0010
1000
0100
0010
,
0100
0001
0100
1000
,
0001
0100
0010
1000
,
0000
0001
0010
0100
,
0001
0100
1000
0001
,
0100
0010
0001
0010
,
1000
0100
0020
0000
,
1030
0010
0001
1000
,
0010
0100
0010
0001
,
0010
1000
0001
0010
,
0100
1000
0100
0001
,
0100
0010
0001
1000
0010
0100
0001
1000
,
0100
0010
0100
1000
0001
0100
0001
0020
,
0000
0000
0000
0030
,
0001
0100
0010
0100
0001
1000
0000
0100
,
0000
0100
0010
0000
0001
0010
0100
1000
,
0010
1000
0001
0010
0001
0100
0000
0010
,
0000
0010
1000
0000
0010
0001
0010
1000
,
0100
0010
0001
1000
0010
0100
0000
0001
,
0000
0001
0010
0000
0100
0010
0001
0100
,
0010
1000
0001
0010
0100
1000
0010
0100
,
0001
1000
0100
0010
1000
0010
0001
1000
,
0001
0100
0010
0100
1000
0100
0000
0001
,
0000
0001
0010
0000
0100
0010
0001
1000
,
0010
1000
0100
0010
1000
0010
0001
1000
,
0000
1000
0010
0000
0001
0010
1000
0100
,
0010
0001
0100
0010
0001
0010
0000
1000
,
0000
1000
0100
0000
0010
0001
1000
0010
,
0100
0001
0000
1000
0001
0000
1000
0100
,
0000
0010
0001
0000
1000
0000
0000
0000
,
0020
0000
1030
0010
0100
0010
0001
0010
,
0100
0010
1000
0010
0100
0010
0001
0010
,
1000
0100
0001
0100
1000
0010
0001
0010
,
1000
0100
0001
0100
1000
0010
0001
0010
,
0200
0000
0301
0100
0010
0100
1000
0100
,
0010
0100
0001
0100
0010
0100
1000
0100
,
0001
1000
0100
0001
1000
0010
0001
1000
,
0010
0001
1000
0100
0001
0000
0000
0000
,
0202
0000
0303
0000
,
2002
0000
3003
0000
,
2200
0000
3300
0000
,
0220
0000
0330
0000
,
0022
0000
0033
0000
,
2020
0000
3030
0000
,
0202
0000
0303
0000
,
2200
0000
3300
0000
,
2000
0000
0000
0000
,
0000
0000
3002
0000
,
0000
0000
0000
0000
,
0203
0000
0000
0000
,
0320
0000
0000
2030
0000
0000
3200
0000
,
0320
0000
0000
0000
,
0032
0000
0000
0203
0000
0000
2300
0000
,
3200
0000
0000
0000
,
0320
0000
2030
0000
,
3002
0000
0000
0000
,
1003
1000
0000
0010
0010
0000
1000
1000
,
0000
0001
0001
0000
0020
0000
0000
0000
,
0130
1000
0001
0100
,
1000
0000
0100
0010
1000
0100
0010
0001
,
1000
0000
0010
0000
0001
0010
1000
0001
,
0010
0000
0000
0000
0000
0000
0100
0000
0000
1000
0000
0000
0100
0000
0000
0001
0000
0000
0100
0000
0010
0000
0001
0000
,
1000
0000
0010
0000
0100
1000
0100
0001
,
1000
0000
0100
0010
1000
0010
0001
1000
,
0010
0000
1000
0000
0010
0001
0010
1000
,
0001
0000
0000
0000
0000
0000
0010
0000
0000
0000
0000
0000
0001
0000
0000
0100
0000
0000
0001
0000
1000
0000
0100
0000
,
0010
1000
0010
0100
1000
0001
0100
0010
,
0001
0010
1000
0001
0010
0100
1000
0010
,
0100
1000
0100
0001
0010
0100
0001
0100
,
1000
0001
0100
0010
0001
0010
1000
0100
,
1000
0010
0100
0010
0001
0010
1000
0001
,
0010
1000
0010
0100
2000
0000
3001
0100
,
1000
0100
0010
0100
0001
1000
0100
0001
,
0100
0010
0002
2003
3100
0001
0100
1000
,
0001
0100
1000
0100
0010
1000
0100
0001
,
1000
0010
0001
1000
0020
0230
0302
0000
,
0000
0000
1003
0000
0001
0010
0100
1000
,
0010
1000
0001
0010
0001
1000
0010
1000
,
0001
0100
0010
0100
0001
1000
0100
0010
,
0001
0100
0010
0001
0010
1000
0100
0010
,
0001
0100
0010
1000
0001
0010
0100
1000
,
0010
1000
0001
0010
0100
1000
0010
0100
,
0001
1000
0100
0010
0001
1000
0010
1000
,
0001
0010
0001
1000
0100
0010
0001
0010
,
1000
0010
0001
1000
0010
0100
0001
1000
,
0100
0010
0100
0001
0100
1000
0001
0100
,
0002
0203
0302
2003
3100
0010
0001
0100
,
0001
1000
0100
0001
0100
1000
0001
0100
,
0020
2030
3002
0023
0130
0001
0100
1000
,
0001
0100
0010
0001
0010
1000
0001
0010
,
0100
1000
0010
1000
0001
0001
0000
1000
,
1000
0000
0001
0001
0000
1000
1000
0000
,
0200
0000
0000
0000
1300
0000
0001
0100
,
0000
0010
0000
0001
0000
0010
0100
0000
,
0001
1000
0100
1000
0010
0000
0100
0001
,
0000
1000
0000
0100
0000
0001
0100
1000
,
0001
0100
0010
0100
0001
0000
0010
0100
,
0000
0001
0000
0100
0000
1000
0001
0100
,
0010
1000
0100
0010
0001
0000
0100
0010
,
0000
0001
0000
1000
0000
0100
0001
0000
,
1000
0100
0010
0001
0100
0000
0001
0010
,
0000
0100
0000
0001
0000
0100
1000
0000
,
0002
0000
0000
0203
0000
0000
0320
0000
0000
2030
0000
0000
3001
0000
1000
0000
0001
0000
0010
0000
0000
1000
0000
0000
,
0000
0010
0000
0001
0000
1000
0010
0100
,
0002
0000
0000
0000
0000
0000
1003
0000
0010
0000
1000
0000
0010
0000
0000
1000
0000
0000
0001
0000
0010
0000
0100
0000
,
1000
0000
0000
0001
0000
0000
1000
0000
0010
0000
0100
0000
0001
0000
0000
1000
0000
0000
0001
0000
0100
0000
0010
0000
,
1000
0000
0000
0001
0000
0000
1000
0000
0100
0000
0010
0000
0001
0000
0000
0001
0000
0000
0000
0000
0000
0100
0000
0000
,
0100
0000
0001
0001
0000
0010
0010
0000
,
0000
0000
1000
1000
0000
0010
0010
0000
,
0001
0001
0000
1000
1000
0000
0000
0000
,
0002
0000
0000
0000
,
0000
0000
0003
0000
,
1000
0100
0010
0001
1000
0010
0100
0010
1000
0001
0010
0100
,
0010
0001
1000
0010
0100
0001
1000
0100
0010
0001
1000
0010
,
1000
0001
0000
0000
1000
0100
0000
0000
1000
0001
0000
0000
1000
0010
0000
0000
,
1000
0000
0010
0000
1000
0000
0010
0000
0000
0100
0000
0001
0000
0100
0000
0001
0000
0000
1000
0000
0100
0000
0010
0000
,
0002
0000
0000
0000
,
0000
0000
0000
0000
,
1003
0010
0001
1000
0100
0001
0010
0100
,
0001
0100
1000
0001
0200
0000
0300
0000
,
0001
0010
0100
1000
0001
0100
0010
0100
0001
1000
0100
0010
,
0001
0010
0100
1000
0001
0100
0010
1000
0001
0010
0100
0010
,
0001
1000
0010
1000
0001
0010
0001
1000
0010
0100
0001
1000
,
0100
0010
0001
0010
0100
1000
0001
0100
0010
1000
0001
1000
,
0100
0010
0001
1000
0010
0100
0001
1000
0100
0010
0100
1000
,
0001
0100
0010
1000
0100
0010
0001
1000
0010
1000
0000
0000
,
1100
0011
2001
0000
,
3001
0010
0100
1000
0001
1000
0010
0100
0001
1000
0100
0010
,
0100
1000
0001
1000
0010
1000
0001
0010
0001
0100
0001
0010
,
0100
1000
0001
0100
0001
1000
0100
0010
0001
0100
0010
1000
,
0001
0010
0100
1000
0010
1000
0001
0010
0001
1000
0010
1000
,
0001
0010
0100
1000
0001
0100
0010
1000
0010
0100
0001
1000
,
0100
0010
0100
1000
0001
1000
0010
0100
0001
1000
0000
0000
,
0000
1010
0000
0000
1001
0000
0000
0011
,
0000
0000
0110
0000
0000
1100
0000
0000
,
1000
1000
0000
0010
0010
0000
1000
1000
,
0000
0001
0001
0000
0000
0000
1000
1000
,
0000
0100
0100
0000
1000
1000
0000
0001
,
0001
0000
0000
0000
0100
0100
0000
1000
,
1000
0000
0100
0100
0000
0001
0001
0000
,
0000
0000
0010
0010
0000
1000
1000
0000
,
0100
0100
0000
0001
0001
0000
1000
1000
,
0000
0100
0100
0000
0010
0010
0000
1001
,
1001
0200
0000
0000
,
0000
0000
0300
2002
,
0000
0000
0000
0000
,
0000
0000
0000
0000
,
0000
0000
0000
0000
,
0000
0000
0000
0000
,
0000
0000
3003
0000
;
