#VERSION:0.83;
#TITLE:WIGGLECORE;
#SUBTITLE:;
#ARTIST:FLOOR BABA;
#TITLETRANSLIT:;
#SUBTITLETRANSLIT:;
#ARTISTTRANSLIT:;
#GENRE:FOOT IS CORE;
#ORIGIN:DIRT BIRD (2017 EP);
#TAGS:;
#CREDIT:skeleton made by DJEmbrace;
#BANNER:WIGGLECORE.png;
#BACKGROUND:WIGGLECORE-bg.png;
#PREVIEWVID:;
#JACKET:WIGGLECORE-jacket.png;
#CDIMAGE:;
#DISCIMAGE:;
#LYRICSPATH:;
#CDTITLE:../_YSD cdtitles/ysd sale5 cdtitle.png;
#MUSIC:WIGGLECORE.ogg;
#OFFSET:0.000000;
#SAMPLESTART:11.083000;
#SAMPLELENGTH:19.691999;
#SELECTABLE:YES;
#BPMS:0.000000=195.000000
;
#STOPS:;
#DELAYS:;
#WARPS:35.000000=16.000000
;
#TIMESIGNATURES:0.000000=4=4
;
#TICKCOUNTS:0.000000=4
;
#COMBOS:0.000000=1
;
#SPEEDS:0.000000=1.000000=0.000000=0
;
#SCROLLS:0.000000=1.000000
,35.000000=0.000000
,35.500000=1.000000
,51.000000=0.000000
,51.500000=1.000000
;
#FAKES:;
#LABELS:0.000000=Song Start
;
#BGCHANGES:;
#KEYSOUNDS:;
#ATTACKS:
;

//---------------dance-single - ----------------
#NOTEDATA:;
#CHARTNAME:;
#CHARTHASH:2064608140;
#STEPSTYPE:dance-single;
#BANNER:;
#DESCRIPTION:;
#CHARTSTYLE:;
#DIFFICULTY:Beginner;
#METER:5;
#METERF:0.000000;
#LASTSECONDHINT:109.230774;
#RADARVALUES:0.181103,0.248411,0.062493,0.000000,0.000000,142.000000,135.000000,7.000000,0.000000,0.000000,0.000000,0.000000,0.000000,3.000000,0.181103,0.248411,0.062493,0.000000,0.000000,142.000000,135.000000,7.000000,0.000000,0.000000,0.000000,0.000000,0.000000,3.000000;
#CREDIT:YOSEFU;
#NOTES:
// measure 0
0000
0000
0000
0000
,  // measure 1
0000
0000
0000
0000
,  // measure 2
0000
0000
0000
0000
,  // measure 3
0000
0000
0000
0000
,  // measure 4
0000
0000
0000
0000
,  // measure 5
1000
0000
0000
0000
,  // measure 6
0001
0000
0000
0000
,  // measure 7
0100
0000
0000
0000
,  // measure 8
0010
0000
0000
0000
,  // measure 9
M000
0000
0M00
0000
,  // measure 10
00M0
0000
0000
0000
,  // measure 11
0000
0000
0000
0000
,  // measure 12
0000
0000
0000
0000
,  // measure 13
1000
0000
0100
0000
,  // measure 14
0010
0000
0000
0000
,  // measure 15
0001
0000
0100
0000
,  // measure 16
0010
0000
0000
0000
,  // measure 17
0100
0000
0010
0000
,  // measure 18
1000
0000
0000
0000
,  // measure 19
0001
0000
1000
0000
,  // measure 20
0100
0000
0000
0000
,  // measure 21
0010
0000
0001
0000
,  // measure 22
0100
0000
0000
0000
,  // measure 23
0010
0000
1000
0000
,  // measure 24
0100
0000
0000
0000
,  // measure 25
1000
0000
0001
0000
,  // measure 26
0100
0000
0000
0000
,  // measure 27
0010
0000
1000
0000
,  // measure 28
0001
0000
0000
0000
,  // measure 29
1001
0000
0000
0000
,  // measure 30
1000
0000
0010
0000
,  // measure 31
0100
0000
0000
0000
,  // measure 32
0001
0000
1000
0000
,  // measure 33
0100
0000
0000
0000
,  // measure 34
0010
0000
0001
0000
,  // measure 35
0100
0000
0000
0000
,  // measure 36
0010
0000
1000
0000
,  // measure 37
1001
0000
0000
0000
,  // measure 38
0001
0000
1000
0000
,  // measure 39
0100
0000
0000
0000
,  // measure 40
0010
0000
0001
0000
,  // measure 41
0100
0000
0000
0000
,  // measure 42
0010
0000
1000
0000
,  // measure 43
0001
0000
0000
0000
,  // measure 44
1000
0000
0100
0000
,  // measure 45
0110
0000
0000
0000
,  // measure 46
0001
0000
0100
0000
,  // measure 47
0010
0000
0000
0000
,  // measure 48
1000
0000
0001
0000
,  // measure 49
0010
0000
0000
0000
,  // measure 50
0100
0000
1000
0000
,  // measure 51
0010
0000
0000
0000
,  // measure 52
0100
0000
0001
0000
,  // measure 53
1001
0000
0000
0000
,  // measure 54
1000
0000
0100
0000
,  // measure 55
0010
0000
0000
0000
,  // measure 56
0001
0000
0100
0000
,  // measure 57
0010
0000
0000
0000
,  // measure 58
1000
0000
0001
0000
,  // measure 59
0010
0000
0000
0000
,  // measure 60
0100
0000
1000
0000
,  // measure 61
1001
0000
0000
0000
,  // measure 62
0001
0000
0100
0000
,  // measure 63
0001
0000
1000
0000
,  // measure 64
0001
0000
0100
0000
,  // measure 65
0001
0000
1000
0000
,  // measure 66
0100
0000
1000
0000
,  // measure 67
0001
0000
0100
0000
,  // measure 68
0001
0000
1000
0000
,  // measure 69
0100
0000
1000
0000
,  // measure 70
0001
0000
0010
0000
,  // measure 71
0001
0000
1000
0000
,  // measure 72
0010
0000
1000
0000
,  // measure 73
0001
0000
1000
0000
,  // measure 74
0001
0000
0010
0000
,  // measure 75
0100
0000
1000
0000
,  // measure 76
0010
0000
0100
0000
,  // measure 77
0110
0000
0000
0000
,  // measure 78
0001
0000
1000
0000
,  // measure 79
0010
0000
0100
0000
,  // measure 80
0001
0000
1000
0000
,  // measure 81
0001
0000
0100
0000
,  // measure 82
0010
0000
1000
0000
,  // measure 83
0001
0000
0010
0000
,  // measure 84
0100
0000
1000
0000
,  // measure 85
1001
0000
0000
0000
,  // measure 86
0001
0000
0100
0000
,  // measure 87
0010
0000
0000
0000
,  // measure 88
1000
0000
0001
0000
,  // measure 89
0010
0000
0000
0000
,  // measure 90
0100
0000
1000
0000
,  // measure 91
0010
0000
0000
0000
,  // measure 92
0100
0000
0001
0001
;

//---------------dance-single - ----------------
#NOTEDATA:;
#CHARTNAME:;
#CHARTHASH:3869534546;
#STEPSTYPE:dance-single;
#BANNER:;
#DESCRIPTION:;
#CHARTSTYLE:;
#DIFFICULTY:Easy;
#METER:10;
#METERF:0.000000;
#LASTSECONDHINT:109.230774;
#RADARVALUES:0.378786,0.414018,0.107131,0.035710,0.000000,297.000000,285.000000,12.000000,4.000000,0.000000,0.000000,0.000000,0.000000,7.000000,0.378786,0.414018,0.107131,0.035710,0.000000,297.000000,285.000000,12.000000,4.000000,0.000000,0.000000,0.000000,0.000000,7.000000;
#CREDIT:YOSEFU;
#NOTES:
0000
0000
0000
0000
,
0000
0000
0000
0000
,
0000
0000
0000
0000
,
0000
0000
0000
0000
,
0000
0000
0000
0000
,
1000
0000
0000
0000
,
0100
0000
0000
0000
,
0010
0000
0000
0000
,
0001
0000
0000
0000
,
M0M0
0000
00M0
0000
0000
0000
0000
M000
,
000M
0000
0000
M000
0000
0000
0M00
0000
,
0000
0000
0000
0000
,
0000
0000
0000
0000
,
1010
0000
0010
0000
0000
0000
0000
1000
,
0001
0000
0000
1000
0000
0000
0100
0000
,
0010
0000
0001
0000
0000
0000
0000
1000
,
0010
0000
0000
0100
0000
0000
0001
0000
,
0010
0000
0100
0000
0000
0000
0000
1000
,
0001
0000
0000
0100
0000
0000
0010
0000
,
1000
0000
0001
0000
0000
0000
0000
0010
,
0100
0000
0000
1000
0000
0000
0010
0000
,
0100
0000
0001
0000
0000
0000
0000
1000
,
0100
0000
0000
0010
0000
0000
0001
0000
,
1000
0000
0010
0000
0000
0000
0000
0100
,
0001
0000
0000
1000
0000
0000
0100
0000
,
0010
0000
0001
0000
0000
0000
0000
0100
,
0010
0000
0000
1000
0000
0000
0001
0000
,
0010
0000
0100
0000
0000
0000
0000
1000
,
0001
0000
0000
0100
0000
0000
0010
0000
,
1010
0000
0001
1000
,
1001
0001
1000
0010
,
0100
0001
1000
0100
,
0001
0100
1000
0001
,
0100
0010
1000
0100
,
0010
0001
1000
0001
,
0100
1000
0100
0001
,
0010
0100
1000
0001
,
0101
0000
0100
0000
0000
0000
0000
0001
,
1000
0000
0000
0100
0000
0000
0010
0000
,
0001
0000
1000
0000
0000
0000
0000
0010
,
0100
0000
0000
0001
0000
0000
0010
0000
,
0100
0000
1000
0000
0000
0000
0000
0001
,
0100
0000
0000
0010
0000
0000
0100
0000
,
0001
0000
1000
0000
0000
0000
0000
0100
,
0010
0000
0000
0001
0000
0000
0100
0000
,
0110
0000
0010
1000
,
1001
0001
1000
0100
,
0010
1000
0010
0001
,
1000
0010
0100
0001
,
0010
0100
1000
0010
,
0100
0001
1000
0100
,
0010
1000
0010
0001
,
1000
0010
0100
0001
,
1001
0000
1000
0100
,
0110
0010
0001
1000
,
0010
0001
0010
0100
,
0001
0010
0100
1000
,
0001
0100
0010
1000
,
0100
0010
0001
1000
,
0010
0100
1000
0100
,
0010
1000
0100
0010
,
0001
0000
0100
0010
,
1000
0100
0001
0100
,
1000
0001
0100
1000
,
0100
0010
0100
0001
,
1000
0100
0001
0100
,
1000
0001
0100
1000
,
0100
0001
1000
0100
,
0001
0000
0000
0100
0000
0000
1000
0000
,
1001
0001
0100
0010
,
1000
0100
0001
0100
,
1000
0001
0100
0010
,
1000
0100
0010
0001
,
2000
0000
3020
0000
,
0230
0000
0302
0000
,
0013
0100
1000
0010
,
0001
0000
0000
0010
0000
0000
1000
0000
,
1001
0000
0001
0010
,
0110
0100
0001
0100
,
1000
0001
0100
0010
,
0001
0010
1000
0100
,
0010
1000
0010
0001
,
1000
0010
0001
1000
,
0100
0001
0010
0100
,
1000
0001
0100
0010
,
1010
0000
1000
0000
0000
0000
0001
0010
,
0100
0000
0000
1000
0000
0000
0001
0000
,
0100
0000
0010
0000
0000
0000
1000
0001
,
0010
0000
0000
0100
0000
0000
0010
0000
,
0001
0000
1000
0000
0000
0000
0010
0100
,
0001
0000
0000
0010
0000
0000
0100
0000
,
1000
0000
0001
0000
0000
0000
0100
0010
,
1000
0000
0000
0100
0000
0000
0010
0000
;

//---------------dance-single - ----------------
#NOTEDATA:;
#CHARTNAME:;
#CHARTHASH:898530242;
#STEPSTYPE:dance-single;
#BANNER:;
#DESCRIPTION:;
#CHARTSTYLE:;
#DIFFICULTY:Medium;
#METER:13;
#METERF:0.000000;
#LASTSECONDHINT:109.230774;
#RADARVALUES:0.635136,0.952242,0.080349,0.196408,0.142842,498.000000,489.000000,9.000000,22.000000,0.000000,0.000000,0.000000,0.000000,12.000000,0.635136,0.952242,0.080349,0.196408,0.142842,498.000000,489.000000,9.000000,22.000000,0.000000,0.000000,0.000000,0.000000,12.000000;
#CREDIT:YOSEFU;
#NOTES:
0000
0000
0000
0000
,
0000
0000
0000
0000
,
0000
0000
0000
0000
,
0000
0000
0000
0000
,
0000
0000
0000
0000
,
2000
0000
0000
0000
,
3002
0000
0000
0000
,
0203
0000
0000
0000
,
0320
0000
0000
0000
0000
0000
0000
0000
0000
0000
0000
0000
0000
0000
0000
0000
0000
0000
0000
0000
0000
0000
0000
0000
0000
0000
0000
0000
0000
0000
0000
0000
0000
0000
0000
0000
0000
0000
0000
0000
0000
0000
0000
0000
0000
0000
0000
0030
0000
0000
0000
0000
0000
0000
0000
0000
0000
0000
0000
0000
0000
0000
0000
0000
,
M0M0
0000
00M0
0M00
000M
0000
M000
0M00
,
00M0
0000
000M
M000
0000
M000
00M0
0000
,
0000
0000
0000
0000
,
0000
0000
0000
0000
,
1010
0000
0010
0100
0001
0000
1000
0100
,
0010
0000
0001
1000
0000
1000
0010
0000
,
0100
0000
0001
1000
0100
0000
0010
0001
,
1000
0000
0010
0100
0000
0100
0001
0000
,
1100
0000
0100
0010
0001
0000
0100
0010
,
1000
0000
0001
0010
0000
0010
0100
0000
,
1000
0000
0001
0100
0010
0000
1000
0100
,
0010
0000
0001
1000
0000
1000
0010
0000
,
0110
0000
0001
1000
0100
0000
0010
0001
,
1000
0000
0010
0100
0000
0100
0001
0000
,
1000
0000
0100
0010
0001
0000
0100
0010
,
1000
0000
0001
0010
0000
0010
0100
0000
,
1100
0000
0001
0100
0010
0000
1000
0100
,
0010
0000
0001
0100
0000
0100
0010
0000
,
1000
0000
0001
0010
0100
0000
1000
0010
,
0100
0000
0001
1000
0000
1000
0100
0000
,
0010
0001
0000
1000
0010
0001
0010
0100
,
0000
0000
0001
0000
0000
1000
0000
0000
0100
0000
0000
0000
0002
0000
0000
0000
,
0103
0000
0010
0001
2000
0000
3001
0100
,
0010
0000
0000
0001
0000
0000
0010
0000
1000
0000
0000
0000
0001
0000
0000
0000
,
0010
0100
0000
0010
1000
0010
0001
0100
,
0000
0000
0010
0000
0000
1000
0000
0000
0001
0000
0000
0000
0010
0000
0000
0000
,
2000
0000
3010
0001
2000
0000
3001
1000
,
0100
0000
0000
0001
0000
0000
0100
0000
0010
0000
0000
0000
0001
0000
0000
0000
,
1010
0000
0010
0100
0001
0000
1000
0100
,
0010
0000
0001
0100
0000
0010
1000
0000
,
0001
0000
1000
0100
0010
0000
0001
0100
,
0010
0000
1000
0001
0000
0010
0100
0000
,
0110
0000
0001
1000
0010
0000
0100
0001
,
0010
0000
0100
1000
0000
0001
0100
0000
,
0010
0000
1000
0001
0010
0000
0100
1000
,
0010
0000
0100
0001
0000
1000
0100
0000
,
0010
0001
0000
1000
0010
0001
0010
1000
,
0000
0000
0100
0000
0000
0010
0000
0000
0001
0000
0000
0000
0200
0000
0000
0000
,
1300
0000
0100
0001
0020
0000
0130
1000
,
0010
0000
0000
0001
0000
0000
0010
0000
1000
0000
0000
0000
0001
0000
0000
0000
,
0010
0100
0000
0010
1000
0010
0001
1000
,
0000
0000
0010
0000
0000
0100
0000
0000
0001
0000
0000
0000
1000
0000
0000
0000
,
0100
0000
0001
0100
2000
0000
3001
0100
,
0010
0000
0000
0001
0000
0000
0010
0000
1000
0000
0000
0000
0001
0000
0000
0000
,
1000
0001
0000
1000
0010
0001
0010
1000
,
0000
0000
0100
0000
0000
0010
0000
0000
0001
0000
0000
0000
2000
0000
0000
0000
,
3010
0000
0000
0100
0000
0000
0001
0000
2000
0000
0000
0000
3001
0000
1000
0000
,
0010
0000
0000
0001
0000
0000
0010
0000
1000
0000
0000
0000
0001
0000
0000
0000
,
0010
0100
0000
1000
0100
0001
0100
1000
,
0000
0000
0001
0000
0000
0100
0000
0000
0010
0000
0000
0000
0001
0000
0000
0000
,
0010
0000
0000
1000
0000
0000
0100
0000
0020
0000
0000
0000
0031
0000
1000
0000
,
0010
0000
0000
0001
0000
0000
0010
0000
1000
0000
0000
0000
0100
0000
0000
0000
,
0010
1000
0010
0001
1000
0010
0001
0010
,
0100
0000
0000
0100
0000
0000
0001
0000
1000
0000
0100
0000
0010
0000
0001
0000
,
0100
0010
0001
0010
1000
0100
0010
0001
,
0100
0010
1000
0001
0010
0100
1000
0010
,
0100
0000
0001
0010
1000
0010
0002
0000
,
1003
0000
0001
0100
1000
0100
0001
0010
,
1000
0001
0100
2000
0000
3001
0100
0000
,
0010
0000
0010
1000
0000
1000
0001
0000
,
1001
0000
1000
0100
0010
0001
0200
0000
,
0310
0001
0010
0100
0002
0000
1003
0100
,
0010
0001
0100
0010
1000
0001
0010
0100
,
2000
0000
3010
0200
0000
1300
0200
0000
,
0300
0001
0100
0001
0100
0010
1000
0010
1000
0001
0010
0100
,
0000
1000
0100
1000
0100
0010
0001
0010
0001
1000
0010
0100
,
0001
1000
0100
0010
0002
0000
1000
0000
,
0103
0000
0010
1000
0000
1000
0001
0000
,
0010
0001
0000
1000
0010
0001
0010
1000
,
0100
0010
0001
1000
0001
0100
0001
1000
,
0100
0010
1000
0010
0100
1000
0001
0100
,
0010
0001
0010
0100
0001
1000
0100
0010
,
0001
0100
0010
1000
0001
0010
0100
1000
,
0100
0001
0100
0010
0001
0100
0010
1000
,
0001
0010
0001
0100
0001
1000
0010
1000
,
0100
0001
0100
1000
0001
0100
0010
1000
,
1001
0000
0001
0100
0010
0000
1000
0100
,
0010
0000
0001
0100
0000
0010
1000
0000
,
0001
0000
0010
0100
1000
0000
0010
0100
,
0001
0000
1000
0100
0000
0010
0001
0000
,
1010
0000
0001
1000
0010
0000
0100
0001
,
0010
0000
0100
1000
0000
0001
0100
0000
,
0010
0000
1000
0100
0010
0000
0001
0100
,
0010
0000
1000
0001
0000
0010
0100
0000
;

//---------------dance-single - ----------------
#NOTEDATA:;
#CHARTNAME:STEP IS CHART;
#CHARTHASH:2531257624;
#STEPSTYPE:dance-single;
#BANNER:;
#DESCRIPTION:;
#CHARTSTYLE:;
#DIFFICULTY:Hard;
#METER:17;
#METERF:0.000000;
#LASTSECONDHINT:109.230774;
#RADARVALUES:0.923370,1.076447,0.008928,0.196408,1.062386,724.000000,723.000000,1.000000,22.000000,0.000000,0.000000,0.000000,0.000000,18.000000,0.923370,1.076447,0.008928,0.196408,1.062386,724.000000,723.000000,1.000000,22.000000,0.000000,0.000000,0.000000,0.000000,18.000000;
#CREDIT:YOSEFU IS STEP ARTIST;
#NOTES:
0000
0000
0000
0000
,
0000
0000
0000
0000
,
0000
0000
0000
0000
,
0000
0000
0000
0000
,
0000
0000
0000
0000
,
0002
0000
0000
0000
0000
0000
0003
0002
,
0203
0000
0000
0320
0000
0000
0000
0000
,
2030
0000
0000
0000
0000
0000
3000
2000
,
3200
0000
0000
0000
0000
0000
0000
0000
0300
0000
0000
0000
0200
0000
0000
0000
0000
0000
0000
0000
0000
0000
0000
0300
0000
0000
0000
0000
0000
0000
0000
0000
,
M000
0000
00M0
0M00
0000
00M0
0000
M000
0000
0M00
00M0
0000
0M00
0000
M000
0000
,
000M
0000
0M00
00M0
0000
M000
0000
000M
0000
00M0
0M00
0000
M000
0000
000M
0000
,
0000
0000
0000
0000
,
0000
0000
0000
0000
,
1000
0000
0010
0100
0000
0010
0000
1000
0000
0100
0010
0000
0100
0000
1000
0000
,
0001
0000
0100
0010
0000
1000
0000
0001
0000
0010
0100
0000
1000
0000
0001
0000
,
0100
0000
0010
0100
0000
0001
0000
1000
0000
0100
0010
0000
0001
0000
0100
0000
,
0010
0000
1000
0100
0000
0010
0000
0001
0000
0000
1000
0000
0010
0000
0100
0001
,
0010
0000
0100
1000
0000
0010
0000
1000
0000
0001
0010
0000
0100
0000
0010
0000
,
0001
0000
1000
0010
0000
0100
0000
0010
0000
1000
0001
0000
0010
0000
0100
0000
,
1000
0000
0001
0100
0000
0010
0000
1000
0000
0100
0010
0000
0001
0000
1000
0000
,
0010
0000
1000
0100
0000
0010
0000
0001
0000
0000
0100
0000
0010
0000
1000
0100
,
0010
0000
0100
1000
0000
0010
0000
0100
0000
0001
1000
0000
0100
0000
0010
0000
,
0100
0000
1000
0001
0000
0100
0000
0010
0000
1000
0001
0000
0010
0000
0100
0000
,
0010
0000
0001
1000
0000
0010
0000
0100
0000
0010
1000
0000
0001
0000
0100
0000
,
0001
0000
0010
0100
0000
1000
0000
0010
0000
0000
0100
0000
0001
0000
0010
0100
,
1000
0000
0010
0100
0000
0001
0000
1000
0000
0100
0010
0000
0001
0000
1000
0000
,
0010
0000
0100
0010
0000
1000
0000
0001
0000
0010
0100
0000
1000
0000
0001
0000
,
0100
0000
0010
0100
0000
0001
0000
1000
0000
0100
0010
0000
0001
0000
0100
0000
,
0001
0000
1000
0100
0000
0010
0000
0001
0000
0000
1000
0000
0010
0000
0000
0000
,
1000
0000
0010
0000
0000
0000
0100
0000
1000
0100
0010
0000
0100
0001
1000
0000
,
0100
0000
0010
0000
0001
0100
0000
0010
1000
0000
0100
0000
0002
0000
0000
0000
,
0103
0000
0010
0001
1000
0000
0010
0000
0200
0000
0000
0000
0301
0000
0010
0000
,
0100
0000
0010
1000
0000
0010
0100
0000
1000
0000
0001
0000
0100
0000
0010
0000
,
1000
0001
0100
0010
0100
1000
0100
0001
,
0010
0000
0100
0000
1000
0001
0000
0100
0010
0000
1000
0000
0100
0000
0001
0000
,
0100
0000
0010
0100
1000
0000
0001
0000
0200
0000
0000
0000
0301
0000
0010
0000
,
0100
0000
0001
0100
0000
0010
0100
0000
1000
0000
0001
0000
0100
0000
0010
0000
,
0100
0000
0010
1000
0000
0100
0000
1000
0000
0001
0100
0000
0010
0000
0100
0000
,
0001
0000
1000
0100
0000
0010
0000
0100
0000
1000
0001
0000
0100
0000
0010
0000
,
1000
0000
0001
0010
0000
0100
0000
1000
0000
0010
0100
0000
0001
0000
1000
0000
,
0100
0000
1000
0010
0000
0100
0000
0001
0000
0000
0010
0000
0100
0000
1000
0010
,
0100
0000
0010
1000
0000
0100
0000
0010
0000
0001
1000
0000
0010
0000
0100
0000
,
0010
0000
1000
0001
0000
0010
0000
0100
0000
1000
0001
0000
0100
0000
0010
0000
,
0100
0000
0001
1000
0000
0100
0000
0010
0000
0100
1000
0000
0001
0000
0010
0000
,
0001
0000
0100
0010
0000
1000
0000
0100
0000
0000
0010
0000
0001
0000
0000
0000
,
1000
0000
0100
0000
0000
0000
0010
0000
1000
0010
0100
0000
0010
0001
1000
0000
,
0010
0000
0100
0000
0001
0010
0000
0100
1000
0000
0010
0000
0002
0000
0000
0000
,
0013
0000
0100
0001
1000
0000
0100
0000
0020
0000
0000
0000
0031
0000
0100
0000
,
0010
0000
0100
1000
0000
0100
0010
0000
1000
0000
0001
0000
0010
0000
0100
0000
,
1000
0001
0010
0100
0010
1000
0010
0001
,
0100
0000
0010
0000
1000
0001
0000
0010
0100
0000
1000
0000
0010
0000
0001
0000
,
0010
0000
0100
0010
1000
0000
0001
0000
0020
0000
0000
0000
0031
0000
0100
0000
,
0010
0000
0001
0010
0000
0100
0010
0000
1000
0000
0001
0000
0010
0000
0100
0000
,
1000
0000
0010
0000
0000
0000
0100
0000
1000
0100
0010
0000
0100
0001
1000
0000
,
0100
0000
0010
0000
0001
0100
0000
0010
1000
0000
0100
0000
0002
0000
0000
0000
,
0103
0000
1000
0001
0100
0000
0010
0000
2000
0000
0000
0000
3001
0000
0010
0000
,
0100
0000
0001
0100
0000
0010
0100
0000
1000
0000
0001
0000
0100
0000
0010
0000
,
1000
0001
0010
0001
0100
1000
0100
0001
,
0010
0000
0100
0000
1000
0010
0000
0100
0001
0000
0010
0000
1000
0000
0010
0000
,
0100
0000
1000
0001
0100
0000
0010
0000
2000
0000
0000
0000
3001
0000
0100
0000
,
0010
0000
0001
0010
0000
0100
0001
0000
0001
0000
1000
0000
0100
0000
0000
0000
,
1000
0010
0100
0000
1000
0000
0001
0000
0010
0100
0001
0000
1000
0100
0010
0000
,
0001
0000
1000
0010
0000
1000
0010
0100
0001
0000
1000
0000
0100
0010
0001
0000
,
0100
0000
0000
0000
0010
0000
0000
0000
1000
0000
0000
0000
0010
0000
0000
0000
0000
0000
0100
0000
0000
0000
0000
0000
0001
0000
0000
1000
0000
0000
0100
0000
0000
0000
0000
0000
0010
0000
0000
0001
0000
0000
1000
0000
0000
0000
0000
0000
,
0010
0000
0100
0000
0001
1000
0100
0000
0010
0001
0100
0000
1000
0000
0100
0000
,
0001
0000
0000
0000
1000
0010
0100
0010
1000
0000
0100
0000
0010
0000
0000
0000
,
0001
0000
0000
0000
1000
0100
0010
0100
1000
0000
0001
0000
0100
0000
0010
1000
,
0100
0000
0000
0010
0001
0000
2000
0000
0000
0000
0100
0000
3001
0000
0000
0000
,
0100
0010
0001
0010
1000
0100
0010
0001
,
1001
0000
0000
0000
1000
0000
0100
0010
0001
0000
1000
0010
0000
0000
0100
0000
,
0001
1000
0100
0000
0010
0001
1000
0000
0010
0000
0100
0000
0001
0000
1000
0000
,
0100
0010
0000
0010
0001
0000
0001
1000
0000
1000
0010
0000
0010
0100
0001
0100
,
0020
0000
0031
0020
0000
1030
0200
0000
,
0310
0001
0010
0100
1000
0100
0010
0001
0100
0010
1000
0001
,
0010
0100
1000
0100
0010
0001
0100
0010
1000
0001
0010
0001
,
0100
0010
0100
0010
1000
0000
0100
0010
0002
0000
0100
0000
1003
0000
0100
0000
,
0010
0000
1000
0000
0010
0000
0001
0000
0100
0000
1000
0000
0100
0000
0001
1000
,
0010
0000
0100
0000
0000
0000
0010
0000
0001
0010
0100
0000
0001
1000
0100
0000
,
0010
0000
0001
0000
1000
0010
0000
0100
0001
0000
0010
0000
1000
0000
0010
0000
,
0001
0000
1000
0100
0000
0010
0001
1000
0001
0000
0100
0000
0010
0000
1000
0000
,
0100
0000
0001
0100
0000
1000
0001
0000
0100
0000
0010
0000
1000
0000
0100
0000
,
0010
0001
1000
0010
0100
1000
0100
0001
,
0010
0000
0100
0000
1000
0010
0000
0100
0001
0000
0010
0000
1000
0000
0010
0000
,
0001
0000
0100
0010
0000
1000
0010
0100
0001
0000
0010
0000
0100
0000
1000
0000
,
0010
0000
0001
0010
0000
1000
0001
0000
0010
0000
0100
1000
0001
0100
0010
0100
,
0001
0000
1000
0010
0000
0100
0000
0001
0000
0010
0100
0000
0010
0000
0001
0000
,
1000
0000
0010
0100
0000
0001
0000
1000
0000
0100
0010
0000
0100
0000
1000
0000
,
0001
0000
0100
0010
0000
0100
0000
0001
0000
1000
0100
0000
0010
0000
0001
0000
,
0100
0000
0010
1000
0000
0001
0000
0010
0000
0000
0100
0000
1000
0000
0010
0100
,
0001
0000
1000
0100
0000
1000
0000
0010
0000
0100
0001
0000
1000
0000
0100
0000
,
0010
0000
0001
1000
0000
0010
0000
0100
0000
0010
1000
0000
0001
0000
0010
0000
,
0100
0000
1000
0001
0000
0100
0000
0010
0000
1000
0100
0000
0010
0000
0001
0000
,
0100
0000
0010
1000
0000
0001
0000
0010
0000
0000
0100
0000
1000
0000
0000
0000
;

//---------------dance-single - Pre-Nerf----------------
#NOTEDATA:;
#CHARTNAME:Pre-Nerf;
#CHARTHASH:3076470656;
#STEPSTYPE:dance-single;
#BANNER:;
#DESCRIPTION:Pre-Nerf;
#CHARTSTYLE:;
#DIFFICULTY:Edit;
#METER:18;
#METERF:0.000000;
#LASTSECONDHINT:109.230774;
#RADARVALUES:0.938675,1.159251,0.000000,0.196408,1.160590,736.000000,736.000000,0.000000,22.000000,0.000000,0.000000,0.000000,0.000000,18.000000,0.938675,1.159251,0.000000,0.196408,1.160590,736.000000,736.000000,0.000000,22.000000,0.000000,0.000000,0.000000,0.000000,18.000000;
#CREDIT:YOSEFU;
#NOTES:
0000
0000
0000
0000
,
0000
0000
0000
0000
,
0000
0000
0000
0000
,
0000
0000
0000
0000
,
0000
0000
0000
0000
,
0002
0000
0000
0000
0000
0000
0003
0002
,
0203
0000
0000
0320
0000
0000
0000
0000
,
2030
0000
0000
0000
0000
0000
3000
2000
,
3200
0000
0000
0000
0000
0000
0000
0000
0300
0000
0000
0000
0200
0000
0000
0000
0000
0000
0000
0000
0000
0000
0000
0300
0000
0000
0000
0000
0000
0000
0000
0000
,
M000
0000
00M0
0M00
0000
00M0
0000
M000
0000
0M00
00M0
0000
0M00
0000
M000
0000
,
000M
0000
0M00
00M0
0000
M000
0000
000M
0000
00M0
0M00
0000
M000
0000
000M
0000
,
0000
0000
0000
0000
,
0000
0000
0000
0000
,
1000
0000
0010
0100
0000
0010
0000
1000
0000
0100
0010
0000
0100
0000
1000
0000
,
0001
0000
0100
0010
0000
1000
0000
0001
0000
0010
0100
0000
1000
0000
0001
0000
,
0100
0000
0010
0100
0000
0001
0000
1000
0000
0100
0010
0000
0001
0000
0100
0000
,
0010
0000
1000
0100
0000
0010
0000
0001
0000
0000
1000
0000
0010
0000
0100
0001
,
0010
0000
0100
1000
0000
0010
0000
1000
0000
0001
0010
0000
0100
0000
0010
0000
,
0001
0000
1000
0010
0000
0100
0000
0010
0000
1000
0001
0000
0010
0000
0100
0000
,
1000
0000
0001
0100
0000
0010
0000
1000
0000
0100
0010
0000
0001
0000
1000
0000
,
0010
0000
1000
0100
0000
0010
0000
0001
0000
0000
0100
0000
0010
0000
1000
0100
,
0010
0000
0100
1000
0000
0010
0000
0100
0000
0001
1000
0000
0100
0000
0010
0000
,
0100
0000
1000
0001
0000
0100
0000
0010
0000
1000
0001
0000
0010
0000
0100
0000
,
0010
0000
0001
1000
0000
0010
0000
0100
0000
0010
1000
0000
0001
0000
0100
0000
,
0001
0000
0010
0100
0000
1000
0000
0010
0000
0000
0100
0000
0001
0000
0010
0100
,
1000
0000
0010
0100
0000
0001
0000
1000
0000
0100
0010
0000
0001
0000
1000
0000
,
0010
0000
0100
0010
0000
1000
0000
0001
0000
0010
0100
0000
1000
0000
0001
0000
,
0100
0000
0010
0100
0000
0001
0000
1000
0000
0100
0010
0000
0001
0000
0100
0000
,
0001
0000
1000
0100
0000
0010
0000
0001
0000
0000
1000
0000
0010
0000
0000
0000
,
1000
0000
0010
0000
0000
0000
0100
0000
1000
0100
0010
0000
0100
0001
1000
0000
,
0100
0000
0010
0000
0001
0100
0000
0010
1000
0000
0100
0000
0001
0000
0000
0000
,
0100
0000
0010
0001
1000
0000
0010
0000
0100
0000
0000
0000
0001
0000
0010
0000
,
0100
0000
0010
1000
0000
0010
0100
0000
1000
0000
0001
0000
0100
0000
0010
0000
,
1000
0001
0100
0010
0100
1000
0100
0001
,
0010
0000
0100
0000
1000
0001
0000
0100
0010
0000
1000
0000
0100
0000
0001
0000
,
0100
0000
0010
0100
1000
0000
0001
0000
0100
0000
0000
0000
0001
0000
0010
0000
,
0100
0000
0001
0100
0000
0010
0100
0000
1000
0000
0001
0000
0100
0000
0010
0000
,
0100
0000
0010
1000
0000
0100
0000
1000
0000
0001
0100
0000
0010
0000
0100
0000
,
0001
0000
1000
0100
0000
0010
0000
0100
0000
1000
0001
0000
0100
0000
0010
0000
,
1000
0000
0001
0010
0000
0100
0000
1000
0000
0010
0100
0000
0001
0000
1000
0000
,
0100
0000
1000
0010
0000
0100
0000
0001
0000
0000
0010
0000
0100
0000
1000
0010
,
0100
0000
0010
1000
0000
0100
0000
0010
0000
0001
1000
0000
0010
0000
0100
0000
,
0010
0000
1000
0001
0000
0010
0000
0100
0000
1000
0001
0000
0100
0000
0010
0000
,
0100
0000
0001
1000
0000
0100
0000
0010
0000
0100
1000
0000
0001
0000
0010
0000
,
0001
0000
0100
0010
0000
1000
0000
0100
0000
0000
0010
0000
0001
0000
0000
0000
,
1000
0000
0100
0000
0000
0000
0010
0000
1000
0010
0100
0000
0010
0001
1000
0000
,
0010
0000
0100
0000
0001
0010
0000
0100
1000
0000
0010
0000
0001
0000
0000
0000
,
0010
0000
0100
0001
1000
0000
0100
0000
0010
0000
0000
0000
0001
0000
0100
0000
,
0010
0000
0100
1000
0000
0100
0010
0000
1000
0000
0001
0000
0010
0000
0100
0000
,
1000
0001
0010
0100
0010
1000
0010
0001
,
0100
0000
0010
0000
1000
0001
0000
0010
0100
0000
1000
0000
0010
0000
0001
0000
,
0010
0000
0100
0010
1000
0000
0001
0000
0010
0000
0000
0000
0001
0000
0100
0000
,
0010
0000
0001
0010
0000
0100
0010
0000
1000
0000
0001
0000
0010
0000
0100
0000
,
1000
0000
0010
0000
0000
0000
0100
0000
1000
0100
0010
0000
0100
0001
1000
0000
,
0100
0000
0010
0000
0001
0100
0000
0010
1000
0000
0100
0000
0001
0000
0000
0000
,
0100
0000
1000
0001
0100
0000
0010
0000
1000
0000
0000
0000
0001
0000
0010
0000
,
0100
0000
0001
0100
0000
0010
0100
0000
1000
0000
0001
0000
0100
0000
0010
0000
,
1000
0001
0010
0001
0100
1000
0100
0001
,
0010
0000
0100
0000
1000
0010
0000
0100
0001
0000
0010
0000
1000
0000
0010
0000
,
0100
0000
1000
0001
0100
0000
0010
0000
1000
0000
0000
0000
0001
0000
0100
0000
,
0010
0000
0001
0010
0000
0100
0001
0000
0001
0000
1000
0000
0100
0000
0000
0000
,
1000
0100
0010
0001
1000
0001
0010
0100
1000
0001
0100
0010
1000
0001
0010
0001
,
1000
0000
0010
1000
0000
0010
0200
0000
0000
0000
0301
0000
0010
0100
1000
0001
,
0010
0000
0000
0000
0100
0000
0000
0000
0010
0000
0000
0000
0001
0000
0000
0000
0000
0000
0100
0000
0000
0001
0000
0000
0010
0000
0000
0100
0000
0000
0010
0000
0000
0001
0000
0000
1000
0000
0000
0000
0010
0000
0000
0000
0100
0000
0000
0000
,
0001
0010
0100
1000
0010
1000
0001
0010
0200
0000
2300
0000
3020
0000
0230
0000
,
0301
0000
0000
0000
1000
0010
1000
0100
0010
0001
1000
0010
0200
0000
0000
0000
,
0301
0000
0000
0000
1000
0010
1000
0100
0010
0001
0100
0010
1000
0000
0001
0100
,
2000
0000
0000
3100
0010
1000
0002
0000
0000
0000
0000
0000
0013
0000
0000
0000
,
0100
0000
0000
0000
0100
0000
1000
0000
0000
0000
1000
0000
0001
0000
0100
0010
,
1000
0000
0000
0000
0001
0100
0001
1000
0100
1000
0001
0200
0000
0000
0000
0000
,
0310
1000
0100
0010
0001
1000
0010
0100
0020
0000
0000
0000
1030
0000
0100
0000
,
0010
0100
1000
0001
0100
0001
1000
0100
0010
0001
1000
0010
0100
0001
1000
0100
,
0020
0000
0031
0200
0000
1300
0200
0000
,
0301
0010
0100
0001
0100
0010
0001
0100
0010
1000
0100
0010
,
0001
0100
0010
0001
0010
0100
0001
0010
0100
1000
0010
0100
,
0001
1000
0010
0100
0001
0000
0010
0100
2000
0000
0000
0000
3010
0000
0000
0000
,
0100
0000
0000
0000
0100
0000
0001
0000
0000
0000
0001
0000
0010
0000
0100
1000
,
0001
0000
0100
0000
0000
0000
0010
0000
0001
0010
0100
0000
0001
1000
0100
0000
,
0010
0000
0001
0000
1000
0010
0000
0100
0001
0000
0010
0000
1000
0000
0010
0000
,
0001
0000
1000
0100
0000
0010
0001
1000
0001
0000
0100
0000
0010
0000
1000
0000
,
0100
0000
0001
0100
0000
1000
0001
0000
0100
0000
0010
0000
1000
0000
0100
0000
,
0010
0001
1000
0010
0100
1000
0100
0001
,
0010
0000
0100
0000
1000
0010
0000
0100
0001
0000
0010
0000
1000
0000
0010
0000
,
0001
0000
0100
0010
0000
1000
0010
0100
0001
0000
0010
0000
0100
0000
1000
0000
,
0010
0000
0001
0010
0000
1000
0001
0000
0010
0000
0100
1000
0001
0100
0010
0100
,
0001
0000
1000
0010
0000
0100
0000
0001
0000
0010
0100
0000
0010
0000
0001
0000
,
1000
0000
0010
0100
0000
0001
0000
1000
0000
0100
0010
0000
0100
0000
1000
0000
,
0001
0000
0100
0010
0000
0100
0000
0001
0000
1000
0100
0000
0010
0000
0001
0000
,
0100
0000
0010
1000
0000
0001
0000
0010
0000
0000
0100
0000
1000
0000
0010
0100
,
0001
0000
1000
0100
0000
1000
0000
0010
0000
0100
0001
0000
1000
0000
0100
0000
,
0010
0000
0001
1000
0000
0010
0000
0100
0000
0010
1000
0000
0001
0000
0010
0000
,
0100
0000
1000
0001
0000
0100
0000
0010
0000
1000
0100
0000
0010
0000
0001
0000
,
0100
0000
0010
1000
0000
0001
0000
0010
0000
0000
0100
0000
1000
0000
0000
0000
;

//---------------dance-double - ----------------
#NOTEDATA:;
#CHARTNAME:;
#CHARTHASH:341590432;
#STEPSTYPE:dance-double;
#BANNER:;
#DESCRIPTION:;
#CHARTSTYLE:;
#DIFFICULTY:Beginner;
#METER:6;
#METERF:0.000000;
#LASTSECONDHINT:109.230774;
#RADARVALUES:0.177277,0.248411,0.053566,0.008928,0.000000,139.000000,133.000000,6.000000,1.000000,0.000000,0.000000,0.000000,0.000000,0.000000,0.177277,0.248411,0.053566,0.008928,0.000000,139.000000,133.000000,6.000000,1.000000,0.000000,0.000000,0.000000,0.000000,0.000000;
#CREDIT:YOSEFU;
#NOTES:
00000000
00000000
00000000
00000000
,
00000000
00000000
00000000
00000000
,
00000000
00000000
00000000
00000000
,
00000000
00000000
00000000
00000000
,
00000000
00000000
00000000
00000000
,
00010000
00000000
00000000
00000000
,
00001000
00000000
00000000
00000000
,
01000000
00000000
00000000
00000000
,
00010000
00000000
00000000
00000000
,
00000000
00000000
00000000
00000000
,
00000000
00000000
00000000
00000000
,
00000000
00000000
00000000
00000000
,
00000000
00000000
00000000
00000000
,
10000000
00000000
00010000
00000000
,
01000000
00000000
00000000
00000000
,
00100000
00000000
10000000
00000000
,
00010000
00000000
00000000
00000000
,
10000000
00000000
01000000
00000000
,
00100000
00000000
00000000
00000000
,
00001000
00000000
00010000
00000000
,
00000010
00000000
00000000
00000000
,
00000100
00000000
00000001
00000000
,
00001000
00000000
00000000
00000000
,
00000100
00000000
00000010
00000000
,
00000001
00000000
00000000
00000000
,
00000100
00000000
00000010
00000000
,
00010000
00000000
00000000
00000000
,
00001000
00000000
00100000
00000000
,
01000000
00000000
00000000
00000000
,
10010000
00000000
00000000
00000000
,
10000000
00000000
00100000
00000000
,
01000000
00000000
00000000
00000000
,
00001000
00000000
00010000
00000000
,
00000100
00000000
00000000
00000000
,
00000010
00000000
00000100
00000000
,
00001000
00000000
00000000
00000000
,
00000001
00000000
00000100
00000000
,
00000010
00000000
00000000
00000000
,
00001000
00000000
00000100
00000000
,
00000010
00000000
00000000
00000000
,
00000001
00000000
00000100
00000000
,
00000010
00000000
00000000
00000000
,
00010000
00000000
00001000
00000000
,
00100000
00000000
00000000
00000000
,
01000000
00000000
10000000
00000000
,
10010000
00000000
00000000
00000000
,
00010000
00000000
01000000
00000000
,
00001000
00000000
00000000
00000000
,
00010000
00000000
00000100
00000000
,
00000010
00000000
00000000
00000000
,
00000001
00000000
00000100
00000000
,
00000010
00000000
00000000
00000000
,
00010000
00000000
00001000
00000000
,
00011000
00000000
00000000
00000000
,
00100000
00000000
01000000
00000000
,
10000000
00000000
00000000
00000000
,
00100000
00000000
01000000
00000000
,
00001000
00000000
00000000
00000000
,
00010000
00000000
00000100
00000000
,
00000010
00000000
00000000
00000000
,
00000001
00000000
00000100
00000000
,
00000110
00000000
00000000
00000000
,
00000001
00000000
00000010
00000000
,
00000100
00000000
00000010
00000000
,
00000001
00000000
00000100
00000000
,
00000010
00000000
00010000
00000000
,
00001000
00000000
00100000
00000000
,
01000000
00000000
10000000
00000000
,
00200000
00000000
00300000
00000000
,
01010000
00000000
00000000
00000000
,
01000000
00000000
00001000
00000000
,
00010000
00000000
00000100
00000000
,
00000010
00000000
00000001
00000000
,
00000100
00000000
00000010
00000000
,
00010000
00000000
00000100
00000000
,
00010000
00000000
00001000
00000000
,
01000000
00000000
00010000
00000000
,
10010000
00000000
00000000
00000000
,
10000000
00000000
01000000
00000000
,
00100000
00000000
01000000
00000000
,
10000000
00000000
00010000
00000000
,
01000000
00000000
00001000
00000000
,
00010000
00000000
00000100
00000000
,
00001000
00000000
00000001
00000000
,
00000100
00000000
00000010
00000000
,
00001000
00000000
00000100
00000000
,
00000010
00000000
00000000
00000000
,
00000001
00000000
00000100
00000000
,
00000010
00000000
00000000
00000000
,
00010000
00000000
00001000
00000000
,
00100000
00000000
00000000
00000000
,
01000000
00000000
10000000
00000000
,
00100000
00000000
00000000
01000000
;

//---------------dance-double - ----------------
#NOTEDATA:;
#CHARTNAME:;
#CHARTHASH:1566120501;
#STEPSTYPE:dance-double;
#BANNER:;
#DESCRIPTION:;
#CHARTSTYLE:;
#DIFFICULTY:Easy;
#METER:10;
#METERF:0.000000;
#LASTSECONDHINT:109.230774;
#RADARVALUES:0.372409,0.455420,0.196408,0.000000,0.000000,292.000000,270.000000,22.000000,0.000000,0.000000,0.000000,0.000000,0.000000,0.000000,0.372409,0.455420,0.196408,0.000000,0.000000,292.000000,270.000000,22.000000,0.000000,0.000000,0.000000,0.000000,0.000000,0.000000;
#CREDIT:YOSEFU;
#NOTES:
00000000
00000000
00000000
00000000
,
00000000
00000000
00000000
00000000
,
00000000
00000000
00000000
00000000
,
00000000
00000000
00000000
00000000
,
00000000
00000000
00000000
00000000
,
00010000
00000000
00000000
00000000
,
00000100
00000000
00000000
00000000
,
00000010
00000000
00000000
00000000
,
00000001
00000000
00000000
00000000
,
00000000
00000000
00000000
00000000
,
00000000
00000000
00000000
00000000
,
00000000
00000000
00000000
00000000
,
00000000
00000000
00000000
00000000
,
00001001
00001000
00000010
00000000
,
00000100
00000001
00001000
00000000
,
00000100
00000010
00001000
00000000
,
00010000
00100000
01000000
00000000
,
10010000
10000000
01000000
00000000
,
00100000
00010000
01000000
00000000
,
00100000
00010000
00001000
00000000
,
00010000
00000100
00000010
00000000
,
00000011
00000001
00000100
00000000
,
00001000
00010000
00100000
00000000
,
01000000
00010000
10000000
00000000
,
01000000
00100000
00001000
00000000
,
00011000
00010000
00000010
00000000
,
00000100
00001000
00010000
00000000
,
00000100
00000010
00000001
00000000
,
00000100
00000010
00010000
00000000
,
00011000
00000000
00001000
01000000
,
00100000
00000000
00000000
10000000
00000000
00000000
00010000
00000000
,
10000000
01000000
00100000
00000000
,
00001000
00010000
00000010
00000000
,
00001010
00000000
00001000
00000100
,
00000010
00000000
00000000
00000001
00000000
00000000
00000100
00000000
,
00000010
00010000
00001000
00000000
,
00100000
01000000
10000000
00000000
,
10010000
00010000
01000000
00000000
,
00100000
00010000
00001000
00000000
,
00000010
00000100
00001000
00000000
,
00000001
00000100
00000010
00000000
,
00010010
00010000
00001000
00000000
,
00010000
00100000
01000000
00000000
,
00010000
00100000
01000000
00000000
,
10000000
00100000
01000000
00000000
,
01001000
00000000
00001000
00010000
,
00100000
00000000
00000000
01000000
00000000
00000000
00010000
00000000
,
00001000
00000100
00000010
00000000
,
00000100
00000001
00001000
00000000
,
00000100
00000000
00000010
00000001
,
00000100
00000000
00000000
00000010
00000000
00000000
00000100
00000000
,
00001000
00010000
00100000
00000000
,
00010000
10000000
01000000
00000000
,
01100000
00000000
00100000
00001000
,
01000000
00000000
00000000
00100000
00000000
00000000
00010000
00000000
,
00001000
00000010
00000001
00000000
,
00000100
00001000
00010000
00001000
,
00011000
00000000
00010000
00100000
,
01000000
00000000
00000000
00010000
00000000
00000000
10000000
00000000
,
01000000
00010000
00001000
00000000
,
00010000
00000010
00000100
00000100
,
00000101
00000000
00000001
00000010
,
00001000
00010000
00100000
10000000
,
00100000
00010000
00001000
00010000
,
01000000
10000000
00100000
00010000
,
00001000
00000010
00000001
00000010
,
00001000
00010000
00100000
10000000
,
01000000
00010000
00001000
00000010
,
00000001
00000000
00000000
00000100
00000000
00000000
00000010
00000000
,
00011000
00000000
00100000
01000000
,
10000000
00100000
01000000
00010000
,
10000000
01000000
00100000
01000000
,
00010000
00001000
00000100
00000010
,
00000100
00000001
00000010
00001000
,
00010000
00001000
00000010
00000001
,
00000100
00001000
00010000
00001000
,
01000000
00000000
00000000
00100000
00000000
00000000
10000000
00000000
,
10010000
00000000
00010000
00100000
,
01000000
00100000
00001000
00010000
,
00000010
00000100
00001000
00010000
,
00100000
01000000
00001000
00100000
,
01000000
10000000
00100000
01000000
,
00010000
10000000
01000000
00010000
,
00001000
00000100
00000001
00000010
,
00000100
00000000
00000010
00000000
00000001
00000000
00001000
00000001
,
00001000
00000000
00000010
00000000
00000100
00000000
00000000
00000001
,
00001000
00000000
00000000
00001100
00000000
00000000
00010100
00000000
,
00010000
00000000
00001000
00000000
01000000
00000000
00000000
00010000
,
10000000
00000000
00000000
11000000
00000000
00000000
10010000
00000000
,
00010000
00000000
01000000
00000000
00001000
00000000
00000000
00010000
,
00000100
00000000
00000000
00001100
00000000
00000000
00000110
00000000
,
00000001
00000000
00000100
00000000
00000010
00000000
00000000
00010000
,
00001000
00000000
00000000
01100000
00000000
00000000
10010000
00000000
;

//---------------dance-double - ----------------
#NOTEDATA:;
#CHARTNAME:;
#CHARTHASH:1472917208;
#STEPSTYPE:dance-double;
#BANNER:;
#DESCRIPTION:;
#CHARTSTYLE:;
#DIFFICULTY:Medium;
#METER:13;
#METERF:0.000000;
#LASTSECONDHINT:109.230774;
#RADARVALUES:0.622382,0.703831,0.116059,0.178552,0.089276,488.000000,475.000000,13.000000,20.000000,0.000000,0.000000,0.000000,0.000000,12.000000,0.622382,0.703831,0.116059,0.178552,0.089276,488.000000,475.000000,13.000000,20.000000,0.000000,0.000000,0.000000,0.000000,12.000000;
#CREDIT:YOSEFU;
#NOTES:
00000000
00000000
00000000
00000000
,
00000000
00000000
00000000
00000000
,
00000000
00000000
00000000
00000000
,
00000000
00000000
00000000
00000000
,
00000000
00000000
00000000
00000000
,
00020000
00000000
00000000
00000000
,
00032000
00000000
00000000
00000000
,
02003000
00000000
00000000
00000000
,
03200000
00000000
00000000
00000000
00000000
00000000
00000000
00000000
00000000
00000000
00000000
00000000
00000000
00000000
00000000
00000000
00000000
00000000
00000000
00000000
00000000
00000000
00000000
00300000
00000000
00000000
00000000
00000000
00000000
00000000
00000000
00000000
,
M00M0000
00000000
M0000000
0M000000
00M00000
00000000
000M0000
0M000000
,
0000M000
00000000
000M0000
00000M00
00000000
00000M00
000000M0
00000000
,
00000000
00000000
00000000
00000000
,
00000000
00000000
00000000
00000000
,
10010000
00000000
10000000
01000000
00100000
00000000
00010000
01000000
,
00001000
00000000
00010000
00000100
00000000
00000100
00000010
00000000
,
00000001
00000000
00000100
00000010
00001000
00000000
00000010
00010000
,
00001000
00000000
00001000
01000000
00000000
01000000
00100000
00000000
,
10100000
00000000
10000000
01000000
00100000
00000000
00010000
01000000
,
00100000
00000000
10000000
00010000
00000000
00010000
00100000
00000000
,
00001000
00000000
00010000
00000010
00000100
00000000
00000001
00000010
,
00000100
00000000
00010000
00001000
00000000
00001000
01000000
00000000
,
01100000
00000000
00100000
10000000
01000000
00000000
00100000
00001000
,
00010000
00000000
00010000
00000010
00000000
00000010
00000100
00000000
,
00000001
00000000
00000010
00000100
00001000
00000000
00000010
00010000
,
00001000
00000000
00001000
01000000
00000000
01000000
00100000
00000000
,
10100000
00000000
10000000
01000000
00100000
00000000
00010000
01000000
,
00100000
00000000
00100000
01000000
00000000
01000000
00001000
00000000
,
00010000
00000000
00000100
00000010
00000001
00000000
00000100
00000010
,
00010000
00000000
00010000
00001000
00000000
00001000
00100000
00000000
,
01000000
10000000
00000000
00100000
00010000
00001000
00010000
00100000
,
00000000
00000000
01000000
00000000
00000000
00010000
00000000
00000000
10000000
00000000
00000000
00000000
02000000
00000000
00000000
00000000
,
03010000
00000000
00000000
00001000
00000000
00000000
00000100
00000000
00000020
00000000
00000000
00000000
00001030
00000000
00000100
00000000
,
00000010
00000000
00000000
00001000
00000000
00000000
00000010
00000000
00000001
00000000
00000000
00000000
00000100
00000000
00000000
00000000
,
00000010
00001000
00000000
00000100
00000010
00001000
00000010
00000100
,
00000000
00000000
00010000
00000000
00000000
00001000
00000000
00000000
01000000
00000000
00000000
00000000
00100000
00000000
00000000
00000000
,
00010000
00000000
00000000
00100000
00000000
00000000
10000000
00000000
00020000
00000000
00000000
00000000
10030000
00000000
01000000
00000000
,
00100000
00000000
00000000
10000000
00000000
00000000
00100000
00000000
00001000
00000000
00000000
00000000
00010000
00000000
00000000
00000000
,
00010010
00000000
00000010
00001000
00000001
00000000
00000010
00000100
,
00001000
00000000
00001000
00000010
00000000
00000010
00010000
00000000
,
00001000
00000000
00100000
01000000
10000000
00000000
00100000
01000000
,
00001000
00000000
00001000
00010000
00000000
00010000
00000100
00000000
,
00000110
00000000
00000010
00000001
00000100
00000000
00000010
00010000
,
00001000
00000000
00001000
00100000
00000000
00100000
01000000
00000000
,
10000000
00000000
00100000
01000000
00001000
00000000
00010000
00000100
,
00000010
00000000
00000010
00000001
00000000
00000001
00000100
00000000
,
00000010
00001000
00000000
00000100
00000010
00001000
00000010
00000100
,
00000000
00000000
00001000
00000000
00000000
00000010
00000000
00000000
00000100
00000000
00000000
00000000
00002000
00000000
00000000
00000000
,
00013000
00000000
00000000
01000000
00000000
00000000
10000000
00000000
00020000
00000000
00000000
00000000
01030000
00000000
00010000
00000000
,
00100000
00000000
00000000
10000000
00000000
00000000
00100000
00000000
01000000
00000000
00000000
00000000
10000000
00000000
00000000
00000000
,
00010000
01000000
00000000
00100000
00010000
00001000
00010000
00100000
,
00000000
00000000
01000000
00000000
00000000
00010000
00000000
00000000
00100000
00000000
00000000
00000000
10000000
00000000
00000000
00000000
,
00100000
00000000
00000000
00001000
00000000
00000000
00010000
00000000
00000020
00000000
00000000
00000000
00000130
00000000
00000001
00000000
,
00000010
00000000
00000000
00001000
00000000
00000000
00000010
00000000
00000100
00000000
00000000
00000000
00010000
00000000
00000000
00000000
,
00001000
01000000
00000000
00010000
00100000
10000000
00100000
00010000
,
00000000
00000000
10000000
00000000
00000000
00100000
00000000
00000000
00010000
00000000
00000000
00000000
00002000
00000000
00000000
00000000
,
00003010
00000000
00000000
00000001
00000000
00000000
00000100
00000000
00000010
00000000
00000000
00000000
00010000
00000000
00001000
00000000
,
00100000
00000000
00000000
01000000
00000000
00000000
00010000
00000000
01000000
00000000
00000000
00000000
00100000
00000000
00000000
00000000
,
00001000
00100000
00000000
00010000
01000000
10000000
01000000
00010000
,
00000000
00000000
10000000
00000000
00000000
01000000
00000000
00000000
00010000
00000000
00000000
00000000
00001000
00000000
00000000
00000000
,
00000100
00000000
00000000
00000001
00000000
00000000
00000010
00000000
00000200
00000000
00000000
00000000
00000310
00000000
00000001
00000000
,
00000100
00000000
00000000
00001000
00000000
00000000
00010000
00000000
00010000
00000000
00000000
00000000
00001000
00000000
00000000
00000000
,
00100000
10000000
00100000
00001000
00010000
00000010
00000100
00000001
,
00001000
00000000
00000000
00001000
00000000
00000000
00000100
00000000
00000010
00000000
00000100
00000000
00010000
00000000
00001000
00000000
,
01000000
00100000
01000000
00001000
00010000
00100000
01000000
00010000
,
00100000
01000000
10000000
00100000
01000000
00010000
10000000
01000000
,
00100000
00000000
10000000
00100000
00001000
00010000
00000010
00000000
,
00000100
00000000
00001000
00010000
00100000
01000000
00001000
00010000
,
00100000
10000000
00100000
00010000
00000000
00010000
00000100
00000000
,
00001100
00000000
00000000
00001001
00000000
00000000
00000101
00000000
,
00000001
00000000
00000010
00001000
00010000
00001000
00000010
00000000
,
00000001
00000100
00001000
00010000
00002000
00000000
00103000
01000000
,
10000000
00100000
01000000
00010000
10000000
01000000
00100000
00001000
,
00020000
00000000
00030010
00000200
00000000
00001300
00000100
00000000
,
00000001
00000010
00001000
00010000
00100000
10000000
01000000
00010000
,
01000000
10000000
00100000
00010000
00001000
00000010
00000001
00000100
,
00000010
00001000
00000100
00010000
00001000
01000000
00010000
00000000
,
01010000
00000000
00000000
10010000
00000000
00000000
11000000
00000000
,
10000000
00100000
00000000
01000000
00100000
00010000
00100000
01000000
,
00001000
00001000
00010000
00000100
00000100
00000010
00000001
00000100
,
00001000
00010000
00001000
00000100
00000002
00000000
00000013
00001000
,
00010000
00001000
00100000
02000000
00000000
13000000
00100000
01000000
,
00001000
00100000
01000000
00010000
00001000
00000100
00000001
00000010
,
00001000
00010000
00100000
02000000
00000000
03010000
00100000
01000000
,
10000000
00100000
01000000
00010000
20000000
00000000
31000000
00010000
,
00001000
00000100
00000010
00002000
00000000
00003001
00000100
00001000
,
00010000
00000000
00001000
01000000
00100000
00000000
10000000
00010000
,
00100000
00000000
00100000
01000000
00000000
01000000
10000000
00000000
,
00100000
00000000
01000000
00001000
00010000
00000000
00000010
00001000
,
00000001
00000000
00000001
00000010
00000000
00000010
00000100
00000000
,
00011000
00000000
00100000
00001000
01000000
00000000
00100000
10000000
,
00010000
00000000
00010000
00100000
00000000
00100000
01000000
00000000
,
10000000
00000000
00100000
01000000
00001000
00000000
00010000
00000100
,
00000010
00000000
00000001
00000100
00000000
00001000
00010000
00000000
;

//---------------dance-double - ----------------
#NOTEDATA:;
#CHARTNAME:;
#CHARTHASH:3831493543;
#STEPSTYPE:dance-double;
#BANNER:;
#DESCRIPTION:;
#CHARTSTYLE:;
#DIFFICULTY:Hard;
#METER:17;
#METERF:0.000000;
#LASTSECONDHINT:109.230774;
#RADARVALUES:0.877457,1.035045,0.000000,0.258901,0.924008,688.000000,688.000000,0.000000,29.000000,0.000000,0.000000,0.000000,0.000000,18.000000,0.877457,1.035045,0.000000,0.258901,0.924008,688.000000,688.000000,0.000000,29.000000,0.000000,0.000000,0.000000,0.000000,18.000000;
#CREDIT:YOSEFU;
#NOTES:
00000000
00000000
00000000
00000000
,
00000000
00000000
00000000
00000000
,
00000000
00000000
00000000
00000000
,
00000000
00000000
00000000
00000000
,
00000000
00000000
00000000
00000000
,
00002000
00000000
00000000
00000000
00000000
00000000
00003000
00002000
,
00023000
00000000
00000000
00030020
00000000
00000000
00000000
00000000
,
00000230
00000000
00000000
00000000
00000000
00000000
00000300
00000200
,
00000302
00000000
00000000
00000000
00000000
00000000
00000000
00000000
00000003
00000000
00000000
00000000
00000002
00000000
00000000
00000000
00000000
00000000
00000000
00000000
00000000
00000000
00000000
00000003
00000000
00000000
00000000
00000000
00000000
00000000
00000000
00000000
,
0000M000
00000000
000000M0
00000M00
00000000
0000000M
00000000
0000M000
00000000
00000M00
0000M000
00000000
0000000M
00000000
0000M000
00000000
,
00000M00
00000000
000M0000
0000M000
00000000
0M000000
00000000
000M0000
00000000
M0000000
0M000000
00000000
00M00000
00000000
000M0000
00000000
,
00000000
00000000
00000000
00000000
,
00000000
00000000
00000000
00000000
,
00001000
00000000
00000010
00000100
00000000
00000001
00000000
00001000
00000000
00000100
00001000
00000000
00000001
00000000
00001000
00000000
,
00000100
00000000
00010000
00001000
00000000
01000000
00000000
00010000
00000000
10000000
01000000
00000000
00100000
00000000
00010000
00000000
,
01000000
00000000
00100000
10000000
00000000
00010000
00000000
00100000
00000000
00001000
00010000
00000000
00000010
00000000
00001000
00000000
,
00000001
00000000
00000010
00000100
00000000
00001000
00000000
00000002
00000000
00000000
00000000
00000000
00000103
00000000
00000010
00010000
,
00001000
00000000
00100000
00001000
00000000
00010000
00000000
00001000
00000000
01000000
00010000
00000000
10000000
00000000
01000000
00000000
,
00100000
00000000
00001000
00010000
00000000
00000010
00000000
00001000
00000000
00000010
00010000
00000000
00000100
00000000
00000010
00000000
,
00000001
00000000
00001000
00000010
00000000
00000100
00000000
00000010
00000000
00001000
00000100
00000000
00000010
00000000
00000001
00000000
,
00001000
00000000
00000010
00000100
00000000
00000010
00000000
00020000
00000000
00000000
00000000
00000000
00031000
00000000
01000000
00010000
,
00100000
00000000
01000000
10000000
00000000
00010000
00000000
01000000
00000000
00100000
10000000
00000000
00010000
00000000
00100000
00000000
,
00001000
00000000
00010000
00000010
00000000
00001000
00000000
00000010
00000000
00010000
00001000
00000000
01000000
00000000
00010000
00000000
,
10000000
00000000
01000000
00100000
00000000
00010000
00000000
01000000
00000000
00001000
00010000
00000000
00000100
00000000
00000010
00000000
,
00000001
00000000
00000100
00000010
00000000
00010000
00000000
00002000
00000000
00000000
00000000
00000000
00103000
00000000
01000000
10000000
,
00100000
00000000
01000000
00010000
00000000
10000000
00000000
01000000
00000000
00100000
00001000
00000000
00010000
00000000
00000010
00000000
,
00000100
00000000
00000001
00001000
00000000
00000100
00000000
00000010
00000000
00000100
00010000
00000000
00001000
00000000
01000000
00000000
,
00100000
00000000
10000000
01000000
00000000
00100000
00000000
01000000
00000000
10000000
00010000
00000000
01000000
00000000
00001000
00000000
,
00010000
00000000
00000100
00000010
00000000
00000001
00000000
00000200
00000000
00000000
00000000
00000000
00000310
00000000
00000000
00000000
,
00000100
00001000
00000000
00010000
01000000
10000000
00100000
00010000
,
00100000
00000000
01000000
00000000
00001000
00010000
00000000
00000100
00001000
00000000
00000000
00000000
00000100
00000000
00000001
00000000
,
00000100
00000000
00010000
00001000
01000000
00000000
00010000
00000000
20000000
00000000
00000000
00000000
30100000
00000000
00010000
00000000
,
00001000
00000000
00000010
00000100
00000000
00001000
00000001
00000000
00000100
00000000
00000010
00000000
00000100
00000000
00000001
00000000
,
00000010
00001000
00010000
00100000
10000000
01000000
00010000
00001000
,
00100000
00000000
01000000
00000000
10000000
00100000
00000000
01000000
00010000
00000000
00100000
00000000
10000000
00000000
00100000
00000000
,
00001000
00000000
00010000
00000010
00000100
00000000
00000001
00000000
00002000
00000000
00000000
00000000
00003100
00000000
00000010
00000000
,
00000001
00000000
00000100
00000010
00000000
00001000
00000010
00000000
00010000
00000000
00001000
00000000
01000000
00000000
00010000
00000000
,
01000000
00000000
00100000
10000000
00000000
00010000
00000000
00100000
00000000
01000000
10000000
00000000
00010000
00000000
01000000
00000000
,
00001000
00000000
00010000
00000100
00000000
00001000
00000000
00000100
00000000
00010000
00001000
00000000
00100000
00000000
00010000
00000000
,
10000000
00000000
00100000
01000000
00000000
00010000
00000000
00100000
00000000
00001000
00010000
00000000
00000010
00000000
00000100
00000000
,
00000001
00000000
00000010
00000100
00000000
00010000
00000000
00002000
00000000
00000000
00000000
00000000
01003000
00000000
00100000
10000000
,
01000000
00000000
00100000
00010000
00000000
10000000
00000000
00100000
00000000
01000000
00001000
00000000
00010000
00000000
00000100
00000000
,
00000010
00000000
00000001
00001000
00000000
00000010
00000000
00000100
00000000
00000010
00010000
00000000
00001000
00000000
00100000
00000000
,
01000000
00000000
10000000
00100000
00000000
01000000
00000000
00100000
00000000
10000000
00010000
00000000
00100000
00000000
00001000
00000000
,
00010000
00000000
00000010
00000100
00000000
00000001
00000000
00002000
00000000
00000000
00000000
00000000
00003100
00000000
00000000
00000000
,
00000010
00001000
00000000
00010000
00100000
10000000
01000000
00010000
,
01000000
00000000
00100000
00000000
00001000
00010000
00000000
00000010
00001000
00000000
00000000
00000000
00000010
00000000
00000001
00000000
,
00000010
00000000
00010000
00001000
00100000
00000000
00010000
00000000
10000000
00000000
00000000
00000000
01000000
00000000
00010000
00000000
,
00001000
00000000
00000100
00000010
00000000
00001000
00000001
00000000
00000010
00000000
00000100
00000000
00000010
00000000
00000001
00000000
,
00000100
00001000
00010000
01000000
10000000
00100000
00010000
00001000
,
01000000
00000000
00100000
00000000
10000000
01000000
00000000
00100000
00010000
00000000
01000000
00000000
10000000
00000000
01000000
00000000
,
00001000
00000000
00010000
00000100
00000010
00000000
00000001
00000000
00002000
00000000
00000000
00000000
00003010
00000000
00000100
00000000
,
00000001
00000000
00000010
00000100
00000000
00001000
00000100
00000000
00010000
00000000
00001000
00000000
00100000
00000000
01000000
00000000
,
00010000
00001000
00000000
00000100
00000001
00000010
00001000
00010000
,
00100000
00000000
10000000
00000000
00010000
01000000
00000000
00100000
10000000
00000000
01000000
00000000
00001000
00000000
01000000
00000000
,
00020000
00000000
00031000
00000100
00000002
00000000
00000013
00001000
,
00010000
00000000
00100000
00010000
00000000
00001000
00000010
00000000
00000100
00000000
00000010
00000000
00000001
00000000
00000100
00000000
,
00000010
00000001
00000010
00001000
00000100
00000010
00001000
00010000
,
00100000
00000000
01000000
00000000
00010000
10000000
00000000
01000000
00100000
00000000
00001000
00000000
00010000
00000000
00100000
00000000
,
00001000
00100000
00010000
00001000
00000020
00000000
00000031
00000100
,
00001000
00000000
00010000
01000000
00000000
00010000
00001000
00000000
00000100
00000000
00000001
00000000
00000100
00000000
00000010
00000000
,
00001000
00000000
00000010
00000000
00000001
00000000
00000010
00000000
00001000
00000010
00010000
00000000
00001000
01000000
00100000
00000000
,
10000000
00000000
00010000
00100000
00000000
00010000
01000000
00000000
00100000
00000000
10000000
00000000
01000000
00000000
00010000
00000000
,
00001000
00010000
00001000
00010000
00000010
00000000
00000100
00000000
00001000
00000000
00000100
00000000
00000001
00000000
00000010
00000000
,
00000100
00001000
00000100
00000000
00010000
00001000
00010000
00000000
00001000
00000000
01000000
00000000
00010000
00000000
10000000
00000000
,
01000000
00000000
00000000
00000000
00100000
10000000
00100000
01000000
00100000
00000000
00001000
00000000
00020000
00000000
00000000
00000000
,
00030010
00000000
00000000
00000000
00000100
00001000
00000100
00000010
00000100
00000000
00000001
00000000
00001000
00000000
00000100
00000010
,
00001000
00000000
00000000
00010000
00100000
00010000
00002000
00000000
00000000
00000000
00103000
00000000
02000000
00000000
00000000
00000000
,
13000000
00100000
00010000
00001000
00010000
01000000
00010000
00001000
,
00000010
00000000
00000000
00000000
00000001
00000100
00000010
00000000
00001000
00000001
00000010
00000200
00000000
00000000
00000300
00000000
,
00010000
00001000
01000000
00000000
00100000
10000000
00010000
00000000
00200000
00000000
00000000
00000000
01300000
00000000
10000000
00000000
,
00100000
01000000
00000000
01000000
00001000
00000000
00001000
00010000
00000000
00010000
00000100
00000000
00000100
00000010
00000000
00000010
,
00000002
00000000
00000103
00002000
00000000
00013000
02000000
00000000
,
13000000
00100000
00010000
00001000
00010000
00100000
10000000
01000000
00010000
00001000
00010000
01000000
,
10000000
01000000
00010000
00001000
00000010
00000001
00000010
00001000
00010000
00001000
00000100
00000001
,
00001000
00000100
00000010
00001000
00010000
00100000
10000000
01000000
,
00010000
00001000
00010000
01000000
10000000
00100000
00010000
00001000
,
00010000
00000010
00000000
00000100
00001000
00010000
00100000
01000000
,
00010000
10000000
01000000
00001000
01000000
00010000
00001000
00000100
,
00000001
00000010
00001000
00010000
00100000
01000000
10000000
01000000
,
00010000
00100000
10000000
00100000
00001000
01000000
00100000
00010000
,
00001000
00000010
00000001
00001000
00000010
00000001
00001000
00000100
,
00000010
00001000
00000100
00000010
00001000
00010000
00100000
01000000
,
00010000
10000000
01000000
00100000
10000000
00100000
00001000
00010000
,
00000010
00000000
00000100
00000000
00010000
00000000
00000100
00000000
00000010
00000000
00001000
00000010
00000000
00000100
00000001
00001000
,
00000001
00000000
00000100
00000010
00000000
00001000
00000000
00000100
00000000
00000010
00000001
00000000
00001000
00000000
00000100
00000000
,
00010000
00000000
00001000
01000000
00000000
00100000
00000000
01000000
00000000
00001000
00010000
00000000
01000000
00000000
00100000
00000000
,
00010000
00000000
10000000
00100000
00000000
01000000
00000000
00001000
00000000
01000000
00010000
00000000
10000000
00000000
01000000
00000000
,
00100000
00000000
00001000
00010000
00000000
00100000
00000000
00020000
00000000
00000000
00000000
00000000
00000000
00000000
00030100
00001000
,
00000010
00000000
00001000
00000001
00000000
00000010
00000000
00000100
00000000
00000010
00000001
00000000
00000100
00000000
00000010
00000000
,
00001000
00000000
00000100
00010000
00000000
00001000
00000000
01000000
00000000
00010000
10000000
00000000
01000000
00000000
00100000
00000000
,
00001000
00000000
00010000
00100000
00000000
01000000
00000000
00010000
00000000
00100000
01000000
00000000
10000000
00000000
00100000
00000000
,
00010000
00000000
00001000
00010000
00000000
00000100
00000000
00000001
00000000
00000000
00000100
00000000
00001000
00000000
00000000
00000000
;
