#TITLE:Votum stellarum;
#SUBTITLE:-forest #25 RMX-;
#ARTIST:iconoclasm;
#TITLETRANSLIT:;
#SUBTITLETRANSLIT:;
#ARTISTTRANSLIT:;
#GENRE:ANTHEM TRANCE REMIX;
#CREDIT:;
#BANNER:Votum stellarum -forest #25 RMX-.png;
#BACKGROUND:Votum stellarum -forest #25 RMX--bg.png;
#LYRICSPATH:;
#CDTITLE:../_YSD cdtitles/ysd xmas2023 cdtitle.png;
#MUSIC:Votum stellarum -forest #25 RMX-.ogg;
#OFFSET:-0.400000;
#SAMPLESTART:43.257000;
#SAMPLELENGTH:27.429001;
#SELECTABLE:YES;
#BPMS:0.000000=70.000000
,33.000000=140.000000
,129.000000=70.000000
,143.000000=140.000000
;
#STOPS:32.000000=0.857000,
134.000000=1.714000
;
#BGCHANGES:;
#KEYSOUNDS:;
#ATTACKS:;
#LASTSECONDHINT:139.263885;

//---------------dance-single - ----------------
#NOTES:
     dance-single:
     :
     Beginner:
     3:
     0.147771,0.213122,0.121274,0.014268,0.000000,145.000000,128.000000,17.000000,2.000000,0.000000,0.000000,0.147771,0.213122,0.121274,0.014268,0.000000,145.000000,128.000000,17.000000,2.000000,0.000000,0.000000:
0000
0000
0000
0000
,
0000
0000
0000
0000
,
1000
0000
0001
0000
,
0100
0000
0001
0000
,
1000
0000
0100
0000
,
0010
0000
0001
0000
,
1000
0000
0010
0000
,
0100
0000
0001
0000
,
0000
1001
0000
1000
,
0000
0010
0000
0100
,
0000
0001
0000
0010
,
0000
0100
0000
1000
,
1000
1000
0000
0001
,
0001
0001
0000
1000
,
1000
1000
0000
0010
,
0010
0010
0010
0010
,
0010
0110
0000
0100
,
0000
0001
0000
1000
,
0000
0001
0000
0010
,
0000
0100
0000
1000
,
0000
0001
0000
0100
,
0000
0001
0000
1000
,
0000
0100
0000
0010
,
0000
0001
0000
1000
,
0000
1001
0000
0001
,
0000
0100
0000
0010
,
0000
1000
0000
0100
,
0000
0010
0000
0001
,
0000
1001
0000
1000
,
0000
1001
0000
0010
,
0000
0110
0000
1001
,
0000
0110
0000
1001
,
0000
1001
0000
1000
,
0010
2000
3000
0001
,
0000
1000
0001
2000
,
3000
0001
1000
1001
,
0000
0001
0000
0010
,
0000
0100
0100
0100
,
0000
1000
0000
0001
,
0000
0100
0100
0100
,
0000
0010
0000
1000
,
0000
0001
0001
0001
,
0000
0010
0000
0100
,
0100
0100
0000
1001
,
0000
0001
0000
1000
,
0000
0100
0000
1000
,
0000
0001
0000
0100
,
0000
0010
0000
1000
,
0000
0000
0000
0001
,
0000
1000
0000
0100
,
0000
0010
0000
0001
,
0000
0000
0000
1001
,
0000
1000
0000
0001
,
0000
0100
0000
0010
,
0000
1000
0000
0001
,
0000
0010
0000
1001
,
0000
0001
0000
0110
,
0000
1001
0000
1001
,
0000
1000
0000
0001
,
0000
0100
0100
0100
;

//---------------dance-single - ----------------
#NOTES:
     dance-single:
     :
     Easy:
     7:
     0.280256,0.318345,0.085605,0.214014,0.000000,275.000000,263.000000,12.000000,30.000000,0.000000,0.000000,0.280256,0.318345,0.085605,0.214014,0.000000,275.000000,263.000000,12.000000,30.000000,0.000000,0.000000:
0000
0000
0000
0000
,
0000
0000
0000
0000
,
2000
3002
0203
0320
,
2030
3200
0320
0032
,
2003
3020
0230
0302
,
0023
0230
0302
0203
,
2300
3002
0203
2300
,
3200
0302
2003
3002
,
0003
1000
0001
1000
,
0001
0100
0001
1000
,
0001
1000
0100
0010
,
0100
1000
0001
0100
,
0010
1000
0010
0000
0100
0000
0001
0000
,
1000
0001
1000
0000
0100
0000
0010
0000
,
0001
1000
0001
0000
0100
0000
0010
0000
,
1000
0001
1000
0000
0001
0100
0001
0000
,
1000
0100
1000
0000
0001
0000
0100
0000
,
1000
0100
0010
1000
,
0001
0010
0001
0000
1000
0000
0010
0000
,
0100
0000
0001
0000
0010
0000
0100
1000
,
0100
1000
0100
0000
0010
0000
0001
0000
,
1000
0010
0100
0001
,
1000
0001
1000
0000
0100
0000
0010
0000
,
0001
0000
1000
0000
0010
0000
0100
0001
,
0100
0001
0100
0000
0001
0000
1000
0000
,
0100
0010
0001
0100
,
0010
1000
0010
0000
0100
0000
0001
0000
,
0010
0000
0100
0000
1000
0000
0001
1000
,
0001
1000
0001
0000
0100
0000
0010
0000
,
1000
0001
1000
0000
0001
0000
0010
0000
,
0100
1000
0100
0000
0010
0000
0001
0000
,
1000
0000
0001
0100
0001
0000
1000
0100
,
1000
0000
1001
0000
0001
0000
0100
0100
,
0010
0010
2000
0000
3000
0000
0100
0000
,
0010
0000
0001
0001
0100
0100
0020
0000
,
0030
0000
1000
1000
0001
0011
0010
0000
,
0001
0000
1000
0000
0010
0100
0010
0000
,
1000
0000
0001
1000
0001
0000
0010
0000
,
0100
0000
1000
0000
0001
0100
0001
0000
,
1000
0000
0001
0100
0001
0000
1000
0000
,
0100
0000
0010
0000
0001
1000
0001
0000
,
0100
0000
0010
1000
0010
0000
0100
0000
,
0001
0000
1000
0000
0100
0010
0100
0000
,
1100
1001
0101
1001
,
1000
0100
0010
0001
,
0100
0000
0001
0000
1000
0100
1000
0000
,
0001
0100
0001
0010
,
0100
0000
1000
0000
0001
1000
0001
0000
,
0000
0100
0000
0010
,
1000
0001
0000
0020
,
0000
0230
0000
1300
,
0001
0000
0100
0000
0010
1000
0001
0000
,
0010
0000
0001
0000
1000
0000
0010
0100
,
0010
1000
0001
0010
,
0100
0000
1000
0000
0100
0000
0010
0001
,
0010
0001
0100
0110
,
0010
1000
0001
0011
,
0010
1001
0110
1001
,
0000
0000
1000
0000
0100
0010
0100
0000
,
1000
0000
0001
0010
0100
1000
2002
0000
,
0000
0000
0000
0000
,
0000
0000
0000
0000
,
0000
0000
0000
0000
,
0000
0000
0000
3003
;

//---------------dance-single - ----------------
#NOTES:
     dance-single:
     :
     Medium:
     11:
     0.401530,0.454779,0.057070,0.049937,0.117707,394.000000,386.000000,8.000000,7.000000,0.000000,0.000000,0.401530,0.454779,0.057070,0.049937,0.117707,394.000000,386.000000,8.000000,7.000000,0.000000,0.000000:
0000
0000
0000
0000
,
0000
0000
0000
0000
,
1000
0001
0000
1000
0001
0000
0010
0000
,
0100
0010
0001
1000
,
0010
0100
0001
0010
,
0100
0010
0001
1000
,
0010
0000
0100
0000
0001
1000
0000
0001
,
0100
0000
0010
0000
1000
0100
0010
0001
,
0000
0000
1000
0001
0100
0001
1000
0100
,
0010
0000
0001
1000
0001
0100
0001
0000
,
1000
0000
0100
0010
0100
1000
0001
0100
,
0010
0000
1000
0001
0010
0001
1000
0000
,
0010
0100
0001
0000
0010
0100
1000
0001
,
0100
0010
0001
0000
0010
0100
0001
1000
,
0001
0010
1000
0000
0010
0100
1000
0001
,
0100
0000
0010
1000
0001
0000
0010
0000
0100
0000
1000
0000
0010
0000
0100
0000
,
0001
1000
0001
0000
0100
0000
0001
0000
1000
0000
0001
0000
0100
0000
0001
0000
,
0010
0100
1000
0001
0100
0001
1000
0100
,
0010
0001
1000
0001
0100
0010
1000
0001
,
0010
0100
1000
0001
0100
0010
1000
0100
,
0010
0100
1000
0010
0100
0001
1000
0100
,
0010
0001
0100
0001
1000
0100
1000
0001
,
0100
0001
0010
0100
1000
0010
0100
0010
,
1000
0001
0100
0001
1000
0100
0010
0001
,
1000
0001
0100
0000
0010
0000
0100
0000
0001
0000
1000
0000
0100
0000
0010
0000
,
0001
1000
0001
0100
0010
1000
0001
0010
,
0100
1000
0010
0100
0001
1000
0100
0010
,
0001
0100
0001
1000
0100
0010
0001
1000
,
0010
0100
0001
1000
0100
0010
0001
1000
,
0010
0100
0001
1000
0100
0010
0001
1000
,
0010
0100
1000
0100
0001
0010
0100
1000
,
0001
0100
0001
0010
0100
1000
0100
0001
,
0100
0000
0000
0000
1000
0000
0000
0000
0001
0000
0000
0000
0000
0000
0001
0000
0001
0000
0000
0001
0000
0000
0001
0000
0010
0000
0000
0010
0000
0000
0100
0000
,
0100
1000
1000
0000
0020
0000
0000
0000
0030
0000
0000
0000
0100
0000
0000
0100
,
0100
0000
0000
0100
0000
0000
0100
0000
0001
0000
0000
0001
0000
0000
1000
0000
0001
0000
0010
0000
0010
0000
0000
0000
0200
0000
0000
0000
0000
0000
0000
0000
,
0300
0000
0000
0000
0100
0000
0100
0000
1000
0001
1001
0000
1000
0000
0000
1000
,
0000
0000
0001
0000
0100
0000
0000
0100
0000
0000
0001
0000
0010
0000
0000
0010
,
0000
0000
0100
0000
1000
0000
0001
0000
0001
0000
0000
0000
0100
0000
0000
0100
,
0000
0000
0001
0000
1000
0000
0000
1000
0000
0000
0100
0000
0010
0000
0000
0010
,
0000
0000
0001
0000
1000
0000
0010
0000
0010
0000
0000
0000
0100
0000
0000
0100
,
0000
0000
0001
0000
0010
0000
0000
0010
0000
0000
0100
0000
1000
0000
0000
1000
,
0000
0000
0001
0000
0100
0000
0010
0000
0010
0000
0000
0000
1000
0000
0000
1000
,
0000
0000
0001
0000
0010
0000
0000
0010
0000
0000
0001
0000
0011
0000
0000
0010
,
0100
0000
0000
1000
0001
0000
0100
0000
0101
0000
0000
0000
1001
0000
0000
0000
,
0001
0000
1000
0000
0010
0000
0000
0100
0000
0000
0001
0000
1000
0000
0000
0000
,
0100
0000
0010
0000
1000
0000
0000
0010
0000
0000
0001
0000
0100
0000
0000
0000
,
0010
1000
1000
0000
0001
0010
1000
0000
,
0010
0001
1000
0010
0001
0010
0100
0000
,
0001
1000
0000
0100
,
0010
0002
0000
0203
,
0000
0320
0000
1030
,
0001
0000
0010
0100
1000
0100
0010
0000
,
0001
0000
1000
0010
0001
0000
0010
0100
,
0001
0000
0010
0100
1000
0010
0100
0000
,
0101
0000
0001
0010
1000
0000
0010
0100
,
1000
0000
0001
0100
0010
1000
0001
0000
,
0010
0001
1000
0000
1010
0000
0010
0100
,
1000
0100
0001
0010
0100
1000
1001
0000
,
0000
0001
0100
1000
0001
0010
1000
0001
,
0010
0000
0100
0000
1000
0100
1000
0100
1000
0000
0001
0000
2002
0000
0000
0000
,
0000
0000
0000
0000
,
0000
0000
0000
0000
,
0000
0000
0000
0000
,
0000
0000
0000
3003
;

//---------------dance-single - ----------------
#NOTES:
     dance-single:
     :
     Hard:
     15:
     0.626754,0.727646,0.042803,0.178345,0.856054,615.000000,609.000000,6.000000,25.000000,0.000000,0.000000,0.626754,0.727646,0.042803,0.178345,0.856054,615.000000,609.000000,6.000000,25.000000,0.000000,0.000000:
0000
0000
0000
0000
,
0000
0000
0000
0000
,
0001
1000
0001
1000
0000
0000
0002
0000
0203
0000
0000
0000
0320
0000
0000
0000
,
2030
0000
0000
3002
0000
0000
0013
0100
1000
0002
0000
0000
,
0203
0000
0000
0320
0000
0000
2030
0000
0000
3100
0010
0001
,
2000
3020
0230
0302
,
0023
0000
0000
0000
0230
0000
0000
0000
1300
0001
0100
0010
0002
0000
0000
0000
,
0023
0000
0000
0000
0000
0000
0230
0000
0000
0000
0000
0000
0301
0000
0000
1000
0000
0000
0100
0010
0100
0010
0001
1000
,
0000
0000
0000
0000
0010
0000
0100
0000
0001
0000
1000
0000
0100
0010
0001
0000
,
1000
0000
0010
1000
0000
0001
0100
0001
1000
0000
0001
0100
0000
0001
1000
0000
,
0100
1000
0000
0010
1000
0010
1000
0010
1000
0000
0001
0100
0000
0001
1000
0000
,
0100
0010
0000
0001
1000
0001
1000
0001
1000
0000
0001
0100
0000
0010
1000
0001
,
1000
0000
0100
0010
0001
0000
0000
0000
1000
0010
1000
0010
1000
0000
0001
0010
,
0100
0000
1000
0001
0100
0000
0000
0000
0001
0010
0001
0010
0001
0000
1000
0010
,
0100
0000
0001
0010
0100
0000
0000
0000
0010
0001
0010
0001
0010
0000
0100
1000
,
0001
1000
0010
0100
1000
0100
0010
0100
0010
1000
0001
0000
0010
0100
0010
0100
,
1000
0001
0100
0010
1000
0000
0001
0000
0100
0001
0010
0100
0000
1000
0010
0100
,
0000
0001
0010
0100
1000
0000
0001
1000
0001
0010
0001
0010
0001
0000
1000
0010
,
1000
0001
0010
0100
1000
0000
1000
0001
0100
0001
0010
0001
1000
0000
0001
0100
,
0001
1000
0100
0010
0001
0000
1000
0001
1000
0100
0010
0100
1000
0001
0100
0001
,
0100
0010
1000
0001
0010
0100
1000
0100
0010
0000
0001
1000
0010
0000
1000
0001
,
0010
0100
0001
0100
0010
0000
0001
0100
0001
0010
1000
0010
0100
1000
0100
0010
,
0001
1000
0010
0100
0001
0000
1000
0100
0010
0100
1000
0001
0000
0100
0001
0100
,
0001
1000
0100
0010
0001
0010
0001
1000
0010
1000
0010
0100
0001
1000
0100
0010
,
0100
1000
0001
1000
0001
0100
0010
1000
0001
0000
0000
1000
0001
0000
0010
0000
,
0100
1000
0001
0100
0010
0000
0000
1000
0001
0000
0000
0010
0001
0000
0000
1000
,
0010
0100
0001
1000
0100
0000
0000
0010
0100
1000
0001
0100
0010
1000
0100
0010
,
0001
1000
0001
0100
0001
1000
0100
0010
0001
0000
1000
0010
0100
0001
0010
0000
,
0001
0010
0100
1000
0010
0000
0000
0100
0001
1000
0100
1000
0001
0100
0001
1000
,
0100
0010
0001
0010
0001
1000
0010
1000
0001
0100
0010
1000
0001
0010
0100
1000
,
0010
0000
0000
0000
0110
0000
0000
0000
0100
0001
1000
0100
0010
0000
0000
0000
,
0001
0010
0100
1000
0010
0100
0001
1000
0100
1000
0100
1000
0001
0100
0010
1000
,
0001
0000
0010
0000
0100
0000
1000
0000
0001
0000
0000
0000
0000
0000
0001
0000
0001
0000
0000
0001
0000
0000
0001
0000
1000
0000
0000
1000
0000
0000
0010
0000
,
0010
0100
0100
0000
0002
0000
0000
0000
0003
0000
0000
0000
0100
0000
0000
0100
,
0100
0000
0000
0100
0000
0000
0100
0000
0001
0000
0000
0001
0000
0000
0010
0000
0100
0000
0001
0000
0001
0000
0000
0000
0200
0000
0000
0000
0000
0000
0000
0000
,
0300
0000
0000
0000
0010
0000
0010
0000
0001
1000
1001
0000
0001
0100
0000
0001
,
0100
0000
0001
1000
0000
0001
1000
0000
0001
0000
0010
0000
0100
1000
0000
0100
,
1000
0000
0001
1000
0000
0001
1000
0000
0001
0000
0100
0000
0010
1000
0000
0010
,
1000
0000
0001
1000
0001
0000
1000
0001
1000
0000
0100
0010
1000
0000
0010
0100
,
1000
0000
0001
0100
0010
0100
0010
1000
0001
0010
0100
1000
0001
0000
0100
0000
,
1000
0100
0001
0010
0100
0001
0100
1000
,
0010
0000
0001
0000
0010
0000
0100
0000
1000
0000
0100
0000
0001
0000
1000
0100
,
0010
0000
0100
1000
0001
0000
0100
0001
1000
0000
0100
0010
0001
0010
0001
1000
,
0010
0100
0010
1000
0001
0000
0000
0010
0100
0000
1000
0000
1100
0000
0000
0000
,
0100
1000
0100
0010
0001
0000
0001
1000
0000
0000
0010
0000
0100
0000
0000
0000
,
0001
0000
1000
0100
0010
0000
0100
1000
0000
0000
0001
0000
0100
0000
0000
0000
,
0001
0000
0100
0000
0100
0000
0000
0001
0000
1000
0100
0000
0001
0000
0000
0000
,
0100
0000
0010
0000
0001
1000
0001
0000
0100
0000
0010
0000
1000
0000
0000
0000
,
0100
0000
0000
0010
0000
0000
0001
0000
0000
0000
0000
0000
1000
0000
0000
0010
0000
0000
0100
0000
0001
0000
1000
0000
,
0001
1000
0001
0020
0000
0000
0230
0000
0000
2300
0000
0000
,
0000
0000
0000
3020
0000
0000
0000
0000
0000
0130
0001
0100
,
0001
0000
0010
0100
1000
0000
0010
0100
0001
0000
1000
0000
0100
0000
0000
0000
,
0010
0000
0000
0000
0001
1000
0001
0010
0000
0000
0001
0000
1000
0010
1000
0001
,
0000
0000
0000
0000
0000
0000
1000
0000
0000
0000
0000
0000
0100
0000
0000
0010
0000
0000
0001
0000
0000
1000
0000
0000
0001
0000
0000
0000
0000
0000
0100
0000
0000
0000
0000
0000
0010
0000
0000
0000
1000
0000
0000
0000
0001
0000
0000
0000
,
0010
0000
0000
0000
0001
0100
0001
0010
0000
0000
0100
0000
1000
0001
0100
0001
,
1000
0100
0010
0001
0011
0000
1001
0000
,
1000
0000
0010
0100
1000
0000
0000
0000
0100
0000
0010
1000
0001
0010
0100
1000
,
0001
0100
0010
1000
0001
0000
1000
0010
0100
0000
0001
0000
0101
0000
0000
0000
,
0000
0000
0100
0001
0010
0000
0001
0100
0001
1000
0010
0001
0010
0100
0001
1000
,
0100
0010
0001
0000
1000
0010
0100
0010
1000
0001
1000
0001
2000
0000
0000
0000
,
0000
0000
0000
0000
,
0000
0000
0000
0000
,
0000
0000
0000
0000
,
0000
0000
0000
3000
;

//---------------dance-single - ----------------
#NOTES:
     dance-single:
     A Wish Upon the Stars...:
     Challenge:
     17:
     0.782678,0.841341,0.000000,0.135542,1.319751,768.000000,768.000000,0.000000,19.000000,0.000000,0.000000,0.782678,0.841341,0.000000,0.135542,1.319751,768.000000,768.000000,0.000000,19.000000,0.000000,0.000000:
// measure 0
0000
0000
0000
0000
,  // measure 1
0000
0000
0000
0000
,  // measure 2
1000
0000
0000
0001
0000
0000
0100
0000
0000
0001
0000
0000
0000
0000
0000
0000
0000
0000
0010
0000
0000
0000
0000
0000
0100
0000
0000
0000
1000
0000
0000
0000
0000
0000
0000
0000
0002
0000
0000
0000
0000
0000
0000
0000
0000
0000
0000
0000
,  // measure 3
0203
0000
0000
0320
0000
0000
1030
0010
1000
0001
0010
0000
,  // measure 4
0002
0000
0000
0203
0000
0000
0320
0000
0000
1030
0100
1000
,  // measure 5
0010
0000
0000
0000
0000
0000
0000
0000
0000
0000
0000
0000
0000
0000
0000
0000
0100
0000
0000
0000
0000
0000
0000
0000
0000
0000
0000
0000
0000
0000
0000
0000
0000
0000
0000
0000
0000
0000
0000
0000
0000
0000
0000
0000
0000
0000
0000
0000
1000
0000
0000
0000
0000
0000
0000
0000
0000
0000
0000
0000
0000
0000
0000
0000
0000
0000
0000
0000
0000
0000
0000
0000
0000
0000
0000
0000
0000
0000
0100
0000
0000
0000
0000
0000
0000
0000
0000
0000
0000
0000
0000
0000
0000
0000
0000
0000
0002
0000
0000
0000
0000
0000
0000
0000
0000
0000
0000
0000
0000
0000
0000
0000
0000
0000
0000
0000
0000
0000
0000
0000
0000
0000
0000
0000
0000
0000
0000
0000
0000
0000
0000
0000
0000
0000
0000
0000
0000
0000
0000
0000
0000
0000
0000
0000
0023
0000
0000
0000
0000
0000
0000
0000
0000
0000
0000
0000
0000
0000
0000
0000
0000
0000
0000
0000
0000
0000
0000
0000
0000
0000
0000
0000
0000
0000
0000
0000
0000
0000
0000
0000
0000
0000
0000
0000
0000
0000
0000
0000
0000
0000
0000
0000
,  // measure 6
0230
0000
0000
0000
0000
0000
0000
0000
0000
0000
0000
0000
1300
0000
0000
0000
0001
0000
0000
0000
0010
0000
0000
0000
0100
0000
0000
1000
0000
0000
0001
0000
0000
0100
0000
0000
1000
0000
0000
0000
0000
0000
0100
0000
0000
0000
0000
0000
,  // measure 7
0001
0000
0010
0000
0000
0000
0200
0000
0000
0000
0000
0000
1300
0010
0100
0001
0000
0000
1000
0100
0010
0001
1000
0010
,  // measure 8
0000
0000
0000
0000
1000
0010
0100
0001
1000
0100
0010
0001
1000
0000
0010
0000
,  // measure 9
0100
0000
0001
1000
0100
1000
0001
0100
0001
0000
0010
0100
0000
1000
0001
0000
,  // measure 10
0100
0001
0000
0010
0001
1000
0010
0100
0001
0000
1000
0100
0000
1000
0001
0000
,  // measure 11
0010
0000
0100
1000
0001
0100
0010
1000
0100
0000
0010
0100
0000
1000
0001
1000
,  // measure 12
0100
1000
0001
0100
1000
0000
0000
0000
0100
0010
1000
0001
0010
0100
1000
0001
,  // measure 13
0100
0010
1000
1000
1000
0000
0000
0000
0100
0010
0001
0100
0010
1000
0001
0010
,  // measure 14
0100
1000
0001
0001
0001
0000
0000
0000
0100
0001
1000
0100
0010
0100
1000
0001
,  // measure 15
0100
0000
0010
0000
0100
0000
0001
0000
1000
0000
0100
0000
0010
0000
0000
0001
0000
0000
0100
0000
0000
0001
0000
0000
1000
0000
0000
0100
0000
0000
0010
0000
0000
0100
0000
0000
1000
0000
0000
0001
0000
0000
0100
0000
0000
0010
0000
0000
,  // measure 16
1000
0000
0001
0000
0010
0000
0100
0000
1000
0000
0001
0000
0100
0000
0000
0001
0000
0000
1000
0000
0000
0100
0000
0000
0010
0000
0000
0100
0000
0000
1000
0000
0000
0001
0000
0000
0100
0000
0000
0001
0000
0000
0010
0000
0000
0100
0000
0000
,  // measure 17
1000
0010
0100
0001
1000
0100
0010
0001
1000
0010
0100
0001
1000
0100
0010
0100
,  // measure 18
1000
0010
0100
0001
0010
0100
0010
0001
1000
0010
1000
0100
0010
0100
0001
0100
,  // measure 19
0010
0001
1000
0010
0100
0001
0010
0100
1000
0001
0100
0010
0100
1000
0100
0010
,  // measure 20
1000
0001
0010
0100
1000
0001
0100
0001
0010
0100
1000
0001
0100
0001
1000
0100
,  // measure 21
1000
0010
0100
1000
0100
0010
1000
0001
0010
0100
1000
0010
0001
0010
0100
0001
,  // measure 22
0010
0100
1000
0001
0100
0010
1000
0001
0010
0001
1000
0100
0010
0100
1000
0001
,  // measure 23
0100
0010
1000
0100
0010
0001
0100
0001
1000
0100
0010
0100
1000
0001
0100
0010
,  // measure 24
1000
0000
0001
0000
0010
0000
0100
0000
1000
0000
0001
0000
0100
0000
0000
0010
0000
0000
1000
0000
0000
0001
0000
0000
0010
0000
0000
0100
0000
0000
0010
0000
0000
0001
0000
0000
1000
0000
0000
0010
0000
0000
0100
0000
0000
0001
0000
0000
,  // measure 25
1000
0001
0010
0001
0100
0010
1000
0001
0100
0001
0010
0100
1000
0010
0100
0001
,  // measure 26
1000
0100
0010
0001
0100
0010
1000
0001
0010
0100
1000
0100
0001
0100
0010
0001
,  // measure 27
1000
0001
0100
0010
0001
0010
0100
0001
1000
0100
0010
0001
0100
0010
1000
0001
,  // measure 28
1000
0000
0100
0000
0010
0000
0001
0000
1000
0000
0010
0000
1000
0000
0000
0001
0000
0000
0010
0000
0000
0100
0000
0000
1000
0000
0000
0001
0000
0000
0100
0000
0000
0010
0000
0000
0001
0000
0000
0010
0000
0000
1000
0000
0000
0100
0000
0000
,  // measure 29
0010
0000
0000
0001
0000
0000
0100
0000
0000
0010
0000
0000
1000
0000
0000
0001
0000
0000
0100
0000
0000
0001
0000
0000
0010
0000
0100
0000
1000
0000
0001
0000
0010
0000
0001
0000
1000
0000
0000
0001
0000
0000
0100
0000
0000
1000
0000
0000
,  // measure 30
0100
0001
0010
0100
1000
0010
0100
0001
0010
0100
1000
0001
0100
0010
0001
0010
,  // measure 31
0100
0000
0000
0001
0000
0000
1000
0000
0000
0100
0000
0000
1000
0000
0100
0000
0010
0000
0001
0000
1000
0000
0010
0000
0100
0000
0000
0001
0000
0000
0010
0000
0000
0100
0000
0000
1000
0000
0100
0000
0010
0000
0100
0000
1000
0000
0001
0000
,  // measure 32
0100
0000
0001
0000
0010
0000
0100
0000
2000
0000
0000
0000
0000
0000
0000
0000
3002
0000
0000
0000
0000
0000
0000
0000
0103
0000
0000
0100
0000
0000
0001
0000
,  // measure 33
0001
0100
0100
0000
2000
0000
0000
0000
3000
0000
0000
0000
0200
0000
0000
0301
,  // measure 34
0001
0000
0000
0001
0000
0000
0001
0000
0010
0000
0000
0010
0000
0000
0100
0000
0010
0000
1000
0000
1000
0000
0000
0000
0020
0000
0000
0000
0000
0000
0000
0000
,  // measure 35
0030
0000
0000
0000
0000
0000
0000
0000
0001
0000
0000
0000
0001
0000
0000
0000
1000
0001
1000
0001
1000
0001
1000
0001
1000
0000
0001
0000
0000
0000
0100
0000
,  // measure 36
0001
0000
1000
0100
0000
0010
0001
0000
1000
0010
0100
0001
0010
0001
0000
1000
,  // measure 37
0010
0000
0100
0001
0000
0010
0100
0000
1000
0001
0100
0001
0010
0100
0000
0010
,  // measure 38
0001
0000
1000
0010
0001
0010
0100
0001
1000
0100
0010
0001
0100
0001
1000
0100
,  // measure 39
1000
0000
0000
0001
0000
0000
0100
0000
0000
0010
0000
0000
1000
0000
0001
0000
0010
0000
0100
0000
1000
0000
0001
0000
0100
0000
0010
0000
0100
0000
0001
0000
1000
0000
0100
0000
0010
0000
0000
0001
0000
0000
0100
0000
0000
0001
0000
0000
,  // measure 40
1000
0001
0100
0001
0010
0100
1000
0010
0100
0001
0010
0100
0001
0100
0010
0001
,  // measure 41
1000
0001
0100
0010
0001
0010
1000
0100
0010
0100
0001
0100
1000
0001
0100
0001
,  // measure 42
0010
0000
0000
0100
0000
0000
1000
0000
0000
0001
0000
0000
0100
0000
0000
0010
0000
0000
0001
0000
0000
0010
0000
0000
0100
0000
0000
0001
0000
0000
1000
0000
0000
0100
0000
0000
0010
0000
0001
0000
0010
0000
0100
0000
1000
0000
0001
0000
,  // measure 43
0100
0000
0001
0000
1000
0000
0100
0000
0010
0000
0001
0000
0100
0000
0000
0000
0000
0000
0001
0000
0000
1000
0000
0000
0100
0000
0000
0010
0000
0000
0001
0000
0000
0100
0000
0000
0001
0000
0000
0000
0000
0000
0000
0000
0000
0000
0000
0000
,  // measure 44
0010
0000
0100
0000
1000
0000
0001
0000
0100
0000
0010
0000
1000
0000
0000
0000
0000
0000
1000
0000
0000
0100
0000
0000
0000
0000
0000
0100
0000
0000
0010
0000
0000
0000
0000
0000
0001
0000
0000
0000
0000
0000
0000
0000
0000
0000
0000
0000
,  // measure 45
0100
0000
0000
0001
0000
0000
1000
0000
0100
0000
0010
0000
0001
0000
0000
0000
0000
0000
1000
0000
0000
0010
0000
0000
0000
0000
0000
0010
0000
0000
0100
0000
0000
0000
0000
0000
1000
0000
0000
0000
0000
0000
0100
0000
0000
0000
0000
0000
,  // measure 46
0001
0000
0010
0000
0010
0000
0001
1000
0000
1000
0010
0000
0001
0000
0010
0100
,  // measure 47
0001
1000
0001
0010
1000
0010
0001
1000
0010
0100
0001
0010
0100
0000
0000
0000
,  // measure 48
1000
0000
0000
0001
0000
0000
0100
0000
0000
0010
0000
0000
1000
0000
0000
0000
0000
0000
0000
0000
0000
0000
0000
0000
0001
0000
0000
0000
0000
0000
0010
0000
0000
0000
0000
0000
0100
0000
0000
0000
1000
0000
0000
0000
0010
0000
0000
0000
,  // measure 49
0100
0000
0001
0000
0010
0000
0200
0000
0000
0000
0000
0000
1300
0000
0000
0001
0000
0000
0200
0000
0000
0000
0000
0000
,  // measure 50
0000
0000
0000
0320
0000
0000
0000
0000
0000
1030
0001
0010
,  // measure 51
0100
1000
0010
0100
1000
0100
0010
1000
0001
0010
0100
1000
0010
0000
1000
0001
,  // measure 52
0010
0000
0100
0000
1000
0001
0100
1000
0100
0000
0010
0000
1000
0001
1000
0100
,  // measure 53
0010
0000
0000
0001
0000
0000
1000
0010
0100
0001
1000
0100
0010
0000
0000
0001
0000
0000
1000
0000
0010
0000
0100
0000
,  // measure 54
0001
0000
1000
0000
0001
0100
0001
0010
0100
0000
1000
0000
0010
1000
0100
0010
,  // measure 55
0001
0000
1000
0010
0100
0000
0001
0000
0010
0100
1000
0001
0010
0000
0001
1000
,  // measure 56
0010
0000
0100
0010
0001
0000
0010
0000
0100
0000
0001
1000
0100
0010
0001
0100
,  // measure 57
0010
1000
0100
1000
0001
0000
0100
0010
0001
0010
0100
0001
1000
0000
0000
0000
,  // measure 58
0000
0000
0100
1000
0010
0100
0001
0010
0100
1000
0010
0001
1000
0100
0001
1000
,  // measure 59
0100
0000
0000
0001
0000
0000
0100
0000
0000
0010
0000
0000
0001
0000
0010
0000
0100
0000
1000
0000
0010
0000
1000
0000
0001
0000
0000
1000
0000
0000
0100
0000
0000
0010
0000
0000
0002
0000
0000
0000
0000
0000
0000
0000
0000
0000
0000
0000
,  // measure 60
0000
0000
0000
0000
,  // measure 61
0000
0000
0000
0000
,  // measure 62
0000
0000
0000
0000
,  // measure 63
0000
0000
0000
0003
;
