#VERSION:0.83;
#TITLE:VOLTEXES;
#SUBTITLE:;
#ARTIST:Sota Fujimori;
#TITLETRANSLIT:;
#SUBTITLETRANSLIT:;
#ARTISTTRANSLIT:;
#GENRE:SYSTEM SOUND;
#ORIGIN:REFLEC BEAT colette -winter-;
#TAGS:;
#CREDIT:skeleton made by forcednature;
#BANNER:VOLTEXES.png;
#BACKGROUND:VOLTEXES-bg.png;
#PREVIEWVID:;
#JACKET:VOLTEXES-jacket.png;
#CDIMAGE:;
#DISCIMAGE:;
#LYRICSPATH:;
#CDTITLE:../_YSD cdtitles/ysd sale5 cdtitle.png;
#MUSIC:VOLTEXES.ogg;
#OFFSET:0.915000;
#SAMPLESTART:24.677000;
#SAMPLELENGTH:25.600000;
#SELECTABLE:YES;
#DISPLAYBPM:75.000000:150.000000;
#BPMS:0.000000=150.000000
,192.000000=300.000000
,193.000000=150.000000
,193.500000=75.010002
,194.000000=75.000000
;
#STOPS:56.000000=1.600000
,124.000000=1.600000
,192.000000=0.800000
;
#DELAYS:;
#WARPS:;
#TIMESIGNATURES:0.000000=4=4
,192.000000=2=4
;
#TICKCOUNTS:0.000000=4
;
#COMBOS:0.000000=1
;
#SPEEDS:0.000000=1.000000=0.000000=0
;
#SCROLLS:0.000000=1.000000
;
#FAKES:;
#LABELS:0.000000=Song Start
;
#BGCHANGES:;
#KEYSOUNDS:;
#ATTACKS:
;

//---------------dance-single - ----------------
#NOTEDATA:;
#CHARTNAME:;
#CHARTHASH:3377059593;
#STEPSTYPE:dance-single;
#BANNER:;
#DESCRIPTION:;
#CHARTSTYLE:;
#DIFFICULTY:Beginner;
#METER:2;
#METERF:0.000000;
#LASTSECONDHINT:102.684944;
#RADARVALUES:0.086406,0.177614,0.082478,0.000000,0.000000,66.000000,57.000000,9.000000,0.000000,0.000000,0.000000,0.000000,0.000000,0.000000,0.086406,0.177614,0.082478,0.000000,0.000000,66.000000,57.000000,9.000000,0.000000,0.000000,0.000000,0.000000,0.000000,0.000000;
#CREDIT:YOSEFU;
#DISPLAYBPM:75.000000:150.000000;
#NOTES:
// measure 0
0000
0000
0000
0000
,  // measure 1
0000
0000
0000
0000
,  // measure 2
0000
0000
0000
0000
,  // measure 3
0000
0000
0000
0000
,  // measure 4
0000
0000
0000
0000
,  // measure 5
0000
0000
0000
0000
,  // measure 6
1000
0000
0000
0000
,  // measure 7
0001
0000
0000
0000
,  // measure 8
0100
0000
0000
0000
,  // measure 9
0010
0000
0000
0000
,  // measure 10
1000
0000
0000
0000
,  // measure 11
0001
0000
0000
0000
,  // measure 12
0010
0000
0000
0000
,  // measure 13
0100
0000
0000
0000
,  // measure 14
1001
0000
0000
0000
,  // measure 15
1000
0000
0000
0000
,  // measure 16
0010
0000
0000
0000
,  // measure 17
0100
0000
0000
0000
,  // measure 18
0001
0000
0000
0000
,  // measure 19
0010
0000
0000
0000
,  // measure 20
0100
0000
0000
0000
,  // measure 21
1000
0000
0000
0000
,  // measure 22
0001
0000
0000
0000
,  // measure 23
1001
0000
0000
0000
,  // measure 24
1000
0000
0000
0000
,  // measure 25
0010
0000
0000
0000
,  // measure 26
0100
0000
0000
0000
,  // measure 27
0001
0000
0000
0000
,  // measure 28
0010
0000
0000
0000
,  // measure 29
0100
0000
0000
0000
,  // measure 30
1000
0000
0000
0000
,  // measure 31
1001
0000
0000
0000
,  // measure 32
0001
0000
0000
0000
,  // measure 33
0100
0000
0000
0000
,  // measure 34
0010
0000
0000
0000
,  // measure 35
1000
0000
0000
0000
,  // measure 36
0100
0000
0000
0000
,  // measure 37
0010
0000
0000
0000
,  // measure 38
0001
0000
0000
0000
,  // measure 39
1000
0000
0000
0000
,  // measure 40
0110
0000
0000
0000
,  // measure 41
0001
0000
0000
0000
,  // measure 42
1000
0000
0000
0000
,  // measure 43
0100
0000
0000
0000
,  // measure 44
0010
0000
0000
0000
,  // measure 45
0001
0000
0000
0000
,  // measure 46
1001
0000
0000
0000
,  // measure 47
0110
0000
0000
0000
,  // measure 48
0000
0000
1001
0000
,  // measure 49
0010
0000
0100
0000
,  // measure 50
0001
0000
0110
0000
,  // measure 51
1000
0000
0001
0000
,  // measure 52
0010
0000
0100
0000
,  // measure 53
1000
0000
0010
0000
,  // measure 54
0100
0000
0001
0000
,  // measure 55
0100
0000
0000
1001
0000
0000
0000
0000
;

//---------------dance-single - ----------------
#NOTEDATA:;
#CHARTNAME:;
#CHARTHASH:384184235;
#STEPSTYPE:dance-single;
#BANNER:;
#DESCRIPTION:;
#CHARTSTYLE:;
#DIFFICULTY:Easy;
#METER:8;
#METERF:0.000000;
#LASTSECONDHINT:102.684944;
#RADARVALUES:0.344313,0.456722,0.174120,0.146628,0.022911,263.000000,244.000000,19.000000,16.000000,0.000000,0.000000,0.000000,0.000000,0.000000,0.344313,0.456722,0.174120,0.146628,0.022911,263.000000,244.000000,19.000000,16.000000,0.000000,0.000000,0.000000,0.000000,0.000000;
#CREDIT:YOSEFU;
#DISPLAYBPM:75.000000:150.000000;
#NOTES:
0000
0000
0000
0000
,
0000
0000
0000
0000
,
0000
0000
0000
0000
,
0000
0000
0000
0000
,
1000
0010
0100
0000
0001
0000
1000
0000
,
0002
0000
0000
0003
,
1000
0000
0010
0000
0100
0010
1000
0000
,
0001
0000
0010
0000
0100
0010
0001
0000
,
1000
0000
0001
0000
0100
0010
1000
0000
,
0001
0000
1000
0000
0100
0010
0001
0010
,
0100
0000
0010
0000
0001
1000
0010
0000
,
0100
0000
0001
0000
1000
0100
0010
0000
,
0001
0000
1000
0000
0010
0100
0001
0000
,
0010
0000
0000
0000
0100
0000
1000
0000
0010
0000
0000
0010
0000
0000
0000
0000
,
0110
0000
0000
0110
,
1000
0001
0100
0020
0000
0000
0000
2030
,
0000
0000
0001
0000
0100
0000
3001
0010
,
0100
0000
1000
0001
0000
0001
0200
0000
,
0010
0000
1000
0000
0310
1000
0000
0001
,
1000
0100
0010
0002
0000
0000
1003
0020
,
0000
0000
0001
0000
0100
0000
1030
0001
,
0010
0000
0010
0100
0000
0100
1000
0000
,
0001
0000
0100
0000
0010
1000
0000
0001
,
1000
0001
0010
0200
0000
0000
0000
2300
,
0000
0000
0001
0000
0010
0000
3001
0100
,
0010
0000
1000
0001
0000
0001
0020
0000
,
0100
0000
1000
0000
0130
1000
0000
0001
,
1000
0010
0100
0002
0000
0000
1003
0200
,
0000
0000
0001
0000
0010
0000
1300
0001
,
0100
0000
0000
0110
0000
0000
2002
0000
,
0000
0000
0000
3003
0000
1001
0000
1000
,
0001
0000
0000
0000
,
1000
0000
0010
0100
0001
0000
1000
0000
,
0001
0000
0010
0100
1000
0000
0010
0000
,
0100
0001
0100
0000
0010
1000
0010
0000
,
0100
0001
1000
0000
0001
1000
0100
0000
,
0010
0000
0001
0100
0010
0000
1000
0000
,
0001
0000
1000
0100
0010
0000
0001
0000
,
0100
0010
1000
0000
0100
0010
0001
0000
,
1000
0001
0100
0000
0010
1000
0001
0000
,
1001
0000
1000
0100
0010
0000
0001
0000
,
1000
0000
0001
0100
0010
0000
0100
0000
,
0002
1000
0100
0010
,
2003
0100
0010
0001
,
3100
0000
1000
0010
0100
0000
0001
0000
,
1000
0000
0100
0010
0001
0000
1000
0000
,
0001
0000
0000
0001
0000
0000
0000
0100
0000
0100
0000
0000
0010
0000
1000
0000
,
0001
0000
0000
0001
0000
0000
1000
0000
0000
0000
0000
0000
0000
0000
0100
0000
,
0000
0000
0000
0000
1000
0010
1010
0000
,
0001
0010
0110
0000
1000
0001
0101
0000
,
1000
0100
0110
0000
0001
0100
1010
0000
,
0001
0010
1100
0000
0001
1000
0110
0000
,
1000
0001
0110
0000
0010
0100
1001
0000
,
0100
0010
1001
0000
0001
0100
1010
0000
,
0001
0010
1100
0000
0020
0000
0000
0000
,
0130
0000
0000
1001
0000
0000
0000
0000
;

//---------------dance-single - ----------------
#NOTEDATA:;
#CHARTNAME:;
#CHARTHASH:2406783903;
#STEPSTYPE:dance-single;
#BANNER:;
#DESCRIPTION:;
#CHARTSTYLE:;
#DIFFICULTY:Medium;
#METER:12;
#METERF:0.000000;
#LASTSECONDHINT:102.684944;
#RADARVALUES:0.511887,0.710456,0.256598,0.155792,0.499450,391.000000,363.000000,28.000000,17.000000,0.000000,0.000000,0.000000,0.000000,0.000000,0.511887,0.710456,0.256598,0.155792,0.499450,391.000000,363.000000,28.000000,17.000000,0.000000,0.000000,0.000000,0.000000,0.000000;
#CREDIT:YOSEFU;
#DISPLAYBPM:75.000000:150.000000;
#NOTES:
0000
0000
0000
0000
,
0000
0000
0000
0000
,
0000
0000
0000
0000
,
0000
0000
0000
0000
,
1000
0000
0001
0000
0010
0000
0000
0100
0000
0100
0000
0000
1000
0000
0001
0000
,
0200
0000
0000
0000
0000
0000
0000
0000
0310
0000
0000
1000
0000
0000
0001
0000
,
0100
0010
0000
0010
1000
0000
0000
0000
0001
0000
0010
0000
0100
0000
0000
0000
,
1000
0001
0000
0001
0100
0000
0000
0000
0010
0000
1000
0000
0100
0000
0000
0000
,
0010
0001
0000
0001
1000
0000
0000
0000
0010
0000
0100
0000
0001
0000
0000
0000
,
1000
0100
0000
0100
0010
0000
0000
0000
0001
0100
0000
0100
0010
0000
0000
0000
,
1000
0001
0000
0001
0010
0000
0000
0000
0100
0000
1000
0000
0010
0000
0000
0000
,
0001
0010
0000
0010
0100
0000
0000
0000
0001
0000
1000
0000
0100
0000
0000
0000
,
0001
0100
0000
0100
0010
0000
0000
0000
0001
0000
1000
0000
0010
0000
0000
0000
,
0100
0001
0000
0001
0010
0000
0100
1000
0001
0000
0000
0101
0000
0000
0100
0001
,
2000
0000
0000
3000
,
0001
0000
0100
0000
0010
0000
1000
0001
0000
0001
1000
0000
0001
0000
0010
0000
,
0100
0000
1000
0000
0010
0000
0001
0010
,
1000
0000
0000
0000
0100
0000
0010
0001
0000
0001
0010
0000
0100
0000
1000
0000
,
0001
0100
0000
0100
0001
0000
0000
0000
1000
0000
0100
0000
0000
0000
0010
0000
,
0001
0000
1000
0000
0010
0000
0100
0001
0000
0001
1000
0000
0100
0000
0010
0000
,
0001
0000
0100
0000
0010
0000
0001
0010
,
1000
0000
0001
0000
1000
0000
0100
0010
0000
0010
0100
0000
1000
0001
0000
0001
,
1000
0010
0001
0010
0100
0101
0000
1001
,
1000
0000
0001
0000
0010
0000
0100
1000
0000
1000
0001
0000
0100
0000
0010
0000
,
1000
0000
0001
0000
0010
0000
1000
0010
,
0001
0000
0000
0000
1000
0000
0010
0100
0000
0100
0010
0000
1000
0000
0001
0000
,
0010
0100
0000
0100
0010
0000
0000
0000
0001
0000
0100
0000
1000
0000
0100
0000
,
0010
0000
0100
0000
0001
0000
1000
0100
0000
0100
0010
0000
0001
0000
0100
0000
,
0010
0000
1000
0000
0100
0000
0001
0100
,
1000
0000
0000
1100
0000
0000
0022
0000
,
0000
0000
0000
0000
0033
0000
0000
0000
0001
0100
0010
0000
0000
0000
1000
0000
,
1001
0000
0000
0000
,
0001
0000
0000
0000
0100
0000
0100
0010
0000
1000
0000
0010
0100
0000
0000
0000
,
0001
0000
0000
0000
0010
0000
0010
0100
0000
1000
0000
0010
0100
0000
0000
0000
,
0001
1000
0001
0000
0100
0000
0000
0000
0010
1000
0010
0000
0100
0000
0000
0000
,
0001
1000
0001
0000
1000
0000
0000
0000
0100
0010
0100
0000
1000
0000
0001
0000
,
0100
0000
0000
0000
0010
0000
0010
1000
0000
0001
0000
0010
0001
0000
0000
0000
,
0100
0000
0000
0000
0010
0000
0010
1000
0000
0100
0010
0000
1000
0000
0010
0000
,
0001
0000
0100
0010
0000
1000
0010
0000
0100
0000
0001
1000
0000
0001
0010
0000
,
0100
0000
0001
0000
0100
0000
1000
0000
0001
0000
0000
0110
0000
0000
0000
0000
,
1001
0000
0000
0000
1000
0000
1000
0010
0000
0100
0000
0010
1000
0000
0000
0000
,
0001
0000
0000
0000
0010
0000
0010
0100
0000
0010
0000
0001
0100
0000
0000
0000
,
0010
0000
1000
0001
0000
1000
0001
0000
0100
0000
0000
0000
0010
0000
0000
0000
,
1000
0000
0001
0010
0000
0001
0010
0000
0100
0000
0000
0000
1000
0000
0000
0000
,
0010
0000
0000
0000
0100
0000
0100
0001
0000
0010
0000
0100
1000
0000
0000
0000
,
0001
0000
0000
0000
0100
0000
0100
0010
0000
0001
0010
0000
0100
0000
0001
0000
,
1001
0000
0000
1000
0000
0000
0000
0100
0000
0110
0000
0000
0001
0000
1000
0000
,
1100
0000
0000
1100
0000
0000
0012
0000
0000
0000
0000
0000
0100
0000
0203
0000
,
0000
0000
0000
0000
0000
0000
0000
0000
0301
0000
1000
0000
2010
0000
0000
3001
,
0000
0001
0000
0000
1000
0000
0100
0000
0210
0000
0000
0000
1300
0000
0000
0000
0100
0000
0100
0000
0010
0000
0000
0000
0012
0000
0000
0000
0000
0000
0103
0000
,
0000
0100
0000
0000
0010
0000
1000
0000
2001
0000
0000
0000
3100
0000
0000
0000
0110
0000
0000
0000
0001
0000
0000
0000
1002
0000
0000
0000
0000
0000
1003
0010
,
0000
0100
0000
0000
0010
0000
1000
0000
2001
0000
0000
0000
0100
0000
0000
0000
3001
0000
0000
0000
0010
0000
0000
0000
0110
0000
0000
0000
0000
0000
1000
0100
,
0000
0010
0000
0000
0001
0000
0100
0000
0201
0000
0000
0000
1000
0000
0000
0000
0301
0000
0000
0000
0010
0000
0000
0000
0110
0000
0000
0000
0000
0000
1000
0010
,
0000
0100
0000
0000
0001
0000
0010
0000
0120
0000
0000
0000
1000
0000
0000
0000
0031
0000
0000
0000
1000
0000
0000
0000
1010
0000
0000
0001
0000
0000
0010
0100
,
0000
0010
0000
0011
0000
0000
0001
0000
2001
0000
0000
0000
0000
0000
0000
0000
3020
0000
0000
0000
0000
0000
0000
0000
0230
0000
0000
0000
0000
0000
0000
0000
,
0301
0000
0000
1001
0000
0000
0000
0000
;

//---------------dance-single - YOSEFU----------------
#NOTEDATA:;
#CHARTNAME:YOSEFU;
#CHARTHASH:751613186;
#STEPSTYPE:dance-single;
#BANNER:;
#DESCRIPTION:YOSEFU;
#CHARTSTYLE:;
#DIFFICULTY:Hard;
#METER:15;
#METERF:0.000000;
#LASTSECONDHINT:104.684944;
#RADARVALUES:0.696481,0.949413,0.229106,0.192449,0.870601,532.000000,507.000000,25.000000,21.000000,1.000000,0.000000,0.000000,0.000000,0.000000,0.696481,0.949413,0.229106,0.192449,0.870601,532.000000,507.000000,25.000000,21.000000,1.000000,0.000000,0.000000,0.000000,0.000000;
#CREDIT:YOSEFU;
#DISPLAYBPM:75.000000:150.000000;
#NOTES:
0000
0000
0000
0000
,
0000
0000
0000
0000
,
0000
0000
0000
0000
,
0000
0000
0000
0000
,
1000
0000
0001
0000
0010
0000
0100
1000
0000
1000
0000
0001
0000
0001
0000
0100
,
0010
0000
1000
0000
0010
0000
0100
0000
0001
0000
0000
1000
0000
0000
0200
0000
,
0310
0001
0000
0001
1000
0001
0000
0000
0100
0000
0010
1000
0001
1000
0000
0000
,
0100
0010
0001
0000
1000
0010
0000
0100
0000
0001
0010
0100
1000
0001
0100
0000
,
0010
0100
0000
0100
0001
0100
0000
0100
0010
0000
1000
0001
0010
0000
0000
0000
,
0100
1000
0000
1000
0001
0100
0000
0100
0010
0000
0000
1000
0001
0000
0010
0000
,
0100
1000
0000
1000
0001
1000
0000
1000
0010
0000
0100
0001
1000
0001
0000
0000
,
1000
0100
0010
0000
0001
1000
0000
0010
0000
0100
0001
0010
0100
0000
0000
0000
,
1000
0010
0000
0010
0100
0010
0000
0010
1000
0000
0001
0010
0100
0000
0000
0000
,
1000
0010
0000
0010
0100
0000
1000
0100
0001
0000
0000
0101
0000
0000
0100
0002
,
2000
3003
0000
0000
0000
0000
0000
0000
0000
0000
0000
0000
0000
0000
0000
0000
0000
0000
0000
0000
0000
0000
0000
0000
0110
0000
0000
0000
0000
0000
0000
0000
,
1000
0000
0100
0000
0010
0001
0100
0000
0010
0000
1000
0001
0000
0001
1000
0000
,
0100
0010
0001
0000
1000
0000
0001
1000
0010
0000
0100
0000
1000
0000
0100
0000
,
0001
0000
1000
0010
0100
0000
0001
0000
0010
0100
1000
0000
0001
0000
0000
0000
,
0100
0010
0000
0010
1000
0000
0001
0100
0010
0000
1000
0000
0001
0000
0010
0000
,
0100
0000
1000
0000
0010
0000
0100
0001
1000
0000
0100
0000
0010
0001
1000
0000
,
0010
0100
0001
0000
1000
0000
0100
0010
0001
0000
0100
0000
1000
0000
0100
0000
,
0001
0000
0100
0010
1000
0000
0001
0000
0010
0100
0010
0000
1000
0000
0010
0100
,
1000
0001
0100
0000
0010
0000
1000
0010
0100
0000
0101
0000
0000
0000
1010
0000
,
1000
0000
0010
0000
0100
0001
0010
0000
0100
0000
1000
0001
0000
0001
1000
0000
,
0010
0100
0001
0000
1000
0000
0001
1000
0100
0000
0010
0000
1000
0000
0010
0000
,
0001
0000
1000
0100
0010
0000
0001
0000
0100
0010
1000
0000
0001
0000
0000
0000
,
0010
0100
0000
0100
1000
0000
0001
0010
0100
0000
1000
0000
0001
0000
0100
0000
,
0010
0000
1000
0000
0100
0000
0010
0001
1000
0000
0010
0000
0100
0001
1000
0000
,
0100
0010
0001
0000
1000
0000
0010
0100
0001
0000
0010
0000
1000
0000
0010
0000
,
0110
0000
0000
1100
0000
0000
2020
0000
,
0000
0000
3030
0000
0010
0110
0000
1000
,
2002
3003
0000
0000
0000
0000
0000
0000
0000
0000
0000
0000
0000
0000
0000
0000
0000
0000
0000
0000
0000
0000
0000
0000
0000
0000
0000
0000
0000
0000
0000
0000
,
1000
0000
0001
0000
0100
0001
1000
0010
0000
0100
0001
0000
0010
0000
0100
1000
,
0001
0000
0100
0000
0010
1000
0010
0100
1000
0100
0010
0000
0100
0000
0001
0010
,
0100
1000
0001
0000
1000
0100
1000
0001
0100
0010
1000
0001
0000
0010
0000
0100
,
0000
1000
0010
0100
0001
1000
0100
0000
0010
0100
0010
1000
0000
0010
0000
0001
,
0000
0000
0100
0000
0010
1000
0001
0100
0000
0010
1000
0000
0100
0000
0010
0001
,
1000
0000
0010
0000
0100
0010
0100
1000
0000
0100
0001
0000
0010
0000
1000
0010
,
0100
1000
0001
0100
0000
0010
1000
0001
0010
0100
0010
0001
1000
0001
1000
0001
,
0100
0010
1000
0000
0001
0010
0100
0000
1000
0001
0100
1000
0000
0100
0010
0100
,
0001
0000
1000
0000
0100
0010
0001
1000
0000
0000
0010
0000
0110
0000
0000
0000
,
0100
0000
0001
0000
1000
0100
0010
1000
0000
0010
0100
0000
1000
0001
0100
0000
,
0010
0000
0100
0001
0000
1000
0010
0000
0100
0001
1000
0000
0100
0000
0000
0000
,
0010
0000
0001
1000
0000
0010
0100
1000
0000
0100
0010
0000
1010
0000
0000
0000
,
1000
0000
0001
0000
0010
0100
1000
0001
0000
0000
0100
0000
0110
0000
0000
0000
,
0010
0000
1000
0000
0001
0010
0100
0001
0000
0100
1000
0000
0001
0000
0100
0000
,
0110
0000
0010
1000
0000
0001
0010
0100
0010
0001
0000
0000
1000
0000
0010
0000
,
1010
0000
0000
1100
0000
0100
0010
0000
0001
0000
0001
0000
1000
0000
0020
0000
,
0000
0000
0000
0000
0000
0000
0000
0000
0000
0000
0000
0000
0000
0000
0000
0000
1030
0000
0000
0000
0010
0000
0000
0000
0120
0000
0000
0000
0000
0000
0130
0001
,
0100
0001
0000
0001
1000
0000
0100
0000
1200
0000
0000
0000
0310
0000
0001
0000
0100
0000
0100
0000
0010
0000
1000
0000
2010
0000
0000
0000
0001
0000
3100
0010
,
0100
0010
0000
0010
0001
0000
1000
0010
0100
0000
0010
0000
0001
0000
0010
0000
1000
0000
0000
0000
0001
0000
0000
0000
1002
0000
0000
0000
0010
0000
1003
0100
,
1000
0100
0000
0100
0010
0000
0001
0000
1002
0000
0000
0000
0100
0000
0000
0000
0013
0000
0000
0000
0100
0000
0000
0000
1200
0000
0000
0000
0010
0000
1300
0001
,
1000
0001
0000
0001
0100
0000
0010
1000
0002
0000
0000
0000
0100
0000
0000
0000
1003
0000
0000
0000
0100
0000
0000
0000
0210
0000
0000
0000
1000
0000
0310
0001
,
0010
0001
0000
0001
0100
0000
0010
0000
1020
0000
0000
0000
0100
0000
0000
0000
1030
0000
0000
0000
0001
0000
0000
0000
0021
0000
0000
0100
0000
0000
0031
1000
,
0001
1000
0000
1000
0010
0000
0100
0001
2000
0000
0000
0000
0100
0000
0000
0000
3002
0000
0000
0000
0100
0000
0000
0000
0023
0000
0000
0000
1000
0000
0000
0000
,
0031
0000
0000
1001
0000
0000
0000
0000
,
00M0
0000
0000
0000
;

//---------------dance-double - ----------------
#NOTEDATA:;
#CHARTNAME:;
#CHARTHASH:936265980;
#STEPSTYPE:dance-double;
#BANNER:;
#DESCRIPTION:;
#CHARTSTYLE:;
#DIFFICULTY:Beginner;
#METER:1;
#METERF:0.000000;
#LASTSECONDHINT:102.684944;
#RADARVALUES:0.078550,0.152241,0.027493,0.000000,0.000000,60.000000,57.000000,3.000000,0.000000,0.000000,0.000000,0.000000,0.000000,0.000000,0.078550,0.152241,0.027493,0.000000,0.000000,60.000000,57.000000,3.000000,0.000000,0.000000,0.000000,0.000000,0.000000,0.000000;
#CREDIT:YOSEFU;
#DISPLAYBPM:75.000000:150.000000;
#NOTES:
00000000
00000000
00000000
00000000
,
00000000
00000000
00000000
00000000
,
00000000
00000000
00000000
00000000
,
00000000
00000000
00000000
00000000
,
00000000
00000000
00000000
00000000
,
00000000
00000000
00000000
00000000
,
00001000
00000000
00000000
00000000
,
00010000
00000000
00000000
00000000
,
00001000
00000000
00000000
00000000
,
01000000
00000000
00000000
00000000
,
00010000
00000000
00000000
00000000
,
10000000
00000000
00000000
00000000
,
01000000
00000000
00000000
00000000
,
00100000
00000000
00000000
00000000
,
00011000
00000000
00000000
00000000
,
00010000
00000000
00000000
00000000
,
00000010
00000000
00000000
00000000
,
00000100
00000000
00000000
00000000
,
00000001
00000000
00000000
00000000
,
00000010
00000000
00000000
00000000
,
00000100
00000000
00000000
00000000
,
00010000
00000000
00000000
00000000
,
00001000
00000000
00000000
00000000
,
00010000
00000000
00000000
00000000
,
00001000
00000000
00000000
00000000
,
01000000
00000000
00000000
00000000
,
00010000
00000000
00000000
00000000
,
10000000
00000000
00000000
00000000
,
01000000
00000000
00000000
00000000
,
00100000
00000000
00000000
00000000
,
00010000
00000000
00000000
00000000
,
10010000
00000000
00000000
00000000
,
10000000
00000000
00000000
00000000
,
00100000
00000000
00000000
00000000
,
01000000
00000000
00000000
00000000
,
00001000
00000000
00000000
00000000
,
00010000
00000000
00000000
00000000
,
00000100
00000000
00000000
00000000
,
00001000
00000000
00000000
00000000
,
00000010
00000000
00000000
00000000
,
00000100
00000000
00000000
00000000
,
00000001
00000000
00000000
00000000
,
00000010
00000000
00000000
00000000
,
00000100
00000000
00000000
00000000
,
00010000
00000000
00000000
00000000
,
00001000
00000000
00000000
00000000
,
00100000
00000000
00000000
00000000
,
01000000
00000000
00000000
00000000
,
00000000
00000000
10000000
00000000
,
00100000
00000000
01000000
00000000
,
00001000
00000000
00010000
00000000
,
00000100
00000000
00000010
00000000
,
00000001
00000000
00000100
00000000
,
00000010
00000000
00010000
00000000
,
00001000
00000000
00100000
00000000
,
01000000
00000000
00000000
01100000
00000000
00000000
00000000
00000000
;

//---------------dance-double - ----------------
#NOTEDATA:;
#CHARTNAME:;
#CHARTHASH:3589889340;
#STEPSTYPE:dance-double;
#BANNER:;
#DESCRIPTION:;
#CHARTSTYLE:;
#DIFFICULTY:Easy;
#METER:7;
#METERF:0.000000;
#LASTSECONDHINT:102.684944;
#RADARVALUES:0.295873,0.355228,0.091642,0.174120,0.027493,226.000000,216.000000,10.000000,19.000000,0.000000,0.000000,0.000000,0.000000,0.000000,0.295873,0.355228,0.091642,0.174120,0.027493,226.000000,216.000000,10.000000,19.000000,0.000000,0.000000,0.000000,0.000000,0.000000;
#CREDIT:YOSEFU;
#DISPLAYBPM:75.000000:150.000000;
#NOTES:
00000000
00000000
00000000
00000000
,
00000000
00000000
00000000
00000000
,
00000000
00000000
00000000
00000000
,
00000000
00000000
00000000
00000000
,
00010000
00001000
00000010
00000100
,
00000002
00000000
00000000
00000003
,
00001000
00000100
00000010
00000001
,
00000100
00001000
00010000
01000000
,
10000000
00010000
10000000
01000000
,
00100000
00001000
00010000
00000010
,
00000100
00000001
00001000
00000100
,
00000010
00001000
00010000
00100000
,
01000000
00010000
10000000
01000000
,
00100000
00000000
00000000
00000000
00010000
00000000
00000000
00000000
01000000
00000000
00000000
01000000
00000000
00000000
00000000
00000000
,
01100000
00000000
00000000
00000110
,
00000001
00000000
00001000
00000200
00000000
00000000
00001300
00000020
,
00000000
00000001
00000100
00001030
,
00000200
00000000
00000000
00000320
00000000
00000000
00000032
00000000
,
00000100
00000000
00001000
00000000
00000103
00000001
00000000
00000100
,
00000010
00000000
00010000
00002000
00000000
00000000
00103000
00002000
,
00000000
00000000
00100000
00000000
00010000
00000000
01003000
00010000
,
10000000
00000000
00000000
10100000
00000000
00000000
01020000
00000000
,
10000000
00000000
00100000
00000000
10030000
00010000
00000000
00010000
,
10000000
00000000
00010000
00200000
00000000
00000000
00310000
02000000
,
00000000
10000000
00100000
03010000
,
00200000
00000000
00000000
02300000
00000000
00000000
23000000
00000000
,
00100000
00000000
00010000
00000000
30100000
10000000
00000000
00100000
,
01000000
00000000
00001000
00020000
00000000
00000000
00030100
00020000
,
00000000
00000000
00000100
00000000
00001000
00000000
00030010
00001000
,
00000001
00000000
00000000
00000101
00000000
00000000
00002020
00000000
,
00000000
00003030
00000000
00000000
00000000
00001100
00000000
00001000
,
00000001
00000000
00000000
00000000
,
10010000
00000000
10000000
01000000
00100000
00000000
00001000
00000000
,
00010000
00000000
00000010
00000100
00000001
00000000
00001000
00000000
,
00000100
00000010
00001000
00010000
,
00100000
01000000
00010000
10000000
,
01000000
00000000
00100000
00001000
00010000
00000000
00000010
00000000
,
00000100
00000000
00000001
00001000
00000100
00000000
00000010
00000000
,
00001000
00010000
00100000
01000000
,
00010000
00000000
00000000
00000000
00100000
00000000
00000000
00000000
01000000
00000000
00000000
01000000
00000000
00000000
00000000
00000000
,
10010000
00000000
10000000
00100000
01000000
00000000
00001000
00000000
,
00010000
00000000
00000100
00000010
00000001
00000000
00000100
00000000
,
00001000
00010000
00100000
01000000
,
10000000
01000000
00010000
10000000
,
01000000
00000000
00010000
00001000
00000100
00000000
00000001
00000000
,
00000010
00000000
00001000
00010000
00100000
00000000
01000000
00000000
,
00010000
00000000
00000000
00010000
00000000
00000000
00000000
10000000
00000000
10000000
00000000
00000000
01000000
00000000
00000000
00000000
,
00100000
00000000
00000000
00100000
00000000
00000000
00001000
00000000
00000000
00000000
00000000
00000000
00000000
00000000
00010000
00000000
,
00000000
00000000
00000000
00000000
00001000
00000010
00000001
00000000
,
00000100
00001000
00010000
00000000
00001000
01000000
00100000
00000000
,
10000000
01000000
00010000
00000000
00001000
00000100
00000001
00000000
,
00000010
00000100
00001000
00000000
00000001
00000100
00001000
00000000
,
00010000
01000000
10000000
00000000
00010000
00100000
01000000
00000000
,
10000000
00100000
00010000
00000000
00001000
00000100
00000001
00000000
,
00000010
00001000
00010000
00100000
02000000
00000000
00000000
00000000
,
13000000
00000000
00000000
10010000
00000000
00000000
00000000
00000000
;

//---------------dance-double - ----------------
#NOTEDATA:;
#CHARTNAME:;
#CHARTHASH:2489016321;
#STEPSTYPE:dance-double;
#BANNER:;
#DESCRIPTION:;
#CHARTSTYLE:;
#DIFFICULTY:Medium;
#METER:12;
#METERF:0.000000;
#LASTSECONDHINT:102.684944;
#RADARVALUES:0.451665,0.710456,0.274927,0.128299,0.302419,345.000000,315.000000,30.000000,14.000000,0.000000,0.000000,0.000000,0.000000,0.000000,0.451665,0.710456,0.274927,0.128299,0.302419,345.000000,315.000000,30.000000,14.000000,0.000000,0.000000,0.000000,0.000000,0.000000;
#CREDIT:YOSEFU;
#DISPLAYBPM:75.000000:150.000000;
#NOTES:
00000000
00000000
00000000
00000000
,
00000000
00000000
00000000
00000000
,
00000000
00000000
00000000
00000000
,
00000000
00000000
00000000
00000000
,
00010000
00001000
01000000
00010000
10000000
00010000
01000000
00001000
,
00020000
00000000
00000000
00000000
00000000
00000000
00000000
00000000
00031000
00000000
00000000
00000010
00000000
00000000
00000100
00000000
,
00001000
00000000
00000000
00000001
00000000
00000000
00000100
00000000
00000000
00001000
00000000
00000000
00010000
00001000
00000000
00001000
,
01000000
00000000
00100000
00000000
10000000
00000000
00000000
00010000
00000000
10000000
00000000
01000000
00100000
00000000
00000000
00000000
,
00001000
00000000
00000000
00010000
00000000
00000000
00000010
00000000
00000000
00001000
00000000
00000000
00000001
00000000
00000010
00000000
,
00000100
00001000
00000000
00001000
00000100
00000000
00000000
00000000
00000010
00000001
00000000
00000001
00000010
00000000
00000000
00000000
,
00000001
00000000
00000000
00000100
00000000
00000000
00001000
00000000
00000000
00010000
00000000
00000000
01000000
00100000
00000000
00100000
,
00010000
00000000
10000000
00000000
00100000
00000000
00000000
01000000
00000000
00001000
00000000
00010000
00000100
00000000
00000000
00000000
,
00000010
00000000
00000000
00000001
00000000
00000000
00000100
00000000
00000000
00001000
00000000
00000000
00010000
00000000
00100000
00000000
,
01000000
00000000
00010000
00000000
10000000
00000000
00000000
00000000
11000000
00000000
00000000
01000000
00000000
00000000
00100000
00000000
,
00010000
00000000
00000000
00001001
,
00001000
00000010
00000100
00000001
00000000
00001000
00000100
00000010
,
00000200
00000000
00010000
00000000
00000000
00010000
00000000
00000000
00001300
00000000
00000000
00000000
00000010
00000000
00000100
00000000
,
00010000
00000000
00010000
00001000
00000000
00001000
02000000
00000000
,
00000000
00000000
00100000
00000000
00000000
00100000
00000000
00000000
03010000
00000000
10000000
00000000
00000000
00000000
01000000
00000000
,
00100000
00001000
00010000
00000010
00000000
00000100
00001000
00020000
,
00000000
00000000
00100000
00000000
00000000
00100000
00000000
00000000
00031000
00000000
00000000
00000000
00100000
00000000
01000000
00000000
,
10000000
00000000
10000000
00100000
00000000
00100000
00020000
00000000
,
00001000
00000000
00000100
00000000
00031000
00000010
00000000
00000001
,
00000100
00001000
00010000
01000000
00000000
10000000
00100000
02000000
,
00000000
00000000
10000000
00000000
00000000
10000000
00000000
00000000
03100000
00000000
00000000
00000000
01000000
00000000
00010000
00000000
,
10000000
00000000
01000000
00010000
00000000
00001000
00000200
00000000
,
00000000
00000000
00000010
00000000
00000000
00000010
00000000
00000000
00000301
00000000
00001000
00000000
00000000
00000000
00000100
00000000
,
00000010
00000001
00000100
00000010
00000000
00010000
00001000
00200000
,
00000000
00000000
01000000
00000000
00000000
01000000
00000000
00000000
00310000
00000000
00000000
00000000
10000000
00000000
00100000
00000000
,
01100000
00000000
00000000
01010000
00000000
00000000
20200000
00000000
,
00000000
30300000
00000000
00000000
00000000
10100000
00000000
00010000
,
01000000
00000000
00000000
00000000
,
00000001
00000000
00000100
00000010
00001000
00000000
00001001
00000000
,
00000001
00000000
00000010
00000100
00010000
00000000
00011000
00000000
,
00001000
00000000
01000000
00000000
00000000
00000000
00100000
00000000
10000000
00000000
00010000
10000000
00000000
00010000
10000000
00000000
,
01000000
00000000
00100000
00000000
00001000
00000000
00000000
00000000
00010000
00000000
00000010
00001000
00000000
00000010
00000100
00000000
,
00000001
00000000
00000010
00001000
00010000
00000000
00011000
00000000
,
00100000
00000000
00001000
01000000
00100000
00010000
00100000
10000000
,
00010000
00000000
00100000
00000000
00000000
00000000
01000000
00000000
10000000
00000000
00000000
00010000
00000000
01000000
00000000
00001000
,
00010000
00000000
00000100
00000000
00000010
00000000
00000001
00000000
00000100
00000000
00000010
00001000
00000000
00000010
00001000
00000000
,
00000001
00000000
00000010
00001000
00010000
00000000
00101000
00000000
,
00001000
00000000
01000000
00100000
10000000
00000000
10010000
00000000
,
00010000
01000000
00100000
01000000
00001000
00010000
00000100
00000010
,
00000001
00000100
00001000
00010000
01000000
10000000
00100000
00000000
,
01000000
00000000
00010000
00100000
01000000
00000000
11000000
00000000
,
10000000
00000000
00100000
00010000
00001000
00000010
00000001
00000100
,
00000101
00000000
00000000
00000101
00000000
00000000
00000000
00000001
00000000
00001001
00000000
00000000
00001000
00000000
00000100
00000000
,
00010000
00000000
00000000
00011000
00000000
00000000
01001000
00000000
00000000
00000000
00000000
00000000
00000000
00000000
02000000
00000000
,
00000000
00000000
00000000
00000000
00000000
00000000
00000000
00000000
03010000
00000000
10000000
00000000
10100000
00000000
00000000
00010000
,
00000000
00010000
00000000
00000000
10000000
00000000
01000000
00000000
01100000
00000000
00000000
00000000
00010000
00000000
00000000
00000000
01000000
00000000
01000000
00000000
00001000
00000000
00000000
00000000
00011000
00000000
00000000
00000000
00000000
00000000
00010000
00000000
,
00000000
00010000
00000000
00000000
00000100
00000000
00001000
00000000
00000001
00000000
00000000
00000000
00001000
00000000
00000000
00000000
00001100
00000000
00000000
00000000
00000001
00000000
00000000
00000000
00000101
00000000
00000000
00000000
00000000
00000000
00000100
00000000
,
00000000
00000100
00000000
00000000
00000010
00000000
00010000
00000000
00002000
00000000
00000000
00000000
00100000
00000000
00000000
00000000
00013000
00000000
00000000
00000000
00001000
00000000
00000000
00000000
01001000
00000000
00000000
00000000
00000000
00000000
01000000
00000000
,
00000000
01000000
00000000
00000000
00100000
00000000
10000000
00000000
10010000
00000000
00000000
00000000
00010000
00000000
00000000
00000000
00100000
00000000
00000000
00000000
01000000
00000000
00000000
00000000
01100000
00000000
00000000
00000000
00000000
00000000
00001000
00010000
,
00000000
00001000
00000000
00000000
00010000
00000000
00000010
00000000
00001010
00000000
00000000
00000000
00001000
00000000
00000000
00000000
00000100
00000000
00000000
00000000
00000010
00000000
00000000
00000000
00000011
00000000
00000000
00001000
00000000
00000000
00000001
00000100
,
00000000
00000010
00000000
00001010
00000000
00000000
00010000
00000000
00011000
00000000
00000000
00000000
00000000
00000000
00000000
00000000
00002000
00000000
00000000
00000000
00000000
00000000
00000000
00000000
02003000
00000000
00000000
00000000
00000000
00000000
00000000
00000000
,
03100000
00000000
00000000
10010000
00000000
00000000
00000000
00000000
;

//---------------dance-double - ----------------
#NOTEDATA:;
#CHARTNAME:;
#CHARTHASH:2174718998;
#STEPSTYPE:dance-double;
#BANNER:;
#DESCRIPTION:;
#CHARTSTYLE:;
#DIFFICULTY:Hard;
#METER:15;
#METERF:0.000000;
#LASTSECONDHINT:102.684944;
#RADARVALUES:0.658515,0.913444,0.265762,0.137463,0.866019,503.000000,474.000000,29.000000,15.000000,0.000000,0.000000,0.000000,0.000000,0.000000,0.658515,0.913444,0.265762,0.137463,0.866019,503.000000,474.000000,29.000000,15.000000,0.000000,0.000000,0.000000,0.000000,0.000000;
#CREDIT:YOSEFU;
#DISPLAYBPM:75.000000:150.000000;
#NOTES:
00000000
00000000
00000000
00000000
,
00000000
00000000
00000000
00000000
,
00000000
00000000
00000000
00000000
,
00000000
00000000
00000000
00000000
,
00010000
00000000
00001000
00000000
00000010
00000000
00000100
00001000
00000000
00001000
00000000
00000001
00000000
00000001
00000000
00000100
,
00000010
00000000
00000000
00000000
00000000
00000000
00000000
00000000
00000100
00000000
00000000
00001000
00000000
00000000
00020000
00000000
,
01030000
10000000
00000000
10000000
00100000
10000000
00000000
10000000
00010000
00000000
00000000
01000000
00100000
00000000
10000000
00000000
,
01000000
00000000
00010000
00000000
00001000
00010000
00000000
00010000
00000100
00000000
00001000
00000001
00000100
00000000
00000000
00000000
,
00000010
00001000
00000000
00001000
00000100
00010000
00000000
00001000
01000000
00000000
00000000
00000000
00100000
00000000
10000000
00000000
,
01000000
00010000
00000000
00001000
00000000
00000100
00000000
00000001
00000010
00000100
00000000
00000100
00001000
00000000
00000001
00000000
,
00000100
00000001
00000000
00000001
00001000
00000001
00000000
00000001
00000010
00000000
00000000
00000100
00001000
00000000
00000100
00000000
,
00000010
00000000
00001000
00000000
00010000
00001000
00000000
00001000
00100000
00000000
00010000
10000000
00100000
00000000
00000000
00000000
,
01000000
00010000
00000000
00010000
00100000
00001000
00000000
00010000
00000010
00000000
00000000
00000000
00000100
00000000
00001000
00000000
,
00010000
00100000
00000000
01000000
00010000
10000000
01000000
00000000
01100000
00000000
00000000
00011000
00000000
00000000
00010000
00000020
,
00000200
00000330
00000000
00000000
00000000
00000000
00000000
00000000
00000000
00000000
00000000
00000000
00000000
00000000
00000000
00000000
00000000
00000000
00000000
00000000
00000000
00000000
00000000
00000000
10010000
00000000
00000000
00000000
00000000
00000000
00000000
00000000
,
10000000
00000000
01000000
00000000
00100000
00000000
00001000
00010000
00000000
00010000
00001000
00000000
00010000
00000000
00000010
00000000
,
00000100
00000001
00001000
00000000
00000100
00000010
00000001
00000000
00000100
00000000
00000000
00000000
00001000
00000000
00010000
00000000
,
01000000
00000000
00100000
00010000
10000000
00000000
00100000
00000000
01000000
00001000
00010000
00000000
00000100
00000000
00000010
00000000
,
00000001
00000100
00000010
00000000
00001000
00000001
00000010
00000000
00000100
00000000
00010000
00000000
00001000
00000000
01000000
00000000
,
00100000
00000000
10000000
00000000
01000000
00000000
00010000
00001000
00000000
00001000
00010000
00000000
00000010
00000000
00000100
00000000
,
00000001
00000010
00000100
00000000
00001000
00000001
00000100
00000000
00001000
00000000
00010000
00000000
00100000
00000000
01000000
00000000
,
00010000
00000000
10000000
01000000
00100000
00000000
01000000
00000000
10000000
00100000
01000000
00000000
10000000
00000000
01000000
00000000
,
00001000
00000000
00010000
00000000
00000100
00010000
00000000
00010000
00000100
00000000
00001100
00000000
00000000
00000000
00000011
00000000
,
00000001
00000000
00000010
00000000
00000100
00000000
00010000
00001000
00000000
00001000
00010000
00000000
00001000
00000000
01000000
00000000
,
00100000
10000000
00010000
00000000
00100000
01000000
10000000
00000000
00100000
00000000
00000000
00000000
00010000
00000000
00001000
00000000
,
00000010
00000000
00000100
00001000
00000001
00000000
00000100
00000000
00000010
00010000
00001000
00000000
00100000
00000000
01000000
00000000
,
10000000
00100000
01000000
00000000
00010000
10000000
01000000
00000000
00100000
00000000
00001000
00000000
00010000
00000000
00000010
00000000
,
00000100
00000000
00000001
00000000
00000010
00000000
00001000
00010000
00000000
00010000
00001000
00000000
01000000
00000000
00100000
00000000
,
10000000
01000000
00100000
00000000
00010000
10000000
00100000
00000000
00010000
00000000
00001000
00000000
00000100
00000000
00000010
00000000
,
00000011
00000000
00000000
00001100
00000000
00000000
00220000
00000000
,
00000000
00000000
00330000
00000000
00000000
00000000
00000000
00000000
00100000
01000000
10000000
00000000
00000000
00000000
10000000
00000000
,
20020000
30030000
00000000
00000000
00000000
00000000
00000000
00000000
00000000
00000000
00000000
00000000
00000000
00000000
00000000
00000000
00000000
00000000
00000000
00000000
00000000
00000000
00000000
00000000
00000000
00000000
00000000
00000000
00000000
00000000
00000000
00000000
,
00000001
00000000
00000000
00000000
00000100
00000010
00010000
00001000
00000000
00100000
00000000
00100000
00010000
00000000
01000000
00010000
,
10000000
00000000
00000000
00000000
00100000
01000000
00001000
00010000
00001000
00000100
00000000
00000100
00000010
00000000
00000000
00000000
,
00000001
00000100
00000010
00000000
00001000
00000001
00000000
00000000
00000010
00000100
00001000
00000100
00000000
00000010
00000000
00000001
,
00000000
00000100
00000010
00000000
00000100
00001000
00000000
00000000
00010000
00100000
01000000
00010000
00000000
10000000
00000000
01000000
,
00100000
00000000
00000000
00000000
00010000
01000000
00100000
10000000
00000000
00000000
01000000
00100000
00001000
00000000
00000000
00000000
,
00010000
00000000
00000000
00000000
00100000
00010000
00001000
00010000
00000000
00000100
00000010
00000000
00001000
00000000
00000010
00000000
,
00000001
00001000
00000010
00000000
00000000
00000100
00000001
00001000
00000100
00000010
00000001
00001000
00000000
00000010
00010000
00001000
,
00010000
00000000
00001000
00000000
00000010
00000000
00000100
00000000
00010000
00001000
01000000
00010000
00000000
00100000
01000000
10000000
,
01000000
00000000
00000000
00000000
10000000
00100000
01000000
00010000
00000000
10000000
00000000
10000000
01000000
00000000
00010000
00001000
,
00010000
00000000
00000000
00000000
00000010
00000100
00001000
00010000
00001000
00010000
00000000
00010000
00000100
00000000
00000000
00000000
,
00000010
00000000
00000001
00000100
00000000
00000010
00001000
00000000
00000100
00000010
00000001
00000000
00000100
00000000
00001000
00000000
,
00010000
00000000
00100000
01000000
00000000
00010000
01000000
00100000
10000000
00000000
01000000
00000000
00100000
00000000
00001000
00000000
,
00010000
00000000
00000000
00000000
00100000
01000000
00010000
10000000
00000000
01000000
00000000
01000000
00100000
00000000
00001000
00010000
,
00000010
00000000
00000000
00000000
00000100
00001000
00010000
01000000
00000000
00100000
10000000
00000000
00100000
00000000
00010000
00000000
,
10010000
00000000
00001000
00010000
00000000
00000010
00001000
00000001
00000000
00001001
00000000
00000000
00001000
00000100
00000010
00000001
,
00001000
00000000
00000010
00010000
00000000
00000000
00011000
00000000
00000000
00000000
00000000
00000000
00001000
00000000
02000000
00000000
,
00000000
00000000
00000000
00000000
00000000
00000000
00000000
00000000
00000000
00000000
00000000
00000000
00000000
00000000
00000000
00000000
03010000
00000000
00000000
00000000
10000000
00000000
00000000
00000000
10100000
00000000
00000000
00000000
00000000
00000000
00100000
01000000
,
00000000
01001000
00000000
00001000
00010000
00001000
00010000
00000000
00000100
00000000
00000100
00000000
00000010
00000000
00000010
00000000
00000001
00000000
00000001
00000000
00000100
00000000
00000010
00000000
00001020
00000000
00000000
00000000
00000000
00000000
00000130
00000001
,
00000000
00001001
00000000
00000000
00001000
00000000
00000100
00000010
00000001
00000000
00000100
00000000
00001000
00000000
00010000
00000000
00011000
00000000
00000000
00000000
00001000
00000000
00000000
00000000
02001000
00000000
00000000
00000000
00000000
00000000
03010000
10000000
,
00000000
10010000
00000000
00010000
00100000
01000000
00100000
00000000
00210000
00000000
00000000
00000000
10000000
00000000
00000000
00000000
00310000
00000000
00000000
00000000
01000000
00000000
00000000
00000000
00021000
00000000
00000000
00000000
00000000
00000000
00030100
00000010
,
00000000
00000110
00000000
00000000
00000100
00000000
00001000
00000001
00000100
00000000
00001000
00000000
00010000
00000000
00100000
00000000
01100000
00000000
00000000
00000000
10000000
00000000
00000000
00000000
20100000
00000000
00000000
00000000
00000000
00000000
30010000
00100000
,
00001000
00100000
00000000
00101000
00000000
00001000
00010000
00000000
00010020
00000000
00000000
00000000
00000100
00000000
00000000
00000000
00001030
00000000
00000000
00000000
00000001
00000000
00000000
00000000
00000110
00000000
00000000
00010000
00000000
00000000
00001000
00010000
,
00100000
01000000
00000000
10010000
00000000
00000000
10000000
01000000
00100000
00000000
00000000
00000000
00001000
00010000
00000020
00000000
00000000
00000000
00000100
00000000
00000000
00000000
00000100
00000000
00000000
00000000
00001000
00000000
00000000
00000000
00001030
00000000
,
00000001
00000000
00000000
00011000
00000000
00000000
00000000
00000000
;
