#VERSION:0.83;
#TITLE:Tie-Dye Sky;
#SUBTITLE:;
#ARTIST:GRiZ;
#TITLETRANSLIT:;
#SUBTITLETRANSLIT:;
#ARTISTTRANSLIT:;
#GENRE:Dubstep;
#ORIGIN:Rainbow Brain (2021 Album);
#TAGS:;
#CREDIT:;
#BANNER:Tie-Dye Sky.png;
#BACKGROUND:Tie-Dye Sky-bg.png;
#PREVIEWVID:;
#JACKET:Tie-Dye Sky-jacket.png;
#CDIMAGE:;
#DISCIMAGE:;
#LYRICSPATH:;
#CDTITLE:../_YSD cdtitles/ysd sum mem cdtitle.png;
#MUSIC:Tie-Dye Sky.ogg;
#OFFSET:0.000000;
#SAMPLESTART:39.200001;
#SAMPLELENGTH:12.800000;
#SELECTABLE:YES;
#BPMS:0.000000=150.000000
;
#STOPS:;
#DELAYS:;
#WARPS:;
#TIMESIGNATURES:0.000000=4=4
;
#TICKCOUNTS:0.000000=4
;
#COMBOS:0.000000=1
;
#SPEEDS:0.000000=1.000000=0.000000=0
;
#SCROLLS:0.000000=1.000000
,252.000000=0.000000
,252.375000=0.100000
,252.750000=0.200000
,253.125000=0.300000
,253.500000=0.400000
,253.875000=0.500000
,254.250000=0.600000
,254.625000=0.700000
,255.000000=0.800000
,255.375000=0.900000
,255.750000=1.000000
,256.000000=0.000000
,256.500000=1.000000
,257.000000=0.000000
,257.500000=1.000000
,272.000000=0.000000
,273.000000=0.100000
,273.104156=0.200000
,273.208344=0.300000
,273.312500=0.400000
,273.416656=0.500000
,273.500000=0.600000
,273.604156=0.700000
,273.708344=0.800000
,273.812500=0.900000
,273.916656=1.000000
;
#FAKES:;
#LABELS:0.000000=Song Start
;
#BGCHANGES:;
#KEYSOUNDS:;
#ATTACKS:
;

//---------------dance-single - ----------------
#NOTEDATA:;
#CHARTNAME:;
#CHARTHASH:2559187671;
#STEPSTYPE:dance-single;
#BANNER:;
#DESCRIPTION:;
#CHARTSTYLE:;
#DIFFICULTY:Beginner;
#METER:2;
#METERF:2.000000;
#LASTSECONDHINT:115.199997;
#RADARVALUES:0.133929,0.212838,0.244932,0.000000,0.000000,111.000000,82.000000,29.000000,0.000000,0.000000,0.000000,0.000000,0.000000,0.000000,0.133929,0.212838,0.244932,0.000000,0.000000,111.000000,82.000000,29.000000,0.000000,0.000000,0.000000,0.000000,0.000000,0.000000;
#CREDIT:;
#NOTES:
0000
0000
0000
0000
,
0000
0000
0000
0000
,
0000
0000
0000
0000
,
0000
0000
0000
0000
,
1000
0000
0000
0000
,
0001
0000
0000
0000
,
0100
0000
0000
0000
,
0010
0000
0000
0000
,
1000
0000
0000
0000
,
0100
0000
0000
0000
,
0010
0000
0000
0000
,
0001
0000
0000
0000
,
0100
0000
0000
0000
,
0010
0000
0000
0000
,
1000
0000
0000
0000
,
0100
0000
0000
0000
,
0010
0000
0000
0000
,
0100
0000
0000
0000
,
1000
0000
0000
0000
,
0001
0000
0000
0000
,
0100
0000
0000
0000
,
0010
0000
0000
0000
,
1000
0000
0000
0000
,
0100
0000
0000
0000
,
0010
0000
1001
0000
,
0000
0000
0110
0000
,
0000
0000
1001
0000
,
1000
0000
0000
0000
,
0001
0000
1001
0000
,
0000
0000
0110
0000
,
0000
0000
1001
0000
,
1000
0000
0000
0000
,
0001
0000
0110
0000
,
0000
0000
1001
0000
,
0000
0000
0110
0000
,
0001
0000
0000
0000
,
1000
0000
0110
0000
,
0000
0000
1001
0000
,
0000
0000
0110
0000
,
0001
0000
0000
0000
,
1000
0000
0000
0000
,
0100
0000
0000
0000
,
0010
0000
0000
0000
,
0001
0000
0000
0000
,
1000
0000
0000
0000
,
0010
0000
0000
0000
,
0100
0000
0000
0000
,
0001
0000
0000
0000
,
1000
0000
1001
0000
,
0000
0000
0110
0000
,
0000
0000
1001
0000
,
0010
0000
0010
0000
,
0100
0000
1001
0000
,
0000
0000
0110
0000
,
0000
0000
1001
0000
,
1000
0000
0000
0000
,
0010
0000
0110
0000
,
0000
0000
1001
0000
,
0000
0000
0110
0000
,
0001
0000
0000
0000
,
1000
0000
1001
0000
,
0000
0000
0110
0000
,
0000
0000
1001
0000
,
1000
0000
0000
0000
,
0001
0000
0000
0000
,
1000
0000
1001
0000
,
0001
0000
0110
0000
,
1000
0000
0000
0000
,
0110
0000
0000
0000
,
0001
0000
1001
0000
,
1000
0000
0110
0000
,
0001
0000
0000
0000
,
1000
0000
0000
0000
;

//---------------dance-single - ----------------
#NOTEDATA:;
#CHARTNAME:;
#CHARTHASH:2940304865;
#STEPSTYPE:dance-single;
#BANNER:;
#DESCRIPTION:;
#CHARTSTYLE:;
#DIFFICULTY:Easy;
#METER:6;
#METERF:6.000000;
#LASTSECONDHINT:116.599998;
#RADARVALUES:0.306467,0.400074,0.337838,0.523649,0.000000,254.000000,214.000000,40.000000,62.000000,0.000000,0.000000,0.000000,0.000000,0.000000,0.306467,0.400074,0.337838,0.523649,0.000000,254.000000,214.000000,40.000000,62.000000,0.000000,0.000000,0.000000,0.000000,0.000000;
#CREDIT:YOSEFU;
#NOTES:
// measure 0
0000
0000
0000
0000
,  // measure 1
0000
0000
0000
0000
,  // measure 2
0000
0000
0000
0000
,  // measure 3
0000
0000
0000
0000
,  // measure 4
1000
0000
0010
0000
,  // measure 5
0100
0000
0010
0000
,  // measure 6
1000
0000
0001
0000
,  // measure 7
0010
0000
0100
0000
,  // measure 8
1000
0001
0100
0000
,  // measure 9
0010
1000
0001
1001
,  // measure 10
0000
1000
0010
1010
,  // measure 11
0000
1000
0001
1001
,  // measure 12
1000
0100
0010
0000
,  // measure 13
0001
1000
0010
1010
,  // measure 14
0000
1000
0100
1100
,  // measure 15
0000
1000
0010
1010
,  // measure 16
1000
0001
1000
0001
,  // measure 17
0100
0010
0100
0010
,  // measure 18
1000
0001
1000
0001
,  // measure 19
0010
0100
0010
0100
,  // measure 20
1000
0001
0100
0010
,  // measure 21
1000
0010
0100
0001
,  // measure 22
1000
0100
0010
0001
,  // measure 23
1000
1000
0001
0001
,  // measure 24
0100
0100
0220
0330
,  // measure 25
0001
0001
2002
3003
,  // measure 26
0100
0100
0220
0330
,  // measure 27
0002
0003
2000
3000
,  // measure 28
0001
1000
2002
3003
,  // measure 29
0001
0001
0022
0033
,  // measure 30
0010
0010
0220
0330
,  // measure 31
0100
0100
1000
1000
,  // measure 32
0001
0001
0002
0203
,  // measure 33
0310
0010
2000
3200
,  // measure 34
0310
0010
0002
2003
,  // measure 35
3020
0030
0200
0300
,  // measure 36
0001
1000
0200
0320
,  // measure 37
0031
0001
2000
3020
,  // measure 38
0130
0001
2000
3200
,  // measure 39
0310
0001
0010
0100
,  // measure 40
1000
0000
0001
0000
,  // measure 41
0100
0000
0010
0000
,  // measure 42
0100
0000
0001
0000
,  // measure 43
1000
0000
0100
0000
,  // measure 44
0010
0010
0001
0001
,  // measure 45
1000
1000
0010
0010
,  // measure 46
0100
0001
1000
0100
,  // measure 47
0110
0010
0110
0100
,  // measure 48
1001
1000
0202
0303
,  // measure 49
0001
1000
2200
3300
,  // measure 50
0100
0010
0022
0033
,  // measure 51
0002
0003
1000
0010
,  // measure 52
0110
0100
2002
3003
,  // measure 53
0001
0010
0220
0330
,  // measure 54
0100
1000
2002
3003
,  // measure 55
0002
0000
0000
0003
,  // measure 56
1010
1000
0022
0033
,  // measure 57
0001
0010
2200
3300
,  // measure 58
1000
0010
0220
0330
,  // measure 59
0200
0300
0001
1000
,  // measure 60
1100
0100
0022
0033
,  // measure 61
0001
0100
2020
3030
,  // measure 62
1000
0100
2002
3003
,  // measure 63
0220
0000
0000
0000
,  // measure 64
0330
0000
1001
0001
,  // measure 65
0101
0100
0110
0010
,  // measure 66
2020
3030
1100
1000
,  // measure 67
0002
0003
2000
3000
,  // measure 68
1010
0000
0000
0010
,  // measure 69
0110
0100
0101
0001
,  // measure 70
1000
0100
0110
0010
,  // measure 71
0001
1000
0001
1000
,  // measure 72
0020
0000
0000
0000
0000
0000
0000
0030
;

//---------------dance-single - ----------------
#NOTEDATA:;
#CHARTNAME:;
#CHARTHASH:643335755;
#STEPSTYPE:dance-single;
#BANNER:;
#DESCRIPTION:;
#CHARTSTYLE:;
#DIFFICULTY:Medium;
#METER:10;
#METERF:10.000000;
#LASTSECONDHINT:116.599998;
#RADARVALUES:0.462114,0.553949,0.253378,0.329392,0.097128,383.000000,353.000000,30.000000,39.000000,0.000000,0.000000,0.000000,0.000000,0.000000,0.462114,0.553949,0.253378,0.329392,0.097128,383.000000,353.000000,30.000000,39.000000,0.000000,0.000000,0.000000,0.000000,0.000000;
#CREDIT:YOSEFU;
#NOTES:
0000
0000
0000
0000
,
0000
0000
0000
0000
,
0000
0000
0000
0000
,
0000
0000
0000
0000
,
1000
0000
0000
1000
0000
0000
1000
0000
0000
0010
0000
0000
0010
0000
0000
0000
,
0100
0000
0100
0001
0000
0001
1000
0000
,
0001
0000
0000
0001
0000
0000
0010
0000
0000
0010
0000
0000
0010
0000
0100
0000
,
1000
0000
1000
0010
0000
0010
0100
0000
,
0001
0000
0000
1000
0000
0000
0100
0000
0000
0010
0000
0000
0100
0000
0000
0000
,
1000
0000
0000
0001
0000
0000
0100
0000
0010
0000
0000
0000
0010
0000
0000
0000
,
1000
0000
0000
0001
0000
0000
0010
0000
0100
0000
0000
0000
0100
0000
0000
0000
,
0010
0000
0000
0001
0000
0000
1000
0000
0010
0000
0000
0000
0010
0000
0000
0000
,
0100
0000
0000
0001
0000
0000
1000
0000
0000
0100
0000
0000
0010
0000
0000
0000
,
0001
0000
0000
0100
0000
0000
0010
0000
1000
0000
0000
0000
1000
0000
0000
0000
,
0001
0000
0000
0010
0000
0000
0100
0000
1000
0000
0000
0000
1000
0000
0000
0000
,
0010
0000
0000
0100
0000
0000
0001
0000
1000
0000
0000
0000
1000
0000
0000
0000
,
0100
0000
0000
0100
0000
0000
0100
0000
0000
0010
0000
0000
0010
0000
0000
0000
,
0001
0000
0000
0001
0000
0000
0001
0000
0000
1000
0000
0000
1000
0000
0000
0000
,
0010
0000
0000
0010
0000
0000
0010
0000
0000
0100
0000
0000
0100
0000
0000
0000
,
0001
0000
0000
0001
0000
0000
0001
0000
0000
1000
0000
0000
1000
0000
0000
0000
,
0100
0010
0100
0000
1000
0001
1000
0000
,
0001
0100
0001
0000
1000
0010
1000
0000
,
0001
0010
0100
0000
1000
0001
0100
0000
,
0010
1000
0001
0000
0010
1000
0001
0000
,
0100
0000
0100
0000
0001
0010
0100
0000
,
1000
0000
0010
0000
1000
0001
0100
0000
,
0010
1000
0100
0000
0010
0001
1000
0000
,
0002
0203
0320
0230
,
0301
0010
0100
0000
0010
0001
1000
0000
,
0010
0000
0100
0000
0001
1000
0100
0000
,
0010
0001
0100
0000
0010
1000
0001
0000
,
0010
0000
0000
0000
0000
0000
0001
0000
0000
0000
0000
0000
1000
0000
0000
0000
0000
0000
0000
0000
0000
0000
0000
0000
0010
0000
0000
0000
0000
0000
0000
1000
0000
0000
0000
0000
0001
0000
0000
0000
0000
0000
0000
0000
0000
0000
0000
0000
,
0010
0000
0010
0000
0011
0001
1000
0000
,
0010
0000
0100
0000
0101
0001
1000
0000
,
0100
0000
0010
0000
0011
0001
1000
0000
,
0020
0230
0302
2003
,
3100
0010
0001
0000
1001
1000
0010
0000
,
0100
0000
0001
0000
0011
0010
0100
0000
,
1000
0000
0010
0000
0110
0100
0001
0000
,
1000
0100
0010
0000
0001
0100
0010
0000
,
1000
0000
1000
0000
1000
0000
1000
0010
,
0100
0000
0100
0000
0100
0000
0100
0001
,
0010
0000
0010
0000
0010
0000
0010
0100
,
1000
0000
1000
0000
1000
0000
1000
0001
,
0100
0000
0001
1000
0100
0000
0010
0001
,
1000
0000
0010
1000
0001
0000
1000
0100
,
0010
0001
0010
0001
1000
0010
0100
0000
,
1001
1001
1001
1001
,
0101
0000
0100
0010
2020
0000
3030
0000
,
1000
0001
0000
1000
1001
0001
0010
0100
,
1000
0010
0220
0330
,
0200
0000
0302
0000
1003
0100
2000
0000
,
3001
0000
0100
0010
2020
0000
3030
0000
,
1000
0001
0000
1000
1100
0100
0010
0001
,
1000
0000
0010
0100
0202
0000
0303
0000
,
0002
0000
0000
0003
,
1001
0000
1000
0100
0220
0000
0330
0000
,
0010
1000
0010
0001
0011
0010
0001
1000
,
0010
1000
2002
3003
,
0002
0000
0023
0000
0130
1000
0020
0000
,
0130
0001
0022
0033
,
0010
1000
0010
0001
1001
1000
0010
0100
,
0001
0000
1000
0100
0220
0000
0330
0000
,
2002
0000
0000
0000
,
0003
0000
3000
0000
1001
0001
0010
0100
,
1000
0010
0100
0001
1001
1000
0100
0010
,
0001
0000
0100
0000
0101
0001
0010
0100
,
2000
3200
0302
0203
,
2300
0000
0000
0000
3001
0100
0010
0001
,
0010
1000
0100
0010
0011
0001
0010
0100
,
0001
0100
1000
0000
1001
0001
0100
0010
,
1000
0001
0010
0100
0010
0001
1000
0020
,
0000
0000
0000
0000
0000
0000
0000
0030
;

//---------------dance-single - ----------------
#NOTEDATA:;
#CHARTNAME:that moment when you get the feelin';
#CHARTHASH:1665703793;
#STEPSTYPE:dance-single;
#BANNER:;
#DESCRIPTION:;
#CHARTSTYLE:;
#DIFFICULTY:Hard;
#METER:13;
#METERF:13.000000;
#LASTSECONDHINT:116.599998;
#RADARVALUES:0.608108,0.707823,0.413851,0.599662,0.211149,504.000000,455.000000,49.000000,71.000000,0.000000,0.000000,0.000000,0.000000,0.000000,0.608108,0.707823,0.413851,0.599662,0.211149,504.000000,455.000000,49.000000,71.000000,0.000000,0.000000,0.000000,0.000000,0.000000;
#CREDIT:YOSEFU;
#NOTES:
0000
0000
0000
0000
,
0000
0000
0000
0000
,
0000
0000
0000
0000
,
0000
0000
0000
0000
,
1000
0000
0000
1000
0000
0000
1000
0000
0000
0010
0000
0000
0010
0000
0000
0000
,
0100
0000
0000
0100
0000
0000
0100
0000
0000
0100
0000
0000
0100
0000
0000
0000
,
0001
0000
0000
0001
0000
0000
0001
0000
0000
0010
0000
0000
0010
0000
1000
0000
,
0010
0000
0000
0010
0000
0000
0010
0000
0000
0010
0000
0000
0010
0000
0000
0000
,
0001
0000
1000
0001
0000
0000
0100
0000
0001
1000
0000
0000
0100
0000
0001
0000
,
0100
0000
1000
0001
0000
0000
0010
0000
0001
1000
0000
0000
0100
0000
0100
0000
,
1000
0000
0001
0100
0000
0000
0001
0000
1000
0100
0000
0000
0010
0000
1000
0000
,
0010
0000
0001
1000
0000
0000
0100
0000
1000
0001
0000
0000
0100
0000
0100
0000
,
0010
0000
1000
0001
0000
0000
0010
0000
0001
0100
0000
0000
0010
0000
0001
0000
,
0010
0000
1000
0001
0000
0000
0010
0000
0001
1000
0000
0000
0010
0000
0010
0000
,
0100
0000
0001
1000
0000
0000
0100
0000
0010
0100
0000
0000
1000
0000
0010
0000
,
0001
0000
0010
0100
0000
0000
0001
0000
1000
0100
0000
0000
0010
0000
0010
0000
,
0001
0010
0001
0010
0100
1000
0100
1000
,
0001
0100
0001
0100
0010
1000
0010
1000
,
0001
0010
0100
1000
0001
1000
0100
0010
,
0001
0100
0010
1000
0001
1000
0010
0100
,
0001
1000
0001
0000
1000
0000
0100
0000
0010
0001
0010
0000
0100
0000
1000
0000
,
0001
0100
0001
0000
1000
0000
0100
0000
1000
0001
1000
0000
0001
0000
0100
0000
,
0010
1000
0010
1000
0010
0000
0100
0000
0001
1000
0001
1000
0001
0000
0100
0000
,
0001
0010
0001
0010
1000
0010
1000
0010
,
0001
0000
0001
0000
0201
0001
0010
0010
,
0301
0000
2000
3000
1200
1000
0010
0010
,
1300
0001
0100
0000
0210
0010
0001
0001
,
0320
0032
0023
2030
,
3001
0010
0100
1000
0002
0000
0003
0000
0102
0000
0100
0000
1000
0000
1000
0000
,
0013
0000
0200
0300
2100
0100
0001
0001
,
3010
1000
0002
0003
0012
0010
1000
1000
,
0103
0000
0000
0000
0000
0000
0001
0000
0000
0000
0000
0000
0100
0000
0000
0000
0000
0000
0001
0000
0000
0000
0000
0000
0100
0000
0000
0000
0000
0000
0000
1000
0000
0000
0000
0000
0100
0000
0000
0000
0000
0000
0000
1000
0000
0000
0000
0000
,
0100
0000
0100
0000
0101
0001
0010
0100
,
1100
0000
2000
3000
1010
0010
0100
0001
,
0012
0003
2000
3000
1100
0100
1000
0001
,
0200
2300
3200
0302
,
0013
0100
1000
0001
0200
0000
0300
0000
0110
0000
0010
0000
1000
0000
0001
0000
,
0012
0003
2000
3000
1100
0100
1000
0010
,
0120
0030
2000
3000
1001
0001
0100
1000
,
0100
0000
0010
0100
0001
0000
0010
0100
,
1000
0000
0001
0100
0000
0000
0001
0000
1000
0100
0000
0000
0010
0000
1000
0000
,
0010
0000
0100
1000
0000
0000
0001
0000
1000
0100
0000
0000
0010
0000
1000
0000
,
0010
0000
0001
1000
0000
0000
0010
0000
0100
0001
0000
0000
1000
0000
0100
0000
,
0001
0000
0100
0010
0000
0000
0001
0000
1000
0010
0000
0000
0100
0000
1000
0000
,
0100
0010
0110
0000
0100
0001
1001
0000
,
1000
0100
0110
0000
0010
0001
1001
0000
,
1000
0010
0001
0010
0100
0001
0010
0100
,
1100
0101
0011
1010
,
2100
0000
3001
0001
0021
0000
2000
3000
,
0031
1000
0010
0100
0201
0010
1000
0010
,
0301
0000
0020
0031
0021
0000
2000
3000
,
0032
0000
0203
0000
1300
0100
0001
1000
,
2100
0000
3010
0010
0120
0000
0002
0003
,
1030
0001
0010
0100
1200
0010
0001
0010
,
1300
0000
0020
1030
1020
0000
0002
0003
,
2030
0000
0000
3000
,
2010
0000
3001
0001
0021
0000
2000
3000
,
0031
1000
0001
1000
0001
0000
0100
0000
0210
0000
1000
0000
0010
0000
0001
0000
,
0320
0000
2030
3000
1200
0000
0002
0003
,
2300
0000
3020
0000
0031
0010
1000
0001
,
0012
0000
0203
0300
1020
0000
0002
0003
,
1030
0001
1000
0001
1000
0000
0100
0000
0210
0000
0001
0000
0010
0000
1000
0000
,
0320
0000
0031
1000
1020
0000
0002
0003
,
0230
0000
0000
0000
,
0301
0000
0001
0000
0011
0010
1000
0010
,
0011
0001
0100
1000
1100
0100
0001
0010
,
0021
0030
0002
0003
0101
0100
1000
0100
,
0002
0023
2030
3002
,
0203
0000
0000
0000
1300
0001
0100
1000
,
1100
0100
0001
1000
1100
0100
0001
0100
,
1200
0000
0310
0001
0101
0100
1000
0100
,
0001
0100
0010
0100
0001
1000
0100
0020
,
0000
0000
0000
0000
0000
0000
0000
0030
;
