#TITLE:THE凸GENERATOR;
#SUBTITLE:;
#ARTIST:cosMo@暴走P;
#TITLETRANSLIT:THE GENERATOR;
#SUBTITLETRANSLIT:;
#ARTISTTRANSLIT:cosMo@BousouP;
#GENRE:;
#CREDIT:;
#BANNER:THE GENERATOR.png;
#BACKGROUND:THE GENERATOR-bg.png;
#LYRICSPATH:;
#CDTITLE:../_YSD cdtitles/ysd forgor cdtitle.png;
#MUSIC:THE GENERATOR.ogg;
#OFFSET:-0.442000;
#SAMPLESTART:75.500999;
#SAMPLELENGTH:15.059000;
#SELECTABLE:YES;
#DISPLAYBPM:127.500000:255.000000;
#BPMS:0.000000=255.000000
,56.000000=127.500000
,60.000000=255.000000
,308.000000=127.500000
,312.000000=255.000000
,440.000000=127.500000
,444.000000=255.000000
,476.000000=127.500000
,476.250000=255.000000
,476.500000=510.000000
,477.000000=255.000000
,486.000000=127.500000
,486.250000=255.000000
,486.500000=510.000000
,487.000000=255.000000
;
#STOPS:476.000000=0.235000
;
#BGCHANGES:;
#KEYSOUNDS:;
#ATTACKS:;

//---------------dance-single - you're seeing it correctly... \:>----------------
#NOTES:
     dance-single:
     this is in fact a 13 (slight smile):
     Beginner:
     13:
     0.559032,0.867173,0.351939,0.393836,0.255574,467.000000,425.000000,42.000000,47.000000,0.000000,0.000000,0.559032,0.867173,0.351939,0.393836,0.255574,467.000000,425.000000,42.000000,47.000000,0.000000,0.000000:
// measure 0
0000
0000
0000
0000
,  // measure 1
0000
0000
0000
0000
,  // measure 2
0000
0000
0000
0000
,  // measure 3
0000
0000
0000
0000
,  // measure 4
0000
0000
0000
0000
,  // measure 5
0000
0000
0000
0000
,  // measure 6
0000
0000
0000
0000
,  // measure 7
0000
0000
0000
0000
,  // measure 8
1000
0000
0001
0000
0000
0100
0000
0000
,  // measure 9
0010
0000
0000
1000
0000
0001
0010
0000
,  // measure 10
0000
0000
0100
0000
0000
1000
0000
0000
,  // measure 11
0001
0000
0000
0100
0000
0010
0000
0000
,  // measure 12
1000
0000
0100
0000
0000
0010
0000
0000
,  // measure 13
0001
0000
0000
1000
0000
0010
0100
0000
,  // measure 14
2002
0000
0000
3003
,  // measure 15
1000
0100
0010
0100
,  // measure 16
2000
0010
0100
0001
,  // measure 17
3010
0000
0000
1000
0000
0000
0100
0000
0000
0010
0000
0001
,  // measure 18
1000
0000
0000
0010
0000
0000
0100
0001
0100
0001
0000
1000
,  // measure 19
0001
0010
0100
1000
,  // measure 20
0002
0100
0010
1000
,  // measure 21
0103
0001
1000
0100
,  // measure 22
0010
0001
0010
0001
0000
2000
3001
0000
1000
0001
0000
0000
,  // measure 23
0100
0010
1000
0100
,  // measure 24
0020
0000
0000
0100
0000
0000
1000
0000
0000
0031
0000
0010
,  // measure 25
0100
1000
0001
0100
,  // measure 26
0010
0000
0000
1000
0000
0000
0100
0000
0000
1000
0001
1000
,  // measure 27
0001
0100
1000
0100
,  // measure 28
0020
0000
0000
1030
0001
1000
0001
0000
0000
0010
0000
0000
,  // measure 29
0100
1000
0100
1000
0000
0002
1003
0000
0001
1000
0000
0000
,  // measure 30
0001
0100
0001
0100
0001
0100
0020
0000
0000
0000
0000
0000
,  // measure 31
1030
0010
0100
0001
,  // measure 32
0200
1000
0010
0001
,  // measure 33
0310
0000
0000
1000
0000
0000
0010
0000
0000
0100
0000
0001
,  // measure 34
1000
0000
0000
0100
0000
0000
0010
0001
0010
0001
0000
1000
,  // measure 35
0001
0100
0010
1000
,  // measure 36
0200
0001
0010
1000
,  // measure 37
0310
0001
1000
0010
,  // measure 38
0100
0001
0100
0001
0000
0020
0031
0000
1000
0010
0000
0000
,  // measure 39
0100
0001
1000
0010
,  // measure 40
0200
0000
0000
1000
0000
0000
0001
0000
0000
0310
0000
1000
,  // measure 41
0010
0100
0001
0010
,  // measure 42
0100
0000
0000
1000
0000
0000
0010
0000
0000
1000
0001
1000
,  // measure 43
0100
0010
1000
0010
,  // measure 44
0200
0000
0000
1300
0001
1000
0010
0000
0000
0100
0000
0000
,  // measure 45
0010
1000
0001
1000
0000
0200
1300
0000
0001
0100
0000
0000
,  // measure 46
0001
1000
0001
1000
0001
1000
0200
0000
0000
0000
0000
0000
,  // measure 47
0310
0000
0000
0011
0000
0000
1001
0000
,  // measure 48
0000
1010
0000
0000
0110
0000
0100
0000
,  // measure 49
0101
0000
0000
0011
0000
0000
1100
0000
,  // measure 50
0000
1010
0000
0000
0110
0000
0100
0000
,  // measure 51
0101
0000
0000
1100
0000
0000
1010
0000
,  // measure 52
0000
0101
0000
0000
0011
0000
0010
0000
,  // measure 53
0110
0000
0000
1100
0000
0000
1010
0000
,  // measure 54
0000
0101
0000
0000
0011
0000
0010
0000
,  // measure 55
0110
0000
0000
1100
0000
0000
1001
0000
,  // measure 56
0000
0101
0000
0000
0110
0000
0010
0000
,  // measure 57
1010
0000
0000
1100
0000
0000
1001
0000
,  // measure 58
0000
0011
0000
0000
0110
0000
0100
0000
,  // measure 59
1100
0000
0000
1001
0000
0000
0101
0000
,  // measure 60
0000
0011
0000
0000
0110
0000
0100
0000
,  // measure 61
1100
0000
0000
1001
0000
0000
0101
0000
,  // measure 62
0000
0000
0000
0110
0000
0000
0000
0000
0000
0000
0000
0000
0010
0000
0000
0000
0010
0000
1000
0000
0000
0000
1000
0000
,  // measure 63
0002
0000
0000
0000
,  // measure 64
0000
0000
0000
0000
,  // measure 65
0023
0000
0000
0000
,  // measure 66
0000
0000
0000
0000
,  // measure 67
0230
0000
0000
0000
,  // measure 68
0000
0000
0000
0000
,  // measure 69
2300
0000
0000
0000
,  // measure 70
0000
0000
0000
0000
,  // measure 71
3002
0000
0000
0000
,  // measure 72
0000
0000
0000
0000
,  // measure 73
0203
0001
0000
0000
,  // measure 74
0000
0000
0000
0000
,  // measure 75
0320
0000
0000
0000
,  // measure 76
0000
0000
0000
0000
,  // measure 77
2030
0000
0000
0000
0000
0000
0000
3000
,  // measure 78
0001
0000
0000
0100
0000
0000
0002
0000
0000
0000
0000
0000
0013
0000
0000
0000
,  // measure 79
0100
0000
0000
1000
0000
0000
0002
0000
0000
0000
0000
0000
0103
0000
0000
0000
,  // measure 80
0010
0000
0000
0100
0000
0000
0002
0000
0000
0000
0000
0000
0103
0000
0000
0000
,  // measure 81
1000
0000
0000
0100
0000
0000
0001
0000
2000
0000
0000
0000
0000
0000
0000
0000
,  // measure 82
3100
0000
0000
0100
0000
0000
0100
0000
0000
0200
0000
0000
0000
0000
0000
0000
,  // measure 83
0310
0000
0000
0010
0000
0000
0010
0000
0000
0020
0000
0000
0000
0000
0000
0000
,  // measure 84
0031
0100
1000
0100
,  // measure 85
0001
0001
0010
0010
,  // measure 86
0000
1001
1000
0010
,  // measure 87
0001
0000
0000
0010
0000
0000
2000
0000
0000
0000
0000
0000
3100
0000
0000
0000
,  // measure 88
0001
0100
1000
0001
,  // measure 89
0100
0000
0001
0000
0100
0000
0002
0000
0000
0000
0000
0000
,  // measure 90
2003
0000
0000
3020
0000
0000
0130
0000
0001
2000
0000
0000
,  // measure 91
3200
0000
0000
0310
0000
0001
2000
0000
0000
3020
0000
0000
,  // measure 92
0230
0000
0000
0000
,  // measure 93
0301
1000
0001
1000
0001
1000
0001
0000
,  // measure 94
0200
0000
0010
0000
0301
1000
0001
0000
,  // measure 95
0010
0100
1000
0001
,  // measure 96
0100
0001
0100
0000
0010
0000
1000
0001
,  // measure 97
0000
1000
0010
0000
0100
0000
0001
0000
,  // measure 98
0100
0000
0010
1000
0000
0001
0100
0000
,  // measure 99
0010
0000
1000
0000
0100
1000
0010
0000
,  // measure 100
0100
0000
0001
1000
0000
0100
0010
0002
,  // measure 101
0000
1003
0001
1000
0001
1000
0001
1000
,  // measure 102
0002
0010
1000
0100
,  // measure 103
1003
0001
1000
0000
0001
0100
0001
0000
,  // measure 104
1000
0100
1000
0000
0001
0100
0001
0020
,  // measure 105
0000
0130
1000
0001
,  // measure 106
0100
0000
0001
0100
0000
0001
0010
0000
,  // measure 107
0100
0000
0000
1000
0000
0000
0001
0000
0100
0000
0000
0000
0001
0000
0000
0000
,  // measure 108
1000
0000
0100
1000
0000
0001
0100
0010
,  // measure 109
0000
1000
0001
0000
0010
0000
0100
0000
,  // measure 110
1000
0000
0001
0000
0100
0010
1000
0001
,  // measure 111
2002
0000
0000
0000
,  // measure 112
0000
0000
0000
0000
,  // measure 113
0000
0000
0000
0000
,  // measure 114
0000
0000
3003
0000
,  // measure 115
1000
0100
0000
1000
0010
0000
1000
0100
,  // measure 116
0000
0000
0010
0000
0001
0000
0000
0000
1000
0000
0000
0010
0000
0000
0100
0000
,  // measure 117
0001
1000
0000
0001
0010
0000
0100
1000
,  // measure 118
0000
0000
0000
0001
0000
0000
0100
0000
0000
0000
0000
0000
0010
0000
0000
0000
0010
0000
1000
0000
0000
0000
1000
0000
,  // measure 119
0000
2002
0000
0000
,  // measure 120
0000
0000
0000
0000
,  // measure 121
0000
0000
0000
3003
;

//---------------dance-single - ----------------
#NOTES:
     dance-single:
     :
     Easy:
     16:
     0.829570,1.275254,0.134072,0.243005,0.904985,693.000000,677.000000,16.000000,29.000000,0.000000,0.000000,0.829570,1.275254,0.134072,0.243005,0.904985,693.000000,677.000000,16.000000,29.000000,0.000000,0.000000:
// measure 0
0000
0000
0000
0000
,  // measure 1
0000
0000
0000
0000
,  // measure 2
0000
0000
0000
0000
,  // measure 3
0000
0000
0000
0000
,  // measure 4
0000
0000
0000
0000
,  // measure 5
0000
0000
0000
0000
,  // measure 6
0000
0000
0000
0000
,  // measure 7
0000
0000
0000
0000
,  // measure 8
1001
0000
0001
0000
0000
0100
0000
0000
,  // measure 9
1000
0000
0000
0100
0000
0001
0010
0000
,  // measure 10
0000
0000
0100
0000
0000
1000
0000
0000
,  // measure 11
0100
0000
0000
0001
0000
0100
0000
0000
,  // measure 12
1000
0000
0001
0000
0000
0100
0000
0000
,  // measure 13
0010
0000
0000
0001
0000
0010
1000
0000
,  // measure 14
0002
0000
0000
0000
0023
0000
0000
0130
0000
0000
0100
0000
2000
0000
0000
0000
,  // measure 15
3001
0000
0100
0001
0000
1000
0001
0000
0010
0001
0000
1000
,  // measure 16
0010
0000
0100
0001
0000
1000
0100
0010
0100
1000
0001
0100
,  // measure 17
0010
0000
1000
0001
0000
1000
0100
0000
1000
0001
0000
1000
,  // measure 18
0010
0000
0100
0001
0000
0010
0100
1000
0010
0100
0001
1000
,  // measure 19
0100
0000
0010
0100
0000
1000
0001
0000
0100
0001
0000
1000
,  // measure 20
0010
0000
0100
0001
0000
1000
0100
0010
0100
1000
0001
0100
,  // measure 21
0010
0000
1000
0001
0000
0010
0001
0000
1000
0010
0000
0100
,  // measure 22
0001
1000
0100
0010
0001
0100
0010
1000
0001
0010
0100
1000
,  // measure 23
0001
0000
0010
0001
0000
1000
0010
0000
0100
0001
0000
1000
,  // measure 24
0010
0000
0100
0001
0000
0010
0100
1000
0010
0100
0001
1000
,  // measure 25
0100
0000
1000
0010
0000
0100
0001
0000
1000
0100
0000
0010
,  // measure 26
0100
0000
1000
0001
0000
0100
0010
1000
0100
0010
0100
1000
,  // measure 27
0001
0000
0100
0001
0000
1000
0100
0000
0010
0100
0000
1000
,  // measure 28
0001
0000
0100
0010
0000
0100
1000
0100
0010
0100
0001
1000
,  // measure 29
0100
0010
0001
0010
0100
1000
0001
0100
0010
1000
0010
0100
,  // measure 30
0001
0010
0100
1000
0001
0100
0020
0000
0000
0000
0000
0000
,  // measure 31
1030
0000
0100
1000
0000
0001
1000
0000
0010
1000
0000
0001
,  // measure 32
0010
0000
0100
1000
0000
0001
0100
0010
0100
0001
1000
0100
,  // measure 33
0010
0000
0001
1000
0000
0001
0100
0000
0001
1000
0000
0001
,  // measure 34
0010
0000
0100
1000
0000
0010
0100
0001
0010
0100
1000
0001
,  // measure 35
0100
0000
0010
0100
0000
0001
1000
0000
0100
1000
0000
0001
,  // measure 36
0010
0000
0100
1000
0000
0001
0100
0010
0100
0001
1000
0100
,  // measure 37
0010
0000
0001
1000
0000
0010
1000
0000
0001
0010
0000
0100
,  // measure 38
1000
0001
0100
0010
1000
0100
0010
0001
1000
0010
0100
0001
,  // measure 39
1000
0000
0010
1000
0000
0001
0010
0000
0100
1000
0000
0001
,  // measure 40
0010
0000
0100
1000
0000
0010
0100
0001
0010
0100
1000
0001
,  // measure 41
0100
0000
0001
0010
0000
0100
1000
0000
0001
0100
0000
0010
,  // measure 42
0100
0000
0001
1000
0000
0100
0010
0001
0100
0010
0100
0001
,  // measure 43
1000
0000
0100
1000
0000
0001
0100
0000
0010
0100
0000
0001
,  // measure 44
1000
0000
0100
0010
0000
0100
0001
0100
0010
0100
1000
0001
,  // measure 45
0100
0010
1000
0010
0100
0001
1000
0100
0010
0001
0010
0100
,  // measure 46
1000
0010
0100
0001
1000
0100
0020
0000
0000
0000
0000
0000
,  // measure 47
0031
1000
0000
0001
0100
0000
0001
1000
,  // measure 48
0000
0000
0001
0000
0010
0000
0000
0000
1000
0000
0000
0010
0000
0000
0001
0000
,  // measure 49
1000
0010
0000
1000
0001
0000
1000
0100
,  // measure 50
0000
0000
1000
0000
0010
0000
0000
0000
0001
0000
0000
0010
0000
0000
1000
0000
,  // measure 51
0001
0010
0000
0001
1000
0000
0001
0010
,  // measure 52
0000
0000
0001
0000
0100
0000
0000
0000
1000
0000
0000
0100
0000
0000
0001
0000
,  // measure 53
1000
0100
0000
1000
0010
0000
1000
0001
,  // measure 54
0000
0000
1000
0000
0100
0000
0000
0000
0001
0000
0000
0100
0000
0000
1000
0000
,  // measure 55
0001
1000
0000
0001
0010
0000
0001
1000
,  // measure 56
0000
0000
0001
0000
0100
0000
0000
0000
1000
0000
0000
0100
0000
0000
0001
0000
,  // measure 57
1000
0100
0000
1000
0001
0000
1000
0010
,  // measure 58
0000
0000
1000
0000
0100
0000
0000
0000
0001
0000
0000
0100
0000
0000
1000
0000
,  // measure 59
0001
0100
0000
0001
1000
0000
0001
0100
,  // measure 60
0000
0000
0001
0000
0010
0000
0000
0000
1000
0000
0000
0010
0000
0000
0001
0000
,  // measure 61
1000
0010
0000
1000
0100
0000
1000
0001
,  // measure 62
0000
0000
0000
1000
0000
0000
0010
0000
0000
0000
0000
0000
0100
0000
0001
0000
0100
0000
0001
0000
0100
0000
0001
0000
,  // measure 63
2000
0000
0000
0000
,  // measure 64
0000
0000
0000
0000
,  // measure 65
3200
0010
0000
0000
,  // measure 66
0000
0000
0000
0000
,  // measure 67
2300
0000
0000
0000
,  // measure 68
0000
0000
0000
0000
,  // measure 69
3002
0100
0000
0000
,  // measure 70
0000
0000
0000
0000
,  // measure 71
1003
0000
0100
0000
0000
0010
0000
0000
,  // measure 72
0001
0000
0000
0100
0000
1000
0100
0000
,  // measure 73
0010
0000
1000
0000
0000
0100
0000
0000
,  // measure 74
0001
0000
0000
0100
0000
1000
0000
0000
,  // measure 75
0001
0000
0100
0000
0000
0010
0000
0000
,  // measure 76
0001
0000
0000
0010
0000
1000
0001
0000
,  // measure 77
2002
0000
0000
0000
0000
0000
0000
3003
,  // measure 78
1000
0000
0000
0010
0000
0000
0100
0000
0000
0000
0001
0000
1000
0000
0100
0000
,  // measure 79
0010
0000
0000
0001
0000
0000
0010
0000
0000
0000
0100
0000
1000
0000
0010
0000
,  // measure 80
0100
0000
0000
1000
0000
0000
0100
0000
0000
0000
0001
0000
0010
0000
0100
0000
,  // measure 81
0001
0000
0000
0100
0000
0000
1000
0000
0001
0000
0100
0000
0010
0000
0000
0000
,  // measure 82
1010
0000
0000
1001
0000
0000
0011
0000
0000
1001
0000
0000
1100
0000
0000
0000
,  // measure 83
1001
0000
0000
0101
0000
0000
1001
0000
0000
1100
0000
0000
1001
0000
0000
0000
,  // measure 84
1000
0010
0001
0010
1000
0001
0010
0100
,  // measure 85
0001
0100
1000
0001
0100
0010
1000
0100
,  // measure 86
0010
0000
1001
0000
1000
0010
0001
0010
,  // measure 87
1000
0000
0000
0100
0000
0000
0001
0000
0000
0000
0100
0000
1000
0000
0001
0000
,  // measure 88
0100
1000
0100
0010
1000
0100
0010
0001
,  // measure 89
1000
0001
1000
0001
1000
0001
0200
0000
0000
0000
0000
0000
,  // measure 90
0310
0000
0000
1000
0000
0000
0100
0000
0010
0002
0000
0000
,  // measure 91
0103
0000
0000
0010
0000
1000
0200
0000
0000
0301
0000
0100
,  // measure 92
0020
0000
0000
0000
,  // measure 93
2000
0000
0000
3000
,  // measure 94
0032
0000
0100
0000
1003
0010
0100
0001
,  // measure 95
0010
0100
1000
0001
0200
0000
2300
0000
,  // measure 96
3100
0001
0010
0100
1000
0001
0100
0020
,  // measure 97
0000
1030
0100
0001
0100
1000
0001
0000
,  // measure 98
0100
0000
0001
1000
0000
0001
0010
0100
,  // measure 99
1000
0000
0001
0100
0001
0010
1000
0010
,  // measure 100
0100
0000
1000
0001
0000
1000
0010
0200
,  // measure 101
0000
1300
0100
0001
1000
0100
0010
0001
,  // measure 102
0200
0010
1000
0010
,  // measure 103
0301
1000
0100
0010
0000
0000
0100
1000
0001
0100
0000
0000
,  // measure 104
0010
0000
1000
0000
0001
0000
0010
0000
0000
0000
0000
0000
0100
0000
1000
0000
0001
0000
0100
0000
0000
2000
0000
0000
,  // measure 105
0000
3100
0001
0010
0100
1000
0002
0000
,  // measure 106
0103
0000
0001
0010
0000
0100
1000
0010
,  // measure 107
0100
0000
0000
0001
0000
0000
1000
0000
0200
0000
0000
0000
0310
0000
0001
0000
,  // measure 108
0100
0000
1000
0200
0000
0310
1000
0001
,  // measure 109
0000
0010
0100
1000
0001
0100
0010
0000
,  // measure 110
1000
0100
0001
0100
1000
0001
0100
0010
,  // measure 111
1002
0000
0000
0000
,  // measure 112
0000
0000
0000
0000
,  // measure 113
1003
0010
1000
0010
0000
0000
0100
0001
0100
0001
0000
0000
,  // measure 114
1000
0100
0010
0001
0000
0000
1001
0000
0000
0000
0000
0000
,  // measure 115
1000
1000
0000
0100
0100
0000
0001
0001
,  // measure 116
0000
0000
0100
0000
0100
0000
0000
0000
1000
0000
0000
0001
0000
0000
1000
0000
,  // measure 117
0001
0001
0000
0100
0100
0000
1000
1000
,  // measure 118
0000
0000
0000
0100
0000
0000
0100
0000
0000
0000
0000
0000
0001
0000
1000
0000
0001
0000
1000
0000
0001
0000
1000
0000
,  // measure 119
0000
2002
0000
0000
,  // measure 120
0000
0000
0000
0000
,  // measure 121
0000
0000
0000
3003
;

//---------------dance-single - ----------------
#NOTES:
     dance-single:
     :
     Medium:
     18:
     1.031874,1.275254,0.033518,0.335180,1.520877,862.000000,858.000000,4.000000,40.000000,0.000000,0.000000,1.031874,1.275254,0.033518,0.335180,1.520877,862.000000,858.000000,4.000000,40.000000,0.000000,0.000000:
// measure 0
0000
0000
0000
0000
,  // measure 1
0000
0000
0000
0000
,  // measure 2
0000
0000
0000
0000
,  // measure 3
0000
0000
0000
0000
,  // measure 4
0000
0000
0000
0000
,  // measure 5
0000
0000
0000
0000
,  // measure 6
0000
0000
0000
0000
,  // measure 7
0000
0000
0000
0000
,  // measure 8
1001
0000
0001
0000
0000
0100
0000
0000
,  // measure 9
0010
0000
0000
1000
0000
0100
0010
0000
,  // measure 10
0000
0000
0001
0000
0000
0100
0000
0000
,  // measure 11
1000
0000
0000
0100
0000
0001
0000
0000
,  // measure 12
1000
0000
0100
0000
0000
0010
0000
0000
,  // measure 13
0100
0000
0000
1000
0000
0001
0100
0000
,  // measure 14
0020
0000
0000
0000
2030
0000
0000
3100
0000
0000
0100
0000
0020
0000
0000
0000
,  // measure 15
0031
1000
0100
0010
0100
1000
0001
0010
0100
1000
0100
0010
,  // measure 16
0001
1000
0010
0100
0001
1000
0010
0100
0001
1000
0100
0010
,  // measure 17
0001
1000
0010
0100
0001
1000
0100
0010
0100
1000
0001
0100
,  // measure 18
0010
1000
0001
0010
0100
1000
0100
0010
0001
1000
0010
0100
,  // measure 19
0001
1000
0010
0100
0001
1000
0100
0010
0100
1000
0001
0100
,  // measure 20
0010
0100
0001
1000
0100
0010
0001
1000
0010
0100
0001
1000
,  // measure 21
0100
0010
0100
1000
0001
0100
0010
1000
0001
0010
0100
0010
,  // measure 22
0001
1000
0010
0100
0001
1000
0100
0010
0001
0010
0100
1000
,  // measure 23
0001
0100
0010
1000
0001
0010
0100
0010
0001
1000
0010
0100
,  // measure 24
0010
1000
0001
0010
0100
1000
0001
0100
0010
0100
0001
1000
,  // measure 25
0100
0010
0001
1000
0010
0100
0001
1000
0100
0010
0100
1000
,  // measure 26
0001
0100
0010
1000
0001
0010
0100
1000
0001
0100
0010
1000
,  // measure 27
0001
0010
0100
1000
0001
0100
0010
1000
0001
1000
0100
0010
,  // measure 28
0001
0100
0010
1000
0001
0010
0100
1000
0001
0100
0010
1000
,  // measure 29
0100
0010
0001
1000
0010
0100
0001
1000
0100
0010
0001
0100
,  // measure 30
0010
1000
0001
0010
0100
1000
0020
0000
0000
0000
0000
0000
,  // measure 31
0130
0001
1000
0100
0010
0001
0010
0100
1000
0001
0100
0010
,  // measure 32
1000
0100
0010
0001
0100
0010
1000
0001
0010
0100
1000
0010
,  // measure 33
0100
0001
1000
0100
0010
0001
0010
0100
1000
0001
0100
0010
,  // measure 34
1000
0100
0010
0001
0100
0010
1000
0001
0010
0100
0010
0001
,  // measure 35
1000
0010
0100
0001
1000
0100
0010
0100
1000
0001
0100
0010
,  // measure 36
1000
0100
0010
0100
1000
0001
0100
0010
1000
0100
0010
0001
,  // measure 37
1000
0010
0100
0001
1000
0100
0010
0001
0010
0100
1000
0001
,  // measure 38
0100
0010
1000
0100
0010
0001
1000
0010
0100
0010
1000
0001
,  // measure 39
0010
0100
1000
0100
0010
0001
1000
0010
0100
0001
0010
0100
,  // measure 40
1000
0001
0100
0010
1000
0100
0010
0001
1000
0010
0100
0010
,  // measure 41
1000
0001
0010
0100
1000
0001
0100
0001
1000
0100
0010
0001
,  // measure 42
1000
0010
0100
0010
1000
0001
0010
0100
1000
0010
0100
0001
,  // measure 43
1000
0100
0010
0001
1000
0010
1000
0100
0010
0001
1000
0001
,  // measure 44
0100
0001
0010
0100
1000
0001
0100
0010
1000
0100
0010
0001
,  // measure 45
1000
0010
0100
0001
0010
0100
1000
0001
0100
0010
1000
0100
,  // measure 46
0010
0100
1000
0001
0100
0010
2000
0000
0000
0000
0000
0000
,  // measure 47
3001
0001
0000
0100
0100
0000
1000
1000
,  // measure 48
0000
0000
0100
0000
0100
0000
0000
0000
0001
0000
0000
0010
0000
0000
0100
0000
,  // measure 49
1000
1000
0000
0100
0100
0000
0001
0001
,  // measure 50
0000
0000
0100
0000
0100
0000
0000
0000
1000
0000
0000
0010
0000
0000
0100
0000
,  // measure 51
0001
0001
0000
0010
0010
0000
1000
1000
,  // measure 52
0000
0000
0010
0000
0010
0000
0000
0000
0001
0000
0000
0100
0000
0000
0010
0000
,  // measure 53
1000
1000
0000
0010
0010
0000
0001
0001
,  // measure 54
0000
0000
0010
0000
0010
0000
0000
0000
1000
0000
0000
0100
0000
0000
0010
0000
,  // measure 55
0001
1000
0010
0001
0010
1000
0100
0010
,  // measure 56
0000
0000
0001
0000
0100
0000
0010
0000
1000
0000
0000
0100
0000
0000
0010
0000
,  // measure 57
0001
0010
1000
0010
0100
1000
0001
0100
,  // measure 58
0000
0000
1000
0000
0100
0000
0001
0000
0010
0000
0000
0100
0000
0000
1000
0000
,  // measure 59
0001
0100
0010
0001
0010
1000
0100
0010
,  // measure 60
0000
0000
1000
0000
0010
0000
0001
0000
1000
0000
0000
0100
0000
0000
0010
0000
,  // measure 61
0001
0100
1000
0100
0001
0010
0100
1000
,  // measure 62
0001
0000
0000
1000
0000
0000
0001
0000
0000
0000
0000
0000
1000
0000
0000
0001
0000
0000
1000
0000
0000
0000
0000
0000
0001
0000
0000
0000
0100
0000
0000
0000
0001
0000
0000
0000
0100
0000
0000
0000
0010
0000
0000
0000
1000
0000
0000
0000
,  // measure 63
0002
0000
0000
0000
,  // measure 64
0000
0000
0000
0000
,  // measure 65
0023
0100
0000
0000
,  // measure 66
0000
0000
0000
0000
,  // measure 67
0032
0000
0000
0000
,  // measure 68
0000
0000
0000
0000
,  // measure 69
2003
0010
0000
0000
,  // measure 70
0000
0000
0000
0000
,  // measure 71
3001
0000
0100
0000
0000
0010
0000
0000
,  // measure 72
1000
0000
0000
0100
0000
0010
0001
0000
,  // measure 73
1000
0000
1000
0000
0000
0010
0000
0000
,  // measure 74
0100
0000
0000
1000
0000
0100
0000
0000
,  // measure 75
0001
0000
0010
0000
0000
0100
0000
0000
,  // measure 76
1000
0000
0000
0001
0000
0100
0010
0000
,  // measure 77
2000
0000
0000
0000
0000
0000
0000
3000
,  // measure 78
0001
0000
0000
0100
0000
0000
2000
0000
0000
0000
3100
0000
0010
0100
0010
0000
,  // measure 79
1000
0000
0000
0001
0000
0000
0020
0000
0000
0000
0130
0000
1000
0000
0001
0000
,  // measure 80
0100
0000
0000
1000
0000
0000
0200
0000
0000
0000
0301
0000
1000
0100
1000
0000
,  // measure 81
0010
0000
0000
0100
0000
0000
0001
0000
1000
0001
1000
0001
1000
0000
0000
0000
,  // measure 82
0001
0000
1000
0100
0000
1000
0100
0000
1000
0100
0000
1000
0200
0000
0000
0000
,  // measure 83
1300
0000
0001
0100
0000
0001
0100
0000
0001
0100
0000
0001
0200
0000
0000
0000
,  // measure 84
0301
1000
0001
0000
1000
0000
0100
0000
0010
0001
0010
0000
0100
0000
1000
0000
,  // measure 85
0001
0100
0001
0100
0002
0000
0000
0000
1003
0100
1000
0100
2000
0000
0000
0000
,  // measure 86
3000
0000
1001
0000
0001
0100
1000
0100
,  // measure 87
0001
0000
0000
0010
0000
0000
2000
0000
0000
0000
3001
0000
0100
0000
1000
0000
,  // measure 88
0100
1000
0100
0000
1000
0000
0010
0000
0100
0000
0001
0000
0010
0000
0100
0000
,  // measure 89
1000
0010
0100
0001
0100
0010
2000
0000
0000
0000
0000
0000
,  // measure 90
3002
0000
0000
0100
0000
0000
1003
0100
0010
0002
0000
0000
,  // measure 91
0203
0000
0000
1300
0100
0010
2000
0000
0000
3100
0010
0001
,  // measure 92
0200
0000
0000
0000
,  // measure 93
0301
1000
0001
1000
0001
1000
0001
1000
0001
1000
0001
1000
0001
0000
0000
0000
,  // measure 94
0200
0000
0010
0000
0301
0010
1000
0010
,  // measure 95
0100
1000
0100
1000
0200
0000
0000
0000
0320
0000
0000
0000
2030
0000
0000
0000
,  // measure 96
3010
0000
0100
0000
1000
0000
0001
0000
0100
0001
0100
0001
0100
0000
0020
0000
,  // measure 97
0000
0000
0031
0000
0010
0000
1000
0000
0001
1000
0001
1000
0002
0000
0000
0000
,  // measure 98
0013
0000
0100
1000
0100
0000
0010
0000
0000
0000
0001
1000
0001
0000
0100
0000
,  // measure 99
0010
0000
1000
0000
0001
0100
0001
0000
1000
0100
1000
0000
0001
0000
0010
0000
,  // measure 100
0100
0000
1000
0001
1000
0000
0001
0000
0100
0000
0010
0000
1000
0000
0200
0000
,  // measure 101
0000
0000
0301
0000
0100
0000
1000
0000
0001
0100
0001
0000
1000
0100
1000
0000
,  // measure 102
0001
0100
1000
0100
0020
0000
2030
0000
,  // measure 103
3001
0010
0100
1000
0010
0100
0001
1000
0100
0010
0001
0100
,  // measure 104
0010
0000
1000
0000
0001
0000
1000
0000
0010
0000
1000
0000
0100
0000
0001
0000
0100
0000
0010
0000
0000
0002
0000
0000
,  // measure 105
0000
0000
0103
0000
1000
0000
0100
0000
0001
0000
1000
0001
1000
0001
1000
0001
,  // measure 106
1000
0100
0001
0100
1000
0001
0100
0010
,  // measure 107
1000
0000
0001
0100
0000
0001
1000
0000
0200
0000
0000
0000
1300
0001
1000
0000
,  // measure 108
0010
0001
0010
2000
0000
3001
0010
0200
,  // measure 109
0000
1300
0100
0010
0001
1000
0010
0100
,  // measure 110
0001
0100
1000
0100
0001
0010
0100
1000
,  // measure 111
2001
0000
0000
0000
,  // measure 112
0000
0000
0000
0000
0000
0000
3001
0100
0001
0100
0000
0000
,  // measure 113
0001
0010
0100
1000
0010
0100
0001
1000
0100
0010
0001
0100
,  // measure 114
0010
1000
0001
0010
0100
1000
0001
0000
0000
0000
0000
0000
,  // measure 115
1000
0100
1000
0000
0000
0000
0001
0100
0001
0000
0000
0000
1000
0010
1000
0000
,  // measure 116
0000
0000
0001
0010
0001
0000
0000
0000
1000
0010
0000
0100
0001
0000
1000
0000
,  // measure 117
0001
0100
0001
0000
0000
0000
1000
0100
1000
0000
0000
0000
0001
0010
0001
0000
,  // measure 118
0000
0000
0000
0000
0000
0000
1000
0000
0000
0010
0000
0000
1000
0000
0000
0000
0000
0000
0000
0000
0000
0000
0000
0000
0001
0000
0000
0000
0010
0000
0000
0000
0100
0000
0000
0000
1000
0000
0000
0000
0010
0000
0000
0000
0100
0000
0000
0000
,  // measure 119
0000
2002
0000
0000
,  // measure 120
0000
0000
0000
0000
,  // measure 121
0000
0000
0000
3003
;

//---------------dance-single - ----------------
#NOTES:
     dance-single:
     :
     Hard:
     19:
     1.103699,1.479294,0.058656,0.393836,1.646570,922.000000,915.000000,7.000000,47.000000,0.000000,0.000000,1.103699,1.479294,0.058656,0.393836,1.646570,922.000000,915.000000,7.000000,47.000000,0.000000,0.000000:
// measure 0
0000
0000
0000
0000
,  // measure 1
0000
0000
0000
0000
,  // measure 2
0000
0000
0000
0000
,  // measure 3
0000
0000
0000
0000
,  // measure 4
0000
0000
0000
0000
,  // measure 5
0000
0000
0000
0000
,  // measure 6
0000
0000
0000
0000
,  // measure 7
0000
0000
0000
0000
,  // measure 8
1001
0000
0001
0000
0000
0100
0000
0000
,  // measure 9
0010
0000
0000
1000
0000
0100
0010
0000
,  // measure 10
0000
0000
0001
0000
0000
0010
0000
0000
,  // measure 11
1000
0000
0000
0010
0000
0100
0000
0000
,  // measure 12
1000
0000
0001
0000
0000
0100
0000
0000
,  // measure 13
0010
0000
0000
0000
0000
0000
1000
0000
0001
0100
0001
0100
0010
1000
0010
1000
,  // measure 14
0002
0000
0000
0000
0023
0000
0000
0130
0000
0000
0100
0000
2000
0000
0000
0000
,  // measure 15
3001
0100
0010
0100
0001
1000
0100
0010
0100
1000
0001
0100
,  // measure 16
0010
1000
0001
0010
0001
1000
0100
0010
0001
0100
0010
1000
,  // measure 17
0001
0010
0100
1000
0100
0010
0001
1000
0010
0100
0010
1000
,  // measure 18
0001
0010
0100
1000
0001
0100
0010
1000
0100
0010
0001
1000
,  // measure 19
0010
0100
0010
1000
0001
0010
0100
0010
0001
1000
0010
0100
,  // measure 20
0001
1000
0100
0010
0001
1000
0010
0100
0001
0010
0100
1000
,  // measure 21
0001
0100
0010
0100
0001
1000
0100
0010
0001
0100
0010
1000
,  // measure 22
0001
0010
0001
1000
0010
0001
0010
1000
0100
0010
0001
1000
,  // measure 23
0010
0100
0001
1000
0100
0010
0001
0010
0100
1000
0001
0100
,  // measure 24
0010
1000
0001
0010
0100
1000
0010
0100
0001
1000
0100
0010
,  // measure 25
0001
1000
0010
1000
0001
0010
0100
1000
0001
0100
0010
1000
,  // measure 26
0001
0010
0100
0010
0001
1000
0010
0100
0001
0010
0100
1000
,  // measure 27
0001
0100
0010
0100
0001
1000
0100
0010
0001
1000
0010
0100
,  // measure 28
0010
1000
0001
0010
0100
1000
0010
0100
0001
1000
0100
0010
,  // measure 29
0001
1000
0010
1000
0100
0001
0100
1000
0010
0100
0001
1000
,  // measure 30
0100
0010
0001
0100
0010
1000
0002
0000
0000
0000
0000
0000
,  // measure 31
0203
0000
0320
0000
,  // measure 32
1030
0001
1000
0001
1000
0000
0000
0000
0001
0100
0001
0100
0001
1000
0100
0010
,  // measure 33
0002
0000
0100
1000
,  // measure 34
0013
0100
1000
0010
0100
0001
1000
0100
0010
0001
0100
0010
,  // measure 35
1000
0001
0100
0010
0100
0001
1000
0100
0010
0001
0100
0010
,  // measure 36
1000
0000
0000
0000
0001
0000
0000
0000
0010
0000
0000
0000
0100
0000
0000
0000
1000
0000
0000
0000
0010
0000
0000
0000
0200
0000
0000
0000
0000
0000
0000
0000
0000
0000
0000
0000
0000
0000
0000
0000
0000
0000
0301
0000
0000
1000
0000
0000
,  // measure 37
0200
0000
0000
0000
0000
0000
0301
0100
1000
0100
0001
0100
,  // measure 38
1000
0010
0100
0001
0010
1000
0010
0001
0100
0010
1000
0001
,  // measure 39
0010
0001
0010
0001
0010
0000
0001
0000
1000
0010
1000
0010
1000
0000
0001
0000
,  // measure 40
0100
0001
0100
0001
0100
0000
0010
0000
1000
0001
1000
0001
1000
0100
0010
0001
,  // measure 41
0200
0000
0000
2300
0000
0000
3200
0000
,  // measure 42
0301
0010
0100
1000
0010
0100
0001
1000
0100
0010
0001
0100
,  // measure 43
0010
1000
0001
0010
0100
0010
0001
1000
0010
0100
0001
0010
,  // measure 44
0100
1000
0010
0100
0001
0010
2000
0000
0000
0000
0000
0000
,  // measure 45
3010
0001
0100
0010
1000
0100
0010
0001
1000
0010
0100
0001
,  // measure 46
0010
1000
0010
0001
0100
0010
2000
0000
0000
0000
0000
0000
,  // measure 47
3001
0100
0001
0000
0000
0000
1000
0100
1000
0000
0000
0000
0001
0010
0001
0000
,  // measure 48
0000
0000
1000
0010
1000
0000
0000
0000
0001
0100
0000
0001
1000
0000
0100
0000
,  // measure 49
1000
0100
1000
0000
0000
0000
0001
0100
0001
0000
0000
0000
1000
0010
1000
0000
,  // measure 50
0000
0000
0001
0010
0001
0000
0000
0000
1000
0100
0000
1000
0001
0000
1000
0000
,  // measure 51
0001
1000
0100
0000
0000
0000
1000
0001
0100
0000
0000
0000
0001
1000
0010
0000
,  // measure 52
0000
0000
1000
0001
0010
0000
0000
0000
0100
1000
0000
0001
1000
0000
0001
0000
,  // measure 53
0100
0001
1000
0000
0000
0000
0100
1000
0001
0000
0000
0000
0010
0001
1000
0000
,  // measure 54
0000
0000
0010
1000
0001
0000
0000
0000
0010
0100
0000
0010
0001
0000
1000
0000
,  // measure 55
0001
0100
1000
0001
0010
1000
0100
0001
,  // measure 56
1000
0000
0010
0000
0001
0000
1000
0000
0010
0100
0000
0010
1000
0000
0001
0000
,  // measure 57
0010
1000
0001
0100
1000
0010
0001
1000
,  // measure 58
0100
0000
0001
0000
0010
0000
0100
0000
1000
0001
0000
0100
0001
0000
0010
0000
,  // measure 59
0100
0001
0100
1000
0001
0100
0010
0001
,  // measure 60
1000
0000
0100
0000
0001
0000
0010
0000
0100
1000
0000
0001
1000
0000
0010
0000
,  // measure 61
0100
1000
0001
0010
0100
1000
0100
0001
,  // measure 62
0010
0000
0000
0100
0000
0000
0001
0000
0000
0100
0000
0000
1000
0000
0100
0000
0010
0000
0001
0000
0100
0000
0010
0000
,  // measure 63
2000
0000
0000
0000
,  // measure 64
0000
0000
0000
0000
,  // measure 65
3002
0010
0000
0000
,  // measure 66
0000
0000
0000
0000
,  // measure 67
0203
0000
0000
0000
,  // measure 68
0000
0000
0000
0000
,  // measure 69
0320
1000
0000
0000
,  // measure 70
0000
0000
0000
0000
,  // measure 71
0130
0000
0001
0000
0000
1000
0000
0000
,  // measure 72
0100
0000
0000
0010
0000
0001
0100
0000
,  // measure 73
0010
0000
0010
0000
0000
1000
0000
0000
,  // measure 74
0100
0000
0000
0001
0000
0100
0000
0000
,  // measure 75
1000
0000
0010
0000
0000
0100
0000
0000
,  // measure 76
0001
1000
0001
1000
0001
0000
1000
0000
0100
0010
0100
0010
0001
1000
0001
1000
,  // measure 77
0020
0000
0000
0000
0000
0000
0000
0000
0000
0000
0000
0000
0000
0000
0000
0000
0000
0000
0000
0000
0000
0000
0000
0000
0000
0000
0000
0000
1030
0001
1000
0001
,  // measure 78
0010
0000
0100
1000
0000
0000
0002
0000
0000
0000
0000
0000
0103
0010
0100
0010
,  // measure 79
1000
0000
0001
0010
0000
0000
0002
0000
0000
0000
1003
0000
0001
0000
0100
0000
,  // measure 80
1000
0000
0100
0010
0000
0000
2000
0000
0000
0000
0000
0000
3100
0010
0001
1000
,  // measure 81
0010
0000
0100
0001
0000
1000
0001
0000
1000
0100
0010
0100
1000
0000
0000
0000
,  // measure 82
1001
0000
0001
0100
0000
0010
0100
0000
0001
0100
0000
0010
0100
0000
0000
0000
,  // measure 83
1001
0000
1000
0100
0000
0010
0100
0000
1000
0100
0000
0010
0100
0000
0000
0000
,  // measure 84
1000
0001
1000
0001
1000
0000
0010
0000
0100
0001
0100
0001
0100
0000
0001
0000
,  // measure 85
1000
0100
1000
0100
0010
0001
0010
0001
1000
0010
1000
0010
0100
0001
1000
0100
,  // measure 86
0010
0000
0011
0002
0000
0103
1000
0100
,  // measure 87
0001
0000
1000
0100
0000
0000
0002
0000
0000
0000
0103
0000
1000
0000
0010
0000
,  // measure 88
0100
0001
1000
0100
0010
0000
0100
0000
1000
0001
0100
0010
1000
0000
0001
0000
,  // measure 89
0010
0100
1000
0010
0100
0001
2000
0000
0000
0000
0000
0000
,  // measure 90
3002
0000
0000
0103
0010
1000
0100
0010
0001
0200
0000
0000
,  // measure 91
2300
0000
0000
3100
0001
0010
2000
0000
0000
3010
0001
0100
,  // measure 92
0020
0000
0000
0000
0000
0000
0000
0000
1030
0001
1000
0001
1000
0000
0100
0000
,  // measure 93
0010
0001
0010
0100
1000
0001
0100
0010
1000
0100
0010
0001
0000
0000
0000
0000
,  // measure 94
1002
0000
0000
0000
0000
0000
0000
0000
0103
0010
1000
0010
0100
0001
1000
0100
,  // measure 95
0010
0100
1000
0001
0200
0000
0000
0000
2300
0000
0000
0000
3200
0000
0000
0000
,  // measure 96
0310
1000
0001
0010
0100
1000
0100
0010
0001
0000
1000
0010
0100
0001
2000
0000
,  // measure 97
0000
0000
3001
0000
0100
0000
1000
0000
0100
0000
0010
1000
0002
0000
0000
0000
,  // measure 98
0013
0000
0100
1000
0100
0000
0010
0000
0001
1000
0001
0000
0100
0000
0010
0000
,  // measure 99
1000
0000
0100
0000
0010
0001
0010
0100
1000
0100
0010
0000
0001
0000
0100
0000
,  // measure 100
0010
0000
1000
0001
1000
0000
0100
0000
0010
0001
0010
0000
0100
0000
2000
0000
,  // measure 101
0000
0000
3001
0100
0010
0000
1000
0100
0010
0000
0001
0010
0100
0000
1000
0010
,  // measure 102
0100
0001
0100
0001
1000
0100
1000
0100
0020
0000
0000
0000
0031
0000
1000
0000
,  // measure 103
0010
0001
0010
1000
0001
0010
1000
0010
0100
1000
0001
0100
,  // measure 104
0010
0000
1000
0000
0100
0000
0001
0000
1000
0000
0010
0000
0001
0000
0100
0000
1000
0000
0100
0000
0000
0002
0000
0000
,  // measure 105
0000
0023
0230
2300
,  // measure 106
3001
0000
0100
0010
1000
0000
0001
0000
1000
0100
0010
0000
0100
0000
1000
0000
,  // measure 107
0001
0000
1000
0010
0000
1000
0001
0000
0020
0000
0000
0000
0000
0000
0000
0000
,  // measure 108
0130
0000
1000
0001
0100
0000
0010
0000
1000
0001
0010
0000
0100
0000
2000
0000
,  // measure 109
0000
3001
0100
1000
0100
0001
0010
0100
,  // measure 110
1000
0010
0001
0010
1000
0100
0010
0001
,  // measure 111
1002
0000
0000
0000
,  // measure 112
0000
0000
0000
0000
0000
0000
1003
0010
1000
0010
0000
0000
,  // measure 113
0100
0001
0010
0100
1000
0001
0100
0010
0001
0010
1000
0001
,  // measure 114
0010
0100
1000
0100
0001
0100
1000
0000
0000
0000
0000
0000
,  // measure 115
0001
0100
0001
0100
0000
0000
0001
1000
0001
1000
0000
0000
0001
0010
0001
0010
,  // measure 116
0000
0000
0100
1000
0100
1000
0000
0000
0001
0100
0000
0010
1000
0000
0001
0000
,  // measure 117
1000
0100
1000
0100
0000
0000
1000
0001
1000
0001
0000
0000
1000
0010
1000
0010
,  // measure 118
0000
0000
0000
0000
0000
0000
0100
0000
0000
0001
0000
0000
0100
0000
0000
0001
0000
0000
0000
0000
0000
0000
0000
0000
1000
0000
0000
0000
0100
0000
0000
0000
0010
0000
0000
0000
0001
0000
0000
0000
0100
0000
0000
0000
0010
0000
0000
0000
,  // measure 119
0000
2002
0000
0000
,  // measure 120
0000
0000
0000
0000
,  // measure 121
0000
0000
0000
3003
;

//---------------dance-single - ----------------
#NOTES:
     dance-single:
     because I kinda felt like it...:
     Challenge:
     20:
     1.268894,1.683335,0.083795,0.452493,2.090683,1060.000000,1050.000000,10.000000,54.000000,0.000000,0.000000,1.268894,1.683335,0.083795,0.452493,2.090683,1060.000000,1050.000000,10.000000,54.000000,0.000000,0.000000:
// measure 0
0000
0000
0000
0000
,  // measure 1
0000
0000
0000
0000
,  // measure 2
0000
0000
0000
0000
,  // measure 3
0000
0000
0000
0000
,  // measure 4
0000
0000
0000
0000
,  // measure 5
0000
0000
0000
0000
,  // measure 6
0000
0000
0000
0000
,  // measure 7
0000
0000
0000
0000
,  // measure 8
1001
0000
0000
0001
0101
0000
0000
0000
,  // measure 9
0100
0000
0010
0000
1010
1000
0001
0000
,  // measure 10
0010
0000
0100
1000
1001
0001
0000
0000
,  // measure 11
1000
0000
0001
0100
0101
0001
0000
1000
,  // measure 12
1001
0000
0001
0100
0110
0010
0000
0000
,  // measure 13
1000
0100
0010
0001
1000
0010
0100
0010
1000
0001
0010
0100
0010
0001
1000
0010
,  // measure 14
0200
0000
0300
0000
0200
0000
0000
0000
0302
0000
0000
0000
0000
0000
2003
0000
0000
3000
0000
0000
2000
0000
0000
0000
3020
0000
0000
0000
0000
0000
0000
0000
,  // measure 15
1030
0100
0010
0001
1000
0010
0100
0001
0010
0100
0010
0001
,  // measure 16
2000
3001
0100
0001
1000
0100
0001
0100
0010
0001
1000
0001
,  // measure 17
1000
0010
0100
0010
1000
0001
0010
0100
1000
0001
0100
0010
,  // measure 18
1000
0001
0010
0100
1000
0100
0001
0100
0010
0001
1000
0010
,  // measure 19
0100
0001
1000
0010
0100
0001
1000
0100
0010
0100
1000
0001
,  // measure 20
0200
0310
1000
0001
1000
0010
0001
0010
0100
0001
1000
0001
,  // measure 21
0010
0100
0010
0001
1000
0010
0100
0010
1000
0001
0010
0100
,  // measure 22
1000
0001
0100
0001
1000
0400
0301
0100
1000
0010
0100
0001
,  // measure 23
1000
0100
1000
0001
0010
0100
1000
0010
1000
0001
0010
0100
,  // measure 24
2000
3001
0100
0010
1000
0100
0001
0100
0010
0001
1000
0010
,  // measure 25
0100
0001
1000
0100
0010
0100
1000
0001
0100
0010
1000
0001
,  // measure 26
0010
0100
0010
0001
1000
0010
0001
0010
0100
0001
0010
0100
,  // measure 27
1000
0010
0100
0001
1000
0100
1000
0001
0010
0100
1000
0010
,  // measure 28
0200
0301
1000
0010
1000
0100
0001
0100
0010
0001
1000
0010
,  // measure 29
0100
0001
0010
0100
1000
0040
1030
0100
0010
0001
0100
0010
,  // measure 30
1000
0000
0000
0000
0001
0000
0000
0000
0010
0000
0000
0000
0100
0000
0000
0000
1000
0000
0000
0000
0100
0000
0000
0000
0020
0000
0000
0000
0000
0000
0000
0000
0000
0000
0000
0000
0031
0000
0000
1000
0000
0000
0001
0000
0000
1000
0000
0000
,  // measure 31
0002
0000
0023
0000
,  // measure 32
0230
1300
0001
0100
0010
1000
0001
0010
0100
1000
0010
0100
0001
1000
0001
0100
,  // measure 33
0020
0000
0000
2030
,  // measure 34
3001
0100
0001
1000
0100
0010
0100
1000
0001
0100
0010
1000
,  // measure 35
0001
0010
0100
0010
0001
1000
0010
0100
0001
0010
0100
1000
,  // measure 36
0002
0000
0000
0000
0103
0000
0000
0000
0010
0000
0000
0000
1000
0000
0000
0000
0001
0000
0000
0000
1000
0000
0000
0000
0200
0000
0000
0000
0000
0000
0000
0000
0000
0000
0000
0000
0000
0000
0000
0000
0000
0000
0310
0000
0000
0001
0000
0000
,  // measure 37
2000
0000
0000
0000
0000
0000
3001
0100
1000
0100
0001
0010
,  // measure 38
0001
0010
0100
1000
0010
0004
0013
0100
0001
1000
0100
0010
,  // measure 39
0001
0100
0010
1000
0001
0010
0100
1000
0010
0100
0001
1000
0100
0010
0001
1000
,  // measure 40
0020
0130
0001
0010
0100
1000
0001
1000
0010
0100
0001
1000
0100
0010
0001
1000
,  // measure 41
0020
0000
0000
0230
0000
0000
0302
0000
,  // measure 42
1003
0100
0001
0100
0010
0001
1000
0001
0100
1000
0100
0010
,  // measure 43
1000
0001
1000
0010
0100
0010
1000
0100
0001
0100
1000
0001
,  // measure 44
0200
0310
0100
0001
1000
0100
0002
0000
0000
0000
0000
0000
,  // measure 45
0103
0010
0001
1000
0100
0004
0103
1000
0001
0100
0010
0100
,  // measure 46
0001
0100
1000
0001
0010
1000
0020
0000
0000
0000
0000
0000
,  // measure 47
1030
0001
1000
0001
0000
0000
1000
0010
1000
0010
0000
0000
1000
0001
1000
0001
,  // measure 48
0000
0000
1000
0100
1000
0100
0000
0000
1000
0010
0000
1000
0001
0000
1000
0001
,  // measure 49
0100
0001
0100
0001
0000
0000
1000
0001
1000
0001
0000
0000
0010
0001
0010
0001
,  // measure 50
0000
0000
1000
0001
1000
0001
0000
0000
0100
0001
0000
1000
0001
0000
0010
0001
,  // measure 51
1000
0100
1000
0100
0000
0000
1000
0010
1000
0010
0000
0000
1000
0001
1000
0001
,  // measure 52
0000
0000
1000
0010
1000
0010
0000
0000
1000
0100
0000
1000
0001
0000
1000
0001
,  // measure 53
0010
0001
0010
0001
0000
0000
0100
0001
0100
0001
0000
0000
1000
0001
1000
0001
,  // measure 54
0000
0000
0100
0001
0100
0001
0000
0000
0010
0001
0000
1000
0001
0000
1000
0001
,  // measure 55
0100
0000
0010
1000
0001
0000
1000
0000
0001
0010
0100
0000
0010
0000
0001
0000
,  // measure 56
1000
0000
0010
0100
0001
0000
1000
0000
0100
0010
0000
0001
1000
0000
0010
0000
,  // measure 57
0100
0000
0001
1000
0100
0000
0010
0000
0100
1000
0001
0000
0100
0000
0010
0000
,  // measure 58
0100
0000
0001
1000
0100
0000
0010
0000
0001
1000
0000
0010
1000
0000
0001
0000
,  // measure 59
1000
0100
0010
0001
1000
0000
0001
0000
1000
0010
0100
0000
0001
0000
0010
0000
,  // measure 60
0100
0000
1000
0001
0100
0000
0010
0000
1000
0001
0000
1000
0100
0000
0010
0000
,  // measure 61
0001
0100
0010
1000
0001
0000
1000
0000
0010
0100
0001
0000
1000
0000
0100
0000
,  // measure 62
0010
0000
0000
0000
0000
0000
0001
0000
0000
1000
0000
0000
0010
0000
0000
0000
0000
0000
0100
0000
0000
0000
0000
0000
0001
0000
0000
0000
0100
0000
0000
0000
0010
0000
0000
0000
1000
0000
0000
0000
0100
0000
0000
0000
0010
0000
0000
0000
,  // measure 63
0002
0000
0000
0000
,  // measure 64
0000
0000
0000
0000
,  // measure 65
0023
1000
0000
0000
,  // measure 66
0000
0000
0000
0000
,  // measure 67
0230
0000
0000
0000
,  // measure 68
0000
0000
0000
0000
,  // measure 69
2300
0010
0000
0000
,  // measure 70
0000
0000
0000
3000
,  // measure 71
1001
0000
0001
0000
0000
0010
0000
0000
,  // measure 72
0001
0000
0000
0100
0000
0010
1000
0000
,  // measure 73
0001
0000
0010
0000
0000
0100
0000
0000
,  // measure 74
0010
0000
0000
0001
0000
1000
0000
0000
,  // measure 75
0010
0000
0100
0000
0000
0001
0000
0000
,  // measure 76
1000
0100
0010
0100
1000
0001
0100
0010
0100
0001
1000
0100
0010
0001
1000
0010
,  // measure 77
0200
0000
0000
0000
0000
0000
0000
0000
0000
0000
0000
0000
0000
0000
0000
0000
0000
0000
0000
0000
0000
0000
0000
0000
0000
0000
0000
0000
0301
0010
0100
1000
,  // measure 78
0010
0000
1000
0001
0000
0100
0002
0000
0000
0000
1003
0100
0010
0100
1000
0001
,  // measure 79
0100
0000
0010
1000
0000
0001
0010
0000
0000
0000
0100
0000
1000
0000
0010
0000
,  // measure 80
0001
0000
0010
0100
0000
0010
2000
0000
0000
0000
3001
1000
0100
1000
0010
0100
,  // measure 81
1000
0000
0100
0010
0000
0100
0001
0000
1000
0100
0010
0100
1000
0001
0100
0010
,  // measure 82
1000
0000
0000
0001
0010
0001
1000
0010
1000
0001
0100
0001
1000
0100
0010
0001
,  // measure 83
0100
0000
0000
0001
0010
0100
1000
0010
0100
0001
0010
0100
1000
0010
0100
0001
,  // measure 84
1000
0100
0010
0100
1000
0001
0100
0010
0100
0001
0100
0010
1000
0001
0010
0100
,  // measure 85
1000
0100
0010
0001
1000
0010
0100
0010
1000
0001
0010
0100
0010
0001
1000
0010
,  // measure 86
0100
0000
0001
1000
0010
0000
0200
0000
0000
0000
0301
0010
0100
0010
0001
1000
,  // measure 87
0010
0000
0100
0001
0000
1000
0100
0000
0000
0000
0010
0000
1000
0000
0010
0000
,  // measure 88
0001
0100
0010
1000
0001
1000
0100
0010
0100
1000
0010
0100
0001
1000
0100
0010
,  // measure 89
0001
1000
0001
0100
0010
1000
0100
0010
0001
1000
0010
0100
,  // measure 90
0002
0000
0000
1003
0010
0100
0001
0010
0100
0002
0000
0000
,  // measure 91
0203
0000
0000
1300
0001
0100
2000
0000
0000
3100
0010
1000
,  // measure 92
0001
0000
0000
0000
0010
0000
0000
0000
1000
0000
0000
0000
0010
0000
0000
0000
0100
0000
0000
0000
1000
0000
0000
0000
0001
0000
0000
0100
0000
0000
0010
0000
0000
1000
0000
0000
0100
0000
0000
0010
0000
0000
0001
0000
0000
1000
0000
0000
,  // measure 93
0010
0100
1000
0100
0001
1000
0100
0001
0100
0010
0001
1000
0200
0000
0000
0000
,  // measure 94
0320
0000
0000
0000
0000
0000
0000
0000
0031
1000
0010
0100
0001
0010
0100
1000
,  // measure 95
0001
0100
0010
0100
0002
0000
0000
0000
0023
0000
0000
0000
2030
0000
0000
0000
,  // measure 96
3010
0100
1000
0001
0100
0010
1000
0100
0010
0001
1000
0010
0100
0001
0200
0000
,  // measure 97
0000
0000
0301
0000
0010
0000
1000
0000
0010
0000
0100
1000
0002
0000
0000
0000
,  // measure 98
1003
0000
0010
0100
1000
0000
0100
0000
0010
1000
0001
0000
0010
0000
1000
0000
,  // measure 99
0010
0000
0100
1000
0100
0000
0010
0001
0100
0010
1000
0001
1000
0000
0010
0000
,  // measure 100
0001
0000
0010
0100
0001
0000
1000
0000
0100
0010
0001
0000
1000
0000
0020
0000
,  // measure 101
0000
0000
0031
0010
0100
0010
0100
0001
1000
0010
1000
0100
0010
0001
0100
0001
,  // measure 102
1000
0010
0100
0001
0010
0100
1000
0010
0200
0000
0000
0000
0301
0000
1000
0000
,  // measure 103
0001
0100
1000
0100
0010
1000
0001
0010
1000
0010
0100
1000
,  // measure 104
0100
0000
0001
0000
1000
0000
0010
0000
0001
0000
1000
0000
0010
0000
0100
0000
0001
0000
0010
0000
0000
2000
0000
0000
,  // measure 105
0000
0000
3010
0000
0001
0000
1000
0000
0010
0000
0100
0001
1000
0100
0010
0000
,  // measure 106
0001
0000
1000
0010
0100
0000
1000
0000
0100
0010
1000
0000
0001
0000
0010
0000
,  // measure 107
1000
0000
0010
0001
0000
1000
0001
0000
0100
0000
0001
1000
0010
1000
0010
0100
,  // measure 108
1000
0000
0100
0010
1000
0000
0200
0000
0000
0000
1300
0001
0100
0010
2000
0000
,  // measure 109
0000
0000
3010
0100
0001
1000
0100
0010
0200
0000
1300
0001
0100
0010
1000
0100
,  // measure 110
1000
0010
0001
0010
0100
0001
0010
0100
,  // measure 111
1002
0000
0000
0000
,  // measure 112
0000
0000
0000
0000
0000
0000
1003
0010
1000
0010
0000
0000
,  // measure 113
1000
0001
0100
1000
0001
0010
1000
0100
0001
1000
0010
0001
,  // measure 114
0100
0010
0001
0010
1000
0001
0100
0000
0000
0000
0000
0000
,  // measure 115
0001
0100
0010
0001
0000
0000
0010
0100
0001
1000
0000
0000
0100
0010
1000
0010
,  // measure 116
0000
0000
0100
1000
0001
1000
0000
0000
0001
0100
0000
1000
0100
0000
0001
0100
,  // measure 117
0010
1000
0100
0010
0000
0000
1000
0010
0001
1000
0000
0000
0010
0100
1000
0100
,  // measure 118
0000
0000
0000
0000
0000
0000
0001
0000
0000
0010
0000
0000
0100
0000
0000
1000
0000
0000
0000
0000
0000
0000
0000
0000
0001
0000
0000
0000
0100
0000
0000
0000
1000
0000
0000
0000
0001
0000
0000
0000
0010
0000
0000
0000
1000
0000
0000
0000
,  // measure 119
0000
2002
0000
0000
,  // measure 120
0000
0000
0000
0000
,  // measure 121
0000
0000
0000
3003
;

//---------------dance-single - the CSP but with one minor change----------------
#NOTES:
     dance-single:
     there's a surprise at measure 95:
     Edit:
     20:
     1.271289,1.683335,0.083795,0.444113,2.115821,1062.000000,1052.000000,10.000000,53.000000,0.000000,0.000000,1.271289,1.683335,0.083795,0.444113,2.115821,1062.000000,1052.000000,10.000000,53.000000,0.000000,0.000000:
// measure 0
0000
0000
0000
0000
,  // measure 1
0000
0000
0000
0000
,  // measure 2
0000
0000
0000
0000
,  // measure 3
0000
0000
0000
0000
,  // measure 4
0000
0000
0000
0000
,  // measure 5
0000
0000
0000
0000
,  // measure 6
0000
0000
0000
0000
,  // measure 7
0000
0000
0000
0000
,  // measure 8
1001
0000
0000
0001
0101
0000
0000
0000
,  // measure 9
0100
0000
0010
0000
1010
1000
0001
0000
,  // measure 10
0010
0000
0100
1000
1001
0001
0000
0000
,  // measure 11
1000
0000
0001
0100
0101
0001
0000
1000
,  // measure 12
1001
0000
0001
0100
0110
0010
0000
0000
,  // measure 13
1000
0100
0010
0001
1000
0010
0100
0010
1000
0001
0010
0100
0010
0001
1000
0010
,  // measure 14
0200
0000
0300
0000
0200
0000
0000
0000
0302
0000
0000
0000
0000
0000
2003
0000
0000
3000
0000
0000
2000
0000
0000
0000
3020
0000
0000
0000
0000
0000
0000
0000
,  // measure 15
1030
0100
0010
0001
1000
0010
0100
0001
0010
0100
0010
0001
,  // measure 16
2000
3001
0100
0001
1000
0100
0001
0100
0010
0001
1000
0001
,  // measure 17
1000
0010
0100
0010
1000
0001
0010
0100
1000
0001
0100
0010
,  // measure 18
1000
0001
0010
0100
1000
0100
0001
0100
0010
0001
1000
0010
,  // measure 19
0100
0001
1000
0010
0100
0001
1000
0100
0010
0100
1000
0001
,  // measure 20
0200
0310
1000
0001
1000
0010
0001
0010
0100
0001
1000
0001
,  // measure 21
0010
0100
0010
0001
1000
0010
0100
0010
1000
0001
0010
0100
,  // measure 22
1000
0001
0100
0001
1000
0400
0301
0100
1000
0010
0100
0001
,  // measure 23
1000
0100
1000
0001
0010
0100
1000
0010
1000
0001
0010
0100
,  // measure 24
2000
3001
0100
0010
1000
0100
0001
0100
0010
0001
1000
0010
,  // measure 25
0100
0001
1000
0100
0010
0100
1000
0001
0100
0010
1000
0001
,  // measure 26
0010
0100
0010
0001
1000
0010
0001
0010
0100
0001
0010
0100
,  // measure 27
1000
0010
0100
0001
1000
0100
1000
0001
0010
0100
1000
0010
,  // measure 28
0200
0301
1000
0010
1000
0100
0001
0100
0010
0001
1000
0010
,  // measure 29
0100
0001
0010
0100
1000
0040
1030
0100
0010
0001
0100
0010
,  // measure 30
1000
0000
0000
0000
0001
0000
0000
0000
0010
0000
0000
0000
0100
0000
0000
0000
1000
0000
0000
0000
0100
0000
0000
0000
0020
0000
0000
0000
0000
0000
0000
0000
0000
0000
0000
0000
0031
0000
0000
1000
0000
0000
0001
0000
0000
1000
0000
0000
,  // measure 31
0002
0000
0023
0000
,  // measure 32
0230
1300
0001
0100
0010
1000
0001
0010
0100
1000
0010
0100
0001
1000
0001
0100
,  // measure 33
0020
0000
0000
2030
,  // measure 34
3001
0100
0001
1000
0100
0010
0100
1000
0001
0100
0010
1000
,  // measure 35
0001
0010
0100
0010
0001
1000
0010
0100
0001
0010
0100
1000
,  // measure 36
0002
0000
0000
0000
0103
0000
0000
0000
0010
0000
0000
0000
1000
0000
0000
0000
0001
0000
0000
0000
1000
0000
0000
0000
0200
0000
0000
0000
0000
0000
0000
0000
0000
0000
0000
0000
0000
0000
0000
0000
0000
0000
0310
0000
0000
0001
0000
0000
,  // measure 37
2000
0000
0000
0000
0000
0000
3001
0100
1000
0100
0001
0010
,  // measure 38
0001
0010
0100
1000
0010
0004
0013
0100
0001
1000
0100
0010
,  // measure 39
0001
0100
0010
1000
0001
0010
0100
1000
0010
0100
0001
1000
0100
0010
0001
1000
,  // measure 40
0020
0130
0001
0010
0100
1000
0001
1000
0010
0100
0001
1000
0100
0010
0001
1000
,  // measure 41
0020
0000
0000
0230
0000
0000
0302
0000
,  // measure 42
1003
0100
0001
0100
0010
0001
1000
0001
0100
1000
0100
0010
,  // measure 43
1000
0001
1000
0010
0100
0010
1000
0100
0001
0100
1000
0001
,  // measure 44
0200
0310
0100
0001
1000
0100
0002
0000
0000
0000
0000
0000
,  // measure 45
0103
0010
0001
1000
0100
0004
0103
1000
0001
0100
0010
0100
,  // measure 46
0001
0100
1000
0001
0010
1000
0020
0000
0000
0000
0000
0000
,  // measure 47
1030
0001
1000
0001
0000
0000
1000
0010
1000
0010
0000
0000
1000
0001
1000
0001
,  // measure 48
0000
0000
1000
0100
1000
0100
0000
0000
1000
0010
0000
1000
0001
0000
1000
0001
,  // measure 49
0100
0001
0100
0001
0000
0000
1000
0001
1000
0001
0000
0000
0010
0001
0010
0001
,  // measure 50
0000
0000
1000
0001
1000
0001
0000
0000
0100
0001
0000
1000
0001
0000
0010
0001
,  // measure 51
1000
0100
1000
0100
0000
0000
1000
0010
1000
0010
0000
0000
1000
0001
1000
0001
,  // measure 52
0000
0000
1000
0010
1000
0010
0000
0000
1000
0100
0000
1000
0001
0000
1000
0001
,  // measure 53
0010
0001
0010
0001
0000
0000
0100
0001
0100
0001
0000
0000
1000
0001
1000
0001
,  // measure 54
0000
0000
0100
0001
0100
0001
0000
0000
0010
0001
0000
1000
0001
0000
1000
0001
,  // measure 55
0100
0000
0010
1000
0001
0000
1000
0000
0001
0010
0100
0000
0010
0000
0001
0000
,  // measure 56
1000
0000
0010
0100
0001
0000
1000
0000
0100
0010
0000
0001
1000
0000
0010
0000
,  // measure 57
0100
0000
0001
1000
0100
0000
0010
0000
0100
1000
0001
0000
0100
0000
0010
0000
,  // measure 58
0100
0000
0001
1000
0100
0000
0010
0000
0001
1000
0000
0010
1000
0000
0001
0000
,  // measure 59
1000
0100
0010
0001
1000
0000
0001
0000
1000
0010
0100
0000
0001
0000
0010
0000
,  // measure 60
0100
0000
1000
0001
0100
0000
0010
0000
1000
0001
0000
1000
0100
0000
0010
0000
,  // measure 61
0001
0100
0010
1000
0001
0000
1000
0000
0010
0100
0001
0000
1000
0000
0100
0000
,  // measure 62
0010
0000
0000
0000
0000
0000
0001
0000
0000
1000
0000
0000
0010
0000
0000
0000
0000
0000
0100
0000
0000
0000
0000
0000
0001
0000
0000
0000
0100
0000
0000
0000
0010
0000
0000
0000
1000
0000
0000
0000
0100
0000
0000
0000
0010
0000
0000
0000
,  // measure 63
0002
0000
0000
0000
,  // measure 64
0000
0000
0000
0000
,  // measure 65
0023
1000
0000
0000
,  // measure 66
0000
0000
0000
0000
,  // measure 67
0230
0000
0000
0000
,  // measure 68
0000
0000
0000
0000
,  // measure 69
2300
0010
0000
0000
,  // measure 70
0000
0000
0000
3000
,  // measure 71
1001
0000
0001
0000
0000
0010
0000
0000
,  // measure 72
0001
0000
0000
0100
0000
0010
1000
0000
,  // measure 73
0001
0000
0010
0000
0000
0100
0000
0000
,  // measure 74
0010
0000
0000
0001
0000
1000
0000
0000
,  // measure 75
0010
0000
0100
0000
0000
0001
0000
0000
,  // measure 76
1000
0100
0010
0100
1000
0001
0100
0010
0100
0001
1000
0100
0010
0001
1000
0010
,  // measure 77
0200
0000
0000
0000
0000
0000
0000
0000
0000
0000
0000
0000
0000
0000
0000
0000
0000
0000
0000
0000
0000
0000
0000
0000
0000
0000
0000
0000
0301
0010
0100
1000
,  // measure 78
0010
0000
1000
0001
0000
0100
0002
0000
0000
0000
1003
0100
0010
0100
1000
0001
,  // measure 79
0100
0000
0010
1000
0000
0001
0010
0000
0000
0000
0100
0000
1000
0000
0010
0000
,  // measure 80
0001
0000
0010
0100
0000
0010
2000
0000
0000
0000
3001
1000
0100
1000
0010
0100
,  // measure 81
1000
0000
0100
0010
0000
0100
0001
0000
1000
0100
0010
0100
1000
0001
0100
0010
,  // measure 82
1000
0000
0000
0001
0010
0001
1000
0010
1000
0001
0100
0001
1000
0100
0010
0001
,  // measure 83
0100
0000
0000
0001
0010
0100
1000
0010
0100
0001
0010
0100
1000
0010
0100
0001
,  // measure 84
1000
0100
0010
0100
1000
0001
0100
0010
0100
0001
0100
0010
1000
0001
0010
0100
,  // measure 85
1000
0100
0010
0001
1000
0010
0100
0010
1000
0001
0010
0100
0010
0001
1000
0010
,  // measure 86
0100
0000
0001
1000
0010
0000
0200
0000
0000
0000
0301
0010
0100
0010
0001
1000
,  // measure 87
0010
0000
0100
0001
0000
1000
0100
0000
0000
0000
0010
0000
1000
0000
0010
0000
,  // measure 88
0001
0100
0010
1000
0001
1000
0100
0010
0100
1000
0010
0100
0001
1000
0100
0010
,  // measure 89
0001
1000
0001
0100
0010
1000
0100
0010
0001
1000
0010
0100
,  // measure 90
0002
0000
0000
1003
0010
0100
0001
0010
0100
0002
0000
0000
,  // measure 91
0203
0000
0000
1300
0001
0100
2000
0000
0000
3100
0010
1000
,  // measure 92
0001
0000
0000
0000
0010
0000
0000
0000
1000
0000
0000
0000
0010
0000
0000
0000
0100
0000
0000
0000
1000
0000
0000
0000
0001
0000
0000
0100
0000
0000
0010
0000
0000
1000
0000
0000
0100
0000
0000
0010
0000
0000
0001
0000
0000
1000
0000
0000
,  // measure 93
0100
0000
0000
0000
0000
0000
0000
0000
0000
0000
1000
0000
0000
0000
0000
0000
0000
0000
0000
0100
0000
0000
0000
0000
0000
0000
0000
0000
0000
0010
0000
0000
0000
0000
0000
0000
0000
0000
0001
0000
0000
0000
0000
0000
0000
0000
0000
0000
1000
0000
0000
0000
0000
0000
0000
0000
0000
0000
0010
0000
0000
0000
0000
0000
0000
0000
0000
0100
0000
0000
0000
0000
0000
0000
0000
0000
0000
0001
0000
0000
0000
0000
0000
0000
0000
0000
1000
0000
0000
0000
0000
0000
0000
0000
0000
0000
0100
0000
0000
0000
0000
0000
0000
0000
0000
0000
0010
0000
0000
0000
0000
0000
0000
0000
0000
0100
0000
0000
0000
0000
0000
0000
0000
0000
0000
1000
0000
0000
0000
0000
0000
0000
0000
0000
0001
0000
0000
0000
0000
0000
0000
0000
0000
0000
0000
0000
0000
0000
0000
0000
0000
0000
0000
0000
0000
0000
0000
0000
0000
0000
0000
0000
0000
0000
0000
0000
0000
0000
0000
0000
0000
0000
0000
0000
0000
0000
0000
0000
0000
0000
0000
0000
0000
0000
0000
0000
0000
0000
0000
0000
0000
0000
,  // measure 94
0020
0000
0000
0000
0000
0000
0000
0000
0031
1000
0010
0100
0001
0010
0100
1000
,  // measure 95
0001
0100
0010
0100
0002
0000
0000
0000
0023
0000
0000
0000
2030
0000
0000
0000
,  // measure 96
3010
0100
1000
0001
0100
0010
1000
0100
0010
0001
1000
0010
0100
0001
0200
0000
,  // measure 97
0000
0000
0301
0000
0010
0000
1000
0000
0010
0000
0100
1000
0002
0000
0000
0000
,  // measure 98
1003
0000
0010
0100
1000
0000
0100
0000
0010
1000
0001
0000
0010
0000
1000
0000
,  // measure 99
0010
0000
0100
1000
0100
0000
0010
0001
0100
0010
1000
0001
1000
0000
0010
0000
,  // measure 100
0001
0000
0010
0100
0001
0000
1000
0000
0100
0010
0001
0000
1000
0000
0020
0000
,  // measure 101
0000
0000
0031
0010
0100
0010
0100
0001
1000
0010
1000
0100
0010
0001
0100
0001
,  // measure 102
1000
0010
0100
0001
0010
0100
1000
0010
0200
0000
0000
0000
0301
0000
1000
0000
,  // measure 103
0001
0100
1000
0100
0010
1000
0001
0010
1000
0010
0100
1000
,  // measure 104
0100
0000
0001
0000
1000
0000
0010
0000
0001
0000
1000
0000
0010
0000
0100
0000
0001
0000
0010
0000
0000
2000
0000
0000
,  // measure 105
0000
0000
3010
0000
0001
0000
1000
0000
0010
0000
0100
0001
1000
0100
0010
0000
,  // measure 106
0001
0000
1000
0010
0100
0000
1000
0000
0100
0010
1000
0000
0001
0000
0010
0000
,  // measure 107
1000
0000
0010
0001
0000
1000
0001
0000
0100
0000
0001
1000
0010
1000
0010
0100
,  // measure 108
1000
0000
0100
0010
1000
0000
0200
0000
0000
0000
1300
0001
0100
0010
2000
0000
,  // measure 109
0000
0000
3010
0100
0001
1000
0100
0010
0200
0000
1300
0001
0100
0010
1000
0100
,  // measure 110
1000
0010
0001
0010
0100
0001
0010
0100
,  // measure 111
1002
0000
0000
0000
,  // measure 112
0000
0000
0000
0000
0000
0000
1003
0010
1000
0010
0000
0000
,  // measure 113
1000
0001
0100
1000
0001
0010
1000
0100
0001
1000
0010
0001
,  // measure 114
0100
0010
0001
0010
1000
0001
0100
0000
0000
0000
0000
0000
,  // measure 115
0001
0100
0010
0001
0000
0000
0010
0100
0001
1000
0000
0000
0100
0010
1000
0010
,  // measure 116
0000
0000
0100
1000
0001
1000
0000
0000
0001
0100
0000
1000
0100
0000
0001
0100
,  // measure 117
0010
1000
0100
0010
0000
0000
1000
0010
0001
1000
0000
0000
0010
0100
1000
0100
,  // measure 118
0000
0000
0000
0000
0000
0000
0001
0000
0000
0010
0000
0000
0100
0000
0000
1000
0000
0000
0000
0000
0000
0000
0000
0000
0001
0000
0000
0000
0100
0000
0000
0000
1000
0000
0000
0000
0001
0000
0000
0000
0010
0000
0000
0000
1000
0000
0000
0000
,  // measure 119
0000
2002
0000
0000
,  // measure 120
0000
0000
0000
0000
,  // measure 121
0000
0000
0000
3003
;
