#TITLE:Stellaria;
#SUBTITLE:;
#ARTIST:Lime;
#TITLETRANSLIT:;
#SUBTITLETRANSLIT:;
#ARTISTTRANSLIT:;
#GENRE:Dramatical;
#CREDIT:;
#BANNER:Stellaria.png;
#BACKGROUND:Stellaria-bg.png;
#LYRICSPATH:;
#CDTITLE:../_YSD cdtitles/ysd sum mem cdtitle.png;
#MUSIC:Stellaria.ogg;
#OFFSET:-0.538000;
#SAMPLESTART:70.329002;
#SAMPLELENGTH:28.546000;
#SELECTABLE:YES;
#BPMS:0.000000=227.000000
;
#STOPS:
;
#BGCHANGES:;
#KEYSOUNDS:;
#ATTACKS:;

//---------------dance-single - ----------------
#NOTES:
     dance-single:
     :
     Beginner:
     4:
     0.175726,0.268475,0.248780,0.000000,0.000000,178.000000,142.000000,36.000000,0.000000,0.000000,0.000000,0.175726,0.268475,0.248780,0.000000,0.000000,178.000000,142.000000,36.000000,0.000000,0.000000,0.000000:
// measure 0
0000
0000
0000
0000
,  // measure 1
0000
0000
0000
0000
,  // measure 2
0000
0000
0000
0000
,  // measure 3
0000
0000
0000
0000
,  // measure 4
0000
0000
0000
0000
,  // measure 5
0000
0000
0000
0000
,  // measure 6
0000
0000
0000
1000
,  // measure 7
0000
0000
0001
0000
,  // measure 8
0000
0100
0000
0000
,  // measure 9
0010
0000
0000
1000
,  // measure 10
0000
0000
0001
0000
,  // measure 11
0000
0010
0000
0000
,  // measure 12
0100
0000
0000
1001
,  // measure 13
0000
0000
0001
0000
,  // measure 14
0000
0100
0000
0000
,  // measure 15
0010
0000
0000
1000
,  // measure 16
0000
0000
0100
0000
,  // measure 17
0000
0010
0000
0000
,  // measure 18
0001
0000
0000
1001
,  // measure 19
0000
0000
1000
0000
,  // measure 20
0000
1001
0000
0000
,  // measure 21
0100
0000
0000
1001
,  // measure 22
0000
0000
0110
0000
,  // measure 23
0000
1001
0000
0000
,  // measure 24
0110
0000
0000
1001
,  // measure 25
0000
0000
0000
0000
,  // measure 26
0000
0001
0000
0000
,  // measure 27
0000
0000
0000
0010
,  // measure 28
0000
0000
0000
0000
,  // measure 29
0000
0001
0000
0000
,  // measure 30
0000
0000
0000
0100
,  // measure 31
0000
0000
0000
0000
,  // measure 32
0000
0010
0000
0000
,  // measure 33
0000
0000
0000
1000
,  // measure 34
0000
0000
0000
0000
,  // measure 35
0000
1001
0000
0000
,  // measure 36
0010
0000
0000
1001
,  // measure 37
0000
0000
1000
0000
,  // measure 38
0000
0100
0000
0000
,  // measure 39
0010
0000
0000
0001
,  // measure 40
0000
0000
0100
0000
,  // measure 41
0000
0010
0000
0000
,  // measure 42
1000
0000
0000
0001
,  // measure 43
0000
0000
0010
0000
,  // measure 44
0000
0100
0000
0000
,  // measure 45
0010
0000
0000
0110
,  // measure 46
0000
0000
1001
0000
,  // measure 47
0000
0110
0000
0000
,  // measure 48
0000
0000
0000
1001
,  // measure 49
0000
0000
1001
0000
,  // measure 50
0000
0110
0000
0000
,  // measure 51
0110
0000
0000
0010
,  // measure 52
0000
0000
1000
0000
,  // measure 53
0000
0001
0000
0000
,  // measure 54
0010
0000
0000
0100
,  // measure 55
0000
0000
0010
0000
,  // measure 56
0000
0001
0000
0000
,  // measure 57
1000
0000
0000
1001
,  // measure 58
0000
0000
1001
0000
,  // measure 59
0000
0110
0000
0000
,  // measure 60
0110
0000
0000
1001
,  // measure 61
0000
0000
0000
0000
,  // measure 62
0000
0000
0000
0000
,  // measure 63
0000
0000
0000
0001
,  // measure 64
0000
0000
0000
0000
,  // measure 65
0000
0000
0000
0000
,  // measure 66
1000
0000
0000
1001
,  // measure 67
0000
0000
0001
0000
,  // measure 68
0000
0010
0000
0000
,  // measure 69
0100
0000
0000
0001
,  // measure 70
0000
0000
0100
0000
,  // measure 71
0000
1000
0000
0000
,  // measure 72
0010
0000
0000
0100
,  // measure 73
0000
0000
0001
0000
,  // measure 74
0000
0010
0000
0000
,  // measure 75
0100
0000
0000
0010
,  // measure 76
0000
0000
0001
0000
,  // measure 77
0000
1000
0000
0000
,  // measure 78
0010
0000
0000
0100
,  // measure 79
0000
0000
1000
0000
,  // measure 80
0000
0100
0000
0000
,  // measure 81
0001
0000
0000
1000
,  // measure 82
0000
0000
0100
0000
,  // measure 83
0000
0010
0000
0000
,  // measure 84
0001
0000
0000
1000
,  // measure 85
0000
0000
0010
0000
,  // measure 86
0000
0110
0000
0000
,  // measure 87
1001
0000
0000
0001
,  // measure 88
0000
0000
0010
0000
,  // measure 89
0000
0100
0000
0000
,  // measure 90
1000
0000
0000
0001
,  // measure 91
0000
0000
0100
0000
,  // measure 92
0000
0001
0000
0000
,  // measure 93
1000
0000
0000
1001
,  // measure 94
0000
0000
0000
0000
,  // measure 95
0000
0010
0000
0000
,  // measure 96
0000
0000
0000
1000
,  // measure 97
0000
0000
0000
0000
,  // measure 98
0000
0100
0000
0000
,  // measure 99
0000
0000
0000
0110
,  // measure 100
0000
0000
0100
0000
,  // measure 101
0000
0001
0000
0000
,  // measure 102
1000
0000
0000
0100
,  // measure 103
0000
0000
0010
0000
,  // measure 104
0000
0001
0000
0000
,  // measure 105
0110
0000
0000
1001
,  // measure 106
0000
0000
0010
0000
,  // measure 107
0000
0100
0000
0000
,  // measure 108
1000
0000
0000
1001
,  // measure 109
0000
0000
0000
0000
,  // measure 110
0000
0110
0000
0000
,  // measure 111
1001
0000
0000
1000
,  // measure 112
0000
0000
0100
0000
,  // measure 113
0000
0010
0000
0000
,  // measure 114
0001
0000
0000
0100
,  // measure 115
0000
0000
0010
0000
,  // measure 116
0000
1000
0000
0000
,  // measure 117
0100
0000
0000
0110
,  // measure 118
0000
0000
0001
0000
,  // measure 119
0000
1000
0000
0000
,  // measure 120
0010
0000
0000
1001
,  // measure 121
0000
0000
0110
0000
,  // measure 122
0000
1001
0000
0000
,  // measure 123
0001
0000
0000
1000
,  // measure 124
0000
0000
0000
0000
,  // measure 125
0000
0000
0000
0000
,  // measure 126
0000
0000
0000
0100
,  // measure 127
0000
0000
0000
0000
,  // measure 128
0000
0010
0000
0000
,  // measure 129
0000
0000
0001
0000
;

//---------------dance-single - ----------------
#NOTES:
     dance-single:
     :
     Easy:
     7:
     0.312950,0.448323,0.076016,0.400813,0.000000,317.000000,306.000000,11.000000,58.000000,0.000000,0.000000,0.312950,0.448323,0.076016,0.400813,0.000000,317.000000,306.000000,11.000000,58.000000,0.000000,0.000000:
0000
0000
0000
0000
,
0000
0000
0000
0000
,
0000
0000
0000
0000
,
0000
0000
0000
0000
,
0000
0000
0000
0000
,
0000
0000
0000
0000
,
0000
0000
0000
1000
,
0000
0001
0100
0000
,
0001
1000
0000
0100
,
0010
0000
0001
1000
,
0000
0010
1000
0000
,
0001
0010
0000
0001
,
1000
0000
0000
1001
,
0000
0001
0010
0000
,
0001
1000
0000
0010
,
1000
0000
0001
0010
,
0000
0100
1000
0000
,
0001
0100
0000
0010
,
1000
0000
0001
0020
,
0000
0000
0100
0000
,
0031
2000
0000
0000
,
3020
0230
0302
2003
,
0000
3100
0010
0000
,
0002
1003
0000
0000
,
2001
0000
0000
3002
,
0000
0000
0203
0000
,
0320
2030
0000
0000
,
3002
0023
0230
2300
,
0000
3200
0000
0000
,
0000
0000
0000
0000
,
0320
0000
2030
3020
,
0000
0000
0032
0000
,
0203
0320
0000
0000
,
2030
3020
0230
0302
,
0000
0000
0023
0000
,
0230
0000
1300
0000
0000
0001
0000
0000
,
0100
0000
0000
0010
,
0000
0000
1000
0000
,
0100
0010
0000
0000
,
1000
0010
0001
1000
,
0000
0010
0000
0100
,
0010
1000
0001
0010
,
0100
0000
0001
0100
,
0000
0000
1000
0000
,
0001
0000
0100
0000
0000
0010
0000
0000
,
1000
0000
0000
0001
0000
0000
0010
0000
,
0000
0000
0110
0000
,
0000
1100
0000
0000
,
1000
0001
0100
0010
,
0001
0010
1000
0100
,
0001
0100
0010
0001
,
1000
0010
0001
0010
,
0000
0000
0100
0001
,
1000
0100
0000
0010
,
0100
0000
0000
1000
,
0001
0100
0010
1000
,
0010
0100
0000
0001
,
1000
0000
0100
0110
,
0000
0010
0000
0000
0001
0000
0000
0000
,
0000
0000
0101
0000
0000
0100
0000
0000
,
0010
0000
0000
1001
,
0000
0000
0001
0000
,
0000
0100
0000
0000
,
0020
0000
0000
2000
,
0000
0000
0030
0000
,
0000
3000
0000
0000
,
0001
0010
0100
2001
,
0000
0000
3002
0000
,
0103
0020
0000
0000
,
0000
1030
0100
0010
,
0200
0000
0000
0000
,
1300
0001
0100
0010
,
0020
0000
1030
0002
,
0000
0000
0000
0013
,
0100
2000
0000
3001
,
0200
0000
0000
0000
,
0310
1000
0001
0010
,
0100
0001
0100
1000
,
0001
0100
0010
2000
,
0000
0000
3200
0000
,
0310
0002
0000
0000
,
0000
1003
0010
0100
,
0002
0000
0000
1003
,
0100
0010
0100
1000
,
2000
0000
3001
0200
,
0000
0000
0000
0310
,
1000
0000
0001
0000
0000
0010
0000
0000
,
0011
0000
0000
0001
,
1000
0001
0010
0100
,
0010
0001
1000
0001
,
0100
0010
0100
0001
,
1000
0100
0010
0100
,
1000
0001
0100
0010
,
2000
0000
0000
3002
,
0000
0000
0000
0000
,
0000
0203
0000
0000
,
0000
0000
0000
0310
,
0000
0000
2000
3002
,
0023
0230
0000
0000
,
2300
0000
0000
3001
,
0000
0100
0010
0000
,
1000
0100
0001
0100
,
1000
0000
0000
0001
,
0000
0100
0010
1000
,
0001
0010
1000
0010
,
0001
0000
0000
1001
0000
0000
1000
0000
,
0000
0001
0100
0010
,
0001
0010
1000
0100
,
0010
0001
1000
2020
,
0000
0000
0000
0000
,
3030
0010
0100
0010
,
1000
0100
0001
0100
,
0000
1000
0001
0000
,
0100
0010
0000
1000
,
0001
0000
0010
0100
,
0000
0001
0100
0000
,
1000
0001
0000
0100
,
0020
0000
0000
1030
,
0001
0010
1000
0010
,
0001
0100
1000
0100
,
0010
1000
0100
0001
,
1000
0010
0001
1000
,
0010
0001
0010
0100
,
0001
0010
0100
2000
,
0000
0000
0000
0000
,
0000
0000
0000
0000
,
0000
0000
0000
3000
,
0000
0001
0100
0000
,
0001
1000
0000
0100
,
0010
0001
0200
0300
;

//---------------dance-single - ----------------
#NOTES:
     dance-single:
     :
     Medium:
     13:
     0.493612,0.762149,0.103658,0.608130,0.006911,500.000000,485.000000,15.000000,88.000000,0.000000,0.000000,0.493612,0.762149,0.103658,0.608130,0.006911,500.000000,485.000000,15.000000,88.000000,0.000000,0.000000:
0000
0000
0000
0000
,
0000
0000
0000
0000
,
0000
0000
0000
0000
,
0000
0000
0000
0000
,
0000
0000
0000
0000
,
0000
0000
0000
0000
,
0000
0000
0000
1000
,
0001
0010
0100
0000
0010
0000
0000
0001
,
1000
0000
0010
0000
0000
0100
0000
0000
,
0001
0000
1000
0100
0010
0000
0100
0000
,
1000
0001
0100
0000
0010
0000
0000
1000
,
0001
0000
0010
0000
0100
1000
0000
0000
,
0001
0000
0100
0010
1000
0000
1001
0000
,
0000
0001
0010
0100
1000
0000
0000
0001
,
0100
0000
0010
0000
0000
1000
0000
0000
,
0100
0000
0010
0001
1000
0000
0001
0000
,
0000
1000
0100
0010
0001
0000
0000
1000
,
0001
0000
0010
0000
0001
1000
0000
0000
,
0010
0000
0100
0001
1000
0100
0020
0000
,
0000
0000
0000
0000
0000
0000
0031
1000
,
0010
0100
0002
0000
0000
0000
0000
0000
,
0203
2300
3200
0302
,
0000
0023
0230
0000
,
2300
3010
0000
0100
,
1001
0000
0000
2001
,
0000
0000
3002
0000
,
0013
0100
2000
0000
0000
0000
0000
0000
,
3020
0230
0302
2003
,
0000
3200
0000
0000
,
0000
0000
0000
0000
,
0320
0000
2030
3020
,
0000
0000
0032
0000
,
0203
0320
0000
0000
,
2030
3200
0302
0203
,
0000
2300
3001
0000
0002
0000
0203
0000
,
0320
0000
1030
0001
0000
0100
0000
0001
,
1000
1100
0000
0100
,
0010
0001
1000
0010
,
0100
0010
0001
0000
0010
0000
1000
0000
,
0100
0001
0100
1000
,
0001
0000
0100
0000
0010
0000
1000
0100
,
0010
0001
0010
0100
1000
0000
0001
0000
,
0100
0010
0001
0010
,
1000
0100
0001
0100
,
1000
0001
0100
0000
0010
1000
0001
0000
,
0010
0100
1000
1001
,
0001
0100
0010
0000
1001
0000
1000
0100
,
0010
0000
0001
1000
0000
0000
0001
0000
,
0100
0001
1000
0000
0100
0000
0010
0001
,
0000
0000
0000
1000
0000
0000
0001
0000
1000
0001
0000
0100
,
0001
0000
1000
0100
0001
0100
1000
0001
,
0100
0010
0001
0010
1000
0000
0001
0000
,
0010
0100
1000
0001
0100
0000
0010
0000
,
0001
0010
0100
0000
0001
1000
0100
0000
,
0110
0011
1001
1000
,
0010
0100
0001
0000
2000
0000
0100
0000
,
0010
3002
0100
1000
,
2003
0000
0000
0000
3010
0000
1000
0001
,
0000
0010
0000
0001
1000
0000
0010
0000
,
0100
0000
0001
1000
0000
0100
0000
1000
,
0001
0100
0010
2000
,
3200
0320
0032
0023
,
0230
0000
0302
0000
0000
0203
0000
0000
,
2300
0000
0000
3020
0000
0000
0200
0000
,
0000
0000
0030
0000
,
0000
0300
0000
0000
,
0001
0010
0100
0000
1000
0000
2001
0000
,
0000
0000
3020
0000
,
0130
0001
2000
0000
0000
0000
0000
0000
,
0000
0000
3100
0010
0001
0000
2000
0000
,
3020
0000
0000
0000
,
0130
0001
2000
0000
0100
0000
0001
0000
,
3002
0000
0000
0103
0001
0000
1000
0200
,
0000
0000
0000
0000
0000
0000
0310
0001
,
1000
0020
0000
0032
,
0023
0000
0000
1030
,
0100
0010
0001
0000
2000
0000
0010
0000
,
0100
3002
0010
0100
,
1003
0000
0001
1000
0000
0001
0200
0000
,
0000
0000
0320
0000
,
1030
0001
0020
0000
0000
0000
0000
0000
,
0000
0000
0130
1000
0001
0000
0200
0000
,
0320
0000
0000
0000
0000
0000
1030
0100
,
0010
0002
0100
1000
,
2003
0000
0000
3001
1000
0000
0001
0200
,
0000
0000
0000
0000
0000
0000
0310
1000
,
0001
0000
0011
0000
0000
1100
0000
0000
,
2020
0000
0000
0000
3030
0000
1000
0100
,
0010
0001
0100
0000
0001
1000
0100
0010
,
0100
0000
1000
0001
0100
0010
1000
0000
,
0001
0010
0100
1000
0010
0000
0100
0001
,
0010
0100
1000
0001
0100
0001
1000
0100
,
0010
0001
0100
0001
1000
0100
0001
0100
,
2000
0000
0000
3002
,
0000
0000
0203
0000
,
0000
0320
0000
0000
,
2030
0000
0000
3200
,
0000
0000
0320
0032
,
2003
3020
0000
0000
,
0230
0302
2003
3100
,
0000
0000
0010
0000
0001
2000
0000
0000
,
3010
0100
1000
0100
,
0001
0010
0100
1000
,
0000
0002
0100
0010
,
1000
0000
0203
0000
0010
0000
0301
1000
,
0100
0000
0000
0110
0000
0000
0011
0000
,
0000
0000
0001
1000
0020
0000
0000
0000
,
0031
0010
0100
0000
1000
0000
0100
0000
,
0001
0010
0100
1000
,
0000
0000
0001
0000
,
0000
1000
0001
0000
0100
0000
0010
0000
,
1000
0100
0010
0001
,
1000
0010
0100
0000
0001
0000
1000
0100
,
0010
0000
0100
0000
1000
0001
0100
0000
,
0010
0000
1000
0001
0010
0000
0100
0000
,
1000
0100
0010
0001
1000
0000
0001
0100
,
0010
1000
0001
0000
0010
0100
1000
0001
,
0200
0000
0000
0000
0000
0000
0310
0100
,
0001
1000
0100
0010
0001
0100
0010
1000
,
0100
0000
1000
0001
0100
0010
1000
0100
,
0010
0001
1000
0010
0100
0000
1000
0100
,
0001
0010
0100
0000
0001
0100
1000
0010
,
0100
0000
1000
0100
0001
1000
0100
0001
,
0100
0010
0001
1000
0010
0100
0002
0000
,
0000
0000
0000
0000
,
0000
0000
0000
0000
,
0000
0000
0000
0003
,
0100
0010
1000
0000
0001
0000
0000
0010
,
0100
0000
1000
0000
0000
0001
0000
0000
,
0100
0000
0010
1000
0200
0000
0300
0000
;

//---------------dance-single - ----------------
#NOTES:
     dance-single:
     :
     Hard:
     15:
     0.668350,0.851813,0.234959,0.566666,0.089837,677.000000,643.000000,34.000000,82.000000,0.000000,0.000000,0.668350,0.851813,0.234959,0.566666,0.089837,677.000000,643.000000,34.000000,82.000000,0.000000,0.000000:
0000
0000
0000
0000
,
0000
0000
0000
0000
,
0000
0000
0000
0000
,
0000
0000
0000
0000
,
0000
0000
0000
0000
,
0000
0000
0000
0000
,
0000
0000
0000
1000
,
0001
0010
0100
1000
0010
0000
0000
0100
,
0001
0100
0010
0000
0010
1000
0000
0000
,
0001
0000
1000
0100
0010
0000
0100
0000
,
1000
0001
0100
0001
0010
0000
0000
0100
,
1000
0100
0010
0000
0010
0001
0000
0000
,
1000
0000
0010
0100
0001
0000
1001
0000
,
1000
0100
0010
0001
0100
0000
0000
0001
,
0100
0001
0010
0000
0010
0100
0000
0000
,
1000
0000
0001
0100
0010
0000
1000
0000
,
0001
0010
0100
1000
0010
0000
0000
1000
,
0001
1000
0010
0000
0010
0100
0000
0000
,
0001
0000
0010
0100
1000
0001
0200
0000
,
0000
0000
0000
0000
0001
0000
0310
1000
,
0001
0010
0200
0000
0000
0000
0000
0000
,
0302
0203
2300
3002
,
0000
0203
0320
0000
,
2030
0000
0000
0000
3100
0000
0000
0000
0001
0000
0100
0000
1000
0000
0001
1000
,
0001
0000
0000
0201
,
0000
0000
0320
0000
,
1030
0100
0020
0000
0000
0000
0000
0000
,
0230
2300
3002
0203
,
0000
0320
0000
0000
,
0000
0000
0000
0000
,
0230
0000
2300
3200
,
0000
0000
0302
0000
,
2003
3200
0000
0000
,
0320
2030
3020
0032
,
0000
1003
0010
0000
0010
0000
0100
0000
,
0001
0000
1001
1000
0000
0001
0000
0010
,
0011
0000
0001
0000
1000
0000
0010
1000
,
0001
0010
0100
1000
0100
0010
0100
0001
,
0100
1000
0001
0100
0010
1000
0010
0001
,
0010
0100
0001
0010
0100
1000
0010
0100
,
0001
1000
0001
0010
0001
1000
0100
0010
,
0001
1000
0001
0010
0100
1000
0001
0010
,
0001
0100
0010
1000
0010
0001
0010
1000
,
0001
0010
0100
0001
0100
0010
0100
1000
,
0001
0100
0010
0001
0010
1000
0001
0010
,
0100
0010
0001
0100
0010
1000
0001
0000
,
0010
0000
0000
0000
0100
0000
1000
0001
1000
0000
0000
0000
0001
0000
0000
0000
,
0100
0000
0010
1000
0010
0000
1000
0000
0001
0000
0010
0000
0100
0000
1000
0000
,
0010
0000
0100
0000
0001
0000
1000
0001
,
1000
0000
0000
0100
0000
0000
1000
0000
0000
0000
0000
0000
0001
0000
0000
0000
0000
0000
0000
0000
0000
0000
0000
0000
1000
0000
0000
0000
0100
0000
0000
0000
0010
0000
0000
0000
0001
0000
0000
0000
0010
0000
0000
0000
0100
0000
0000
0000
,
1000
0000
0001
0000
0100
0000
0010
0000
0000
1000
0000
0000
0000
0000
0000
1001
0000
0000
0000
0000
0000
0001
0000
0000
,
0010
1000
0010
0001
1000
0010
0100
0000
,
0001
1000
0100
0001
0100
0000
1100
0000
,
1000
0010
0100
0000
1000
0100
0001
0010
,
0100
1100
1001
0101
,
0100
0010
1000
0100
0010
0000
0011
0000
,
1001
0000
1010
0000
0010
0100
0001
0010
,
0100
0000
1000
0100
0000
1000
0001
0101
,
0000
1001
0000
1100
1000
0000
0001
0000
,
0100
0000
0101
0001
0000
1000
0000
0100
,
1100
1000
0001
0201
,
0320
2030
3200
0320
,
0032
0000
0203
0000
0000
2300
0000
0000
,
3200
0000
0000
0302
0000
0000
2000
0000
,
0000
0000
0003
0000
,
0000
3000
0000
0000
,
0001
0010
0100
1000
0010
0100
0002
0000
,
0000
0100
2003
0100
,
3001
0100
0010
0000
1000
0001
0000
0010
,
0100
0000
0001
0100
1000
0001
0100
0000
,
0020
0000
1000
0000
0100
0000
1030
0001
,
0010
0100
1000
0000
1100
0000
1010
0000
,
1001
0000
0001
0010
0100
0000
0010
0002
,
0000
0000
0100
0000
1000
0000
0013
0100
,
0001
0100
2000
0000
0010
0000
3002
0000
,
0023
1000
0100
0031
,
1000
0100
0010
0001
0100
0000
0110
0000
,
0101
2001
0010
0100
,
3001
0000
1000
0001
0000
1000
0020
0000
,
0000
0100
2030
0100
,
3001
0010
0100
0000
1000
0100
0000
0010
,
0001
0000
1000
0010
0001
0010
0200
0000
,
0010
0000
1000
0000
0301
0000
1000
0100
,
0010
0001
0100
0000
0110
0000
1010
0000
,
1100
0000
1000
0001
0100
0000
0010
2000
,
0000
0000
0100
0000
0001
0000
3010
0001
,
0010
1000
1001
0000
0000
1100
0000
0000
,
0022
0000
0000
0000
0033
0000
0001
0010
,
0100
0001
0100
1000
0001
0100
0010
0001
,
0010
1000
0100
0010
1000
0010
0001
1000
,
0010
0100
0001
0010
1000
0010
0100
1000
,
0010
0001
0010
0100
0001
1000
0100
0001
,
0100
0000
1000
0000
0010
0000
0100
0000
0001
0000
1000
0000
0100
0000
0010
0001
,
0020
0000
0000
0031
,
1000
0010
0100
0000
0001
0000
1000
0100
,
0010
0000
0001
1000
0010
1000
0001
0000
,
0010
1000
0010
0100
1000
0001
0100
0001
,
0010
0100
1000
0001
0200
0000
0302
0000
,
0023
0000
0230
0000
0000
1300
0010
0100
,
0001
0010
0100
1200
,
0000
0000
0310
0100
1000
0020
0000
0000
,
0001
2030
0001
0100
,
3002
0010
1000
0103
,
0010
1000
0000
0001
0020
0000
0230
0000
,
0320
0000
2030
0000
3020
0000
0031
1000
,
1001
0000
0000
1010
0000
0000
0102
0000
,
0000
0000
1003
0100
0020
0000
0001
0000
,
0130
1000
0002
0000
0203
0000
2300
0000
,
3200
0000
0301
0010
0100
1000
0002
0000
,
0000
0000
2003
0000
,
0000
0000
3001
0100
0002
0000
0000
0000
0023
0000
0000
0000
2030
0000
0000
0000
,
3020
0000
0230
0000
2300
0000
3010
0100
,
1000
0100
0001
1000
0100
0010
1000
0010
,
0001
1000
0010
0001
0010
0100
0001
0010
,
0100
0001
0100
1000
0001
0100
1000
0100
,
0010
1000
0001
0010
1000
0010
0100
1000
,
0010
0100
1000
0100
0001
1000
0100
0010
,
0001
1000
0001
0000
1000
0000
0010
0000
0100
0000
0000
0000
0001
1000
0001
1000
,
0001
0000
0000
0000
0010
0000
0100
0000
1000
0001
0000
0000
0100
0001
0000
0000
,
1000
0010
0000
0000
1000
0001
1000
0001
1000
0000
0000
0000
0010
0000
0000
0000
,
0100
0001
0100
0001
0100
0000
0000
0000
0001
0000
0000
0000
1000
0001
1000
0000
,
0010
0000
0001
0000
0010
0000
0000
0000
1000
0001
1000
0000
0100
0000
0001
0000
,
0100
0000
0000
0000
1000
0001
1000
0000
0010
0000
0001
0000
0010
0000
1000
0000
,
0100
0000
0010
0000
1000
0000
0010
0000
0001
0000
1000
0001
0200
0000
0000
0000
,
0000
0000
0000
0000
,
0000
0000
0000
0000
,
0000
0000
0000
0300
,
0001
0010
0100
1000
0010
0000
0000
0100
,
0001
0100
0010
0000
0010
1000
0000
0000
,
0100
0000
0010
0001
2000
0000
3000
0000
;

//---------------dance-single - ----------------
#NOTES:
     dance-single:
     :
     Challenge:
     18:
     0.870731,1.479465,0.152032,0.552845,0.559756,882.000000,860.000000,22.000000,80.000000,0.000000,0.000000,0.870731,1.479465,0.152032,0.552845,0.559756,882.000000,860.000000,22.000000,80.000000,0.000000,0.000000:
0000
0000
0000
0000
,
0000
0000
0000
0000
,
0000
0000
0000
0000
,
0000
0000
0000
0000
,
0000
0000
0000
0000
,
0000
0000
0000
0000
,
0000
0000
0000
0000
0000
0000
1000
0001
,
0100
0001
0010
0100
1000
0000
0000
0001
,
0100
0001
1000
0100
0010
0001
0000
1000
,
0010
0000
0001
0010
1000
0000
0100
0010
,
0001
0100
0001
1000
0100
0000
0010
0000
,
0010
0100
1000
0000
0001
0002
0000
0000
,
0203
0000
0300
1001
,
0001
0010
0100
1000
0010
0000
0100
0001
,
0010
0001
1000
0000
0100
0010
0000
0000
,
0100
0000
0001
0100
1000
0001
0100
0000
,
0010
1000
0100
0010
0001
0000
0100
0001
,
0010
0001
1000
0000
0100
0100
0010
0000
,
0100
0000
0001
0100
1000
0001
0101
0000
,
0100
0001
0010
0100
1000
0000
0001
0100
,
0001
0010
0100
0000
1000
0100
0010
0100
,
0001
0100
1000
0010
0100
0001
0010
1000
,
0010
0000
0001
0000
1000
0010
1000
0010
0100
0000
1000
0000
0100
0000
0001
0000
,
1000
0100
1000
0100
0010
0000
0000
0000
0001
0100
0010
1000
0001
1000
0100
1000
,
0010
0000
0000
1002
,
0000
0000
0023
0000
,
0130
1000
0002
0000
0010
0000
0100
0000
,
1003
0010
0100
0002
,
0100
2003
0100
0000
,
0000
3001
0100
0010
,
0002
0000
0023
2030
,
0010
0100
3002
0000
,
0023
0230
0010
1000
,
0302
0203
2300
3002
,
0103
0001
1000
0000
2000
0000
3200
0000
,
0310
0000
0011
0001
0000
1001
0000
1000
,
1010
0000
0000
0000
0010
0000
0000
0000
0100
0001
1000
0100
0010
0000
1000
0000
,
0010
0000
0001
0000
0100
0000
0010
1000
0001
0000
0100
0000
0010
0000
0001
0000
,
0010
0000
0100
0001
1000
0000
0100
0000
0010
0000
1000
0000
0010
0000
0100
1000
,
0001
0000
0100
0000
1000
0000
0100
0000
0001
0000
0010
0100
1000
0000
0001
0000
,
0100
0000
0010
0000
1000
0001
1000
0000
0100
0000
0001
0000
0100
0000
0010
0000
,
0001
0000
1000
0010
0100
0000
1000
0000
0100
0000
0010
0000
1000
0000
0001
0010
,
0100
0000
0001
0000
0100
0000
1000
0000
0010
0000
0100
0001
1000
0000
0100
0000
,
0010
0000
1000
0000
0010
0000
0001
1000
0010
0000
0100
0000
1000
0000
0100
0000
,
0010
0000
1000
0001
0010
0000
0100
0000
0001
0000
0100
0000
1000
0000
0001
0100
,
0010
0001
0010
1000
0001
0010
0011
0000
,
0001
0000
1000
0000
0010
1000
0001
1000
0010
0000
0000
0000
0100
0000
0001
0000
,
1000
0100
0010
0100
1000
0000
0001
0000
0100
0000
1000
0000
0100
0000
0010
0000
,
1000
0000
0100
0000
0010
0100
1000
0001
0100
0010
1000
0001
0010
0000
0001
0000
,
1000
0000
0000
0100
0000
0000
0010
0000
0000
0001
0000
0000
1000
0000
0000
0010
0000
0000
0200
0000
0000
0000
0000
0000
0301
0000
0000
0000
0010
0000
0000
0000
0100
0000
0000
0000
1000
0000
0000
0000
0010
0000
0000
0000
0100
0000
0000
0000
,
0001
0000
0000
0000
1000
0000
0000
0000
0100
0000
0000
0000
0010
0000
0000
0000
0000
0000
0001
0000
0000
1000
0000
0000
0020
0000
0000
0000
0000
0000
0000
0000
0000
0000
0000
0000
0031
0000
0000
0000
0000
0000
0010
0000
0000
0000
0000
0000
,
1000
0000
0100
0010
0001
0100
0001
1000
0100
0010
0100
1000
0001
0000
0000
0000
,
0010
0000
0100
0000
0010
0000
1000
0000
0010
0000
0001
1000
0010
0000
1000
0001
,
0010
0000
0100
0000
1000
0000
0001
0100
0010
0100
0001
1000
0100
0000
0010
0000
,
0001
0000
1000
0010
0100
0010
1000
0001
0010
0000
0000
0000
0110
0000
0000
0000
,
0100
0000
0001
0000
0100
0000
1000
0001
0100
0000
0001
1000
0100
0000
0010
0001
,
1000
0000
0010
0100
0001
0000
0000
0000
0100
0000
1000
0000
0100
0000
0010
1000
,
0001
0000
0010
0100
1000
0001
0101
0100
,
0000
0000
1001
0000
0000
0000
1000
0000
1100
0000
0000
0000
0100
1000
0001
0100
,
0001
0000
0011
0010
0000
1001
0000
1000
,
1010
0000
0000
0000
0010
1000
0001
0010
0100
0000
0000
0000
1200
0000
0000
0000
,
2300
3200
0320
0032
,
0023
0000
2030
0000
0000
3020
0000
0000
,
0032
0000
0000
2003
0000
0000
0020
0000
,
0000
0000
3000
0000
,
0000
0030
0000
0000
,
1000
0100
0010
0001
0100
0010
2000
0000
,
0100
0000
0000
0000
3001
0000
1000
0001
0200
0000
0000
0000
1000
0000
0000
0000
,
0301
0000
0010
0100
2000
0000
0000
0000
0010
0000
0000
0000
3001
0000
0010
0100
,
1000
0000
0010
0100
1000
0100
0002
0000
,
0013
0000
0100
0000
0001
0000
0100
1000
0001
0000
0000
0000
0100
0000
0001
0000
,
0010
0000
0100
1000
0001
0000
0100
0000
1000
0000
0100
0000
0010
0000
1000
0001
,
0020
0000
0000
0000
0000
0000
0130
0000
1000
0000
0001
0100
0010
0000
2000
0000
,
0000
0000
3100
0000
0010
0000
0001
1000
0010
0000
0000
0000
0001
0000
0010
0000
,
1000
0000
0100
0010
0002
0000
0000
0000
0100
0000
0000
0000
1003
0000
0100
0010
,
0002
0000
0000
0000
0100
0000
0000
0000
1003
0000
0010
0100
0001
0000
0000
0000
,
0010
1000
0010
0100
2000
0000
0010
0000
,
3001
0000
0100
0010
1000
0000
0100
0000
0010
0000
0001
0000
0100
0000
0001
1000
,
0100
0000
0010
0000
0100
1000
0001
0100
0010
1000
0001
0010
0002
0000
0000
0000
,
0100
0000
0000
0000
1003
0000
0001
1000
0200
0000
0000
0000
0001
0000
0000
0000
,
1300
0000
0010
0100
0002
0000
0000
0000
0010
0000
0000
0000
1003
0000
0010
0100
,
0001
0000
0010
0100
0001
0100
2000
0000
,
3010
0000
0100
0000
1000
0000
0100
0001
1000
0000
0000
0000
0100
0000
1000
0000
,
0010
0000
0100
0001
1000
0000
0100
0000
0001
0000
0100
0000
0010
0000
0001
1000
,
0020
0000
0000
0000
0000
0000
0130
0000
0001
0000
1000
0100
0010
0000
0002
0000
,
0000
0000
0103
0000
0010
0000
1000
0001
0010
0000
0000
0000
1000
0000
0010
0000
,
0001
1000
1010
0000
0000
1001
0000
0000
,
0021
0000
0000
0000
0000
0000
0000
0000
0130
0000
0000
0000
1000
0001
0100
0001
,
1000
0000
0001
0000
0010
0000
0100
0000
1000
0001
0010
0001
1000
0000
0001
0000
,
0100
0000
0010
0000
1000
0100
0010
0001
1000
0000
0001
0000
0100
0000
0010
0000
,
1000
0001
0010
0100
1000
0000
0001
0000
0010
0000
0001
0000
1000
0010
0100
0010
,
1000
0001
0010
0001
0100
0000
0010
0000
1000
0001
0010
0001
1000
0010
1000
0001
,
0100
0000
0001
0000
1000
0100
0010
0100
1000
0001
0100
0010
1000
0001
0100
0001
,
0020
0000
0000
0032
,
0000
0000
0203
0000
,
0000
0320
0000
0000
,
2030
0000
0000
0000
0000
0000
3100
0010
,
0001
0010
0100
1000
0020
0000
0032
0000
,
0023
0000
2030
0000
0000
3100
0010
0001
,
2000
3020
0130
0101
,
0001
0010
0100
1000
0001
0200
0000
0000
,
1000
0000
0301
0000
1000
0200
0000
0000
,
0302
0000
0103
1000
0001
0100
0010
0000
,
1000
0010
0100
0001
2000
0000
3200
0000
,
0320
0000
2030
0000
3020
0000
0031
0100
,
0101
0000
0000
1010
0000
0000
2100
0000
,
3001
0100
0010
0100
0002
0000
0010
0000
,
1003
0100
0020
0000
1000
0000
0100
0000
,
0032
0000
0000
0000
0100
0000
0000
0000
1003
0100
1000
0010
0200
0000
0000
0000
,
0000
0000
0000
0000
,
0000
0000
0301
1000
0200
0000
0000
0000
0302
0000
0000
0000
2003
0000
0000
0000
,
3020
0000
0032
0000
2003
0000
3010
0100
,
0001
0000
0010
0000
0100
0000
1000
0001
0100
0000
0010
0000
1000
0000
0001
0000
,
0010
0000
0100
1000
0001
0000
0100
0000
0001
0000
0010
0000
0100
0000
1000
0001
,
0100
0000
0010
0000
1000
0000
0100
0000
0010
0000
0001
0100
0010
0000
0100
0000
,
0001
0000
1000
0000
0100
0010
0100
1000
0010
0000
0100
0000
0001
0000
1000
0000
,
0010
1000
0100
0010
0001
0000
0100
0000
0010
0000
1000
0000
0100
0010
0100
1000
,
0001
0100
0010
1000
0001
0010
0100
1000
0001
0000
0000
0000
1000
0001
0010
0100
,
0010
0001
1000
0010
0100
0001
1000
0001
0010
0100
1000
0000
0010
1000
0001
0000
,
0100
0010
1000
0000
0100
0010
0001
1000
0100
1000
0001
0100
0001
0010
0100
1000
,
0001
0100
0010
1000
0001
0100
0010
1000
0100
0010
0100
1000
0001
0100
0010
1000
,
0100
0010
0001
1000
0010
0000
0000
0000
1000
0001
0100
0010
1000
0100
0010
0001
,
1000
0100
0010
0001
1000
0010
0100
1000
0100
0000
0001
0000
0010
0000
0100
0000
,
0001
0000
0100
0000
1000
0010
0100
1000
0100
0010
1000
0001
2000
0000
0000
0000
,
0000
0000
0000
0000
,
0000
0000
0000
0000
,
0000
0000
0000
3000
,
0010
0100
0001
0010
0100
0000
0000
1000
,
0100
1000
0010
0000
0100
0001
0000
0000
,
0010
0000
1000
0010
0002
0000
0003
0000
;
