#VERSION:0.83;
#TITLE:Slipstream;
#SUBTITLE:;
#ARTIST:大平勇;
#TITLETRANSLIT:;
#SUBTITLETRANSLIT:;
#ARTISTTRANSLIT:Isamu Ohira;
#GENRE:;
#ORIGIN:Gran Turismo 3;
#TAGS:;
#CREDIT:skeleton made by hdm300;
#BANNER:Slipstream;
#BACKGROUND:Slipstream-bg.png;
#PREVIEWVID:;
#JACKET:Slipstream-jacket.png;
#CDIMAGE:;
#DISCIMAGE:;
#LYRICSPATH:;
#CDTITLE:../_YSD cdtitles/ysd sale3 cdtitle.png;
#MUSIC:Slipstream.ogg;
#OFFSET:-1.854000;
#SAMPLESTART:16.625000;
#SAMPLELENGTH:15.000000;
#SELECTABLE:YES;
#BPMS:0.000000=128.000000
;
#STOPS:;
#DELAYS:;
#WARPS:;
#TIMESIGNATURES:0.000000=4=4
;
#TICKCOUNTS:0.000000=4
;
#COMBOS:0.000000=1
;
#SPEEDS:0.000000=1.000000=0.000000=0
;
#SCROLLS:0.000000=1.000000
;
#FAKES:;
#LABELS:0.000000=Song Start
;
#BGCHANGES:;
#KEYSOUNDS:;
#ATTACKS:
;

//---------------dance-single - ----------------
#NOTEDATA:;
#CHARTNAME:;
#CHARTHASH:413664302;
#STEPSTYPE:dance-single;
#BANNER:;
#DESCRIPTION:;
#CHARTSTYLE:;
#DIFFICULTY:Hard;
#METER:15;
#METERF:0.000000;
#LASTSECONDHINT:91.736801;
#RADARVALUES:0.801662,0.754471,0.108542,0.119397,1.335070,517.000000,507.000000,10.000000,11.000000,0.000000,0.000000,0.000000,0.000000,0.000000,0.801662,0.754471,0.108542,0.119397,1.335070,517.000000,507.000000,10.000000,11.000000,0.000000,0.000000,0.000000,0.000000,0.000000;
#CREDIT:YOSEFU;
#NOTES:
0000
0000
0000
0000
,
0000
0000
0000
0000
,
0000
0000
0000
0000
,
0000
0000
0000
0000
,
1000
0000
0001
0100
0000
0010
0100
0001
0000
1000
0000
0100
0010
0000
0001
0100
,
0010
0000
1000
0001
0000
1000
0100
0010
0000
0001
0000
0100
0001
1000
0100
1000
,
0001
0000
0100
0001
0000
1000
0100
0010
0000
0010
0001
0000
1000
0000
0010
0100
,
0001
0000
2000
0000
3100
0010
0001
0010
0000
0011
0000
1001
0000
1000
0010
0000
,
0100
0000
0001
1000
0000
0001
0100
0010
0000
1000
0000
0100
0020
0000
0100
0000
,
0031
0000
1000
0010
0000
0100
0001
1000
0000
0100
0000
0010
0001
0010
0100
1000
,
0001
0000
0001
0000
0100
0000
0010
1000
0000
0001
0000
0010
0000
0100
1000
0100
,
0010
0000
0001
1000
0010
0000
0010
0100
0000
0100
0001
1000
0100
0010
0100
1000
,
0001
0100
0010
0100
0001
0000
1000
0100
0010
0001
0200
0000
0010
0000
0001
0000
,
0310
1000
0000
0001
0000
0010
0100
1000
0000
0001
0100
0010
0100
0001
1000
0100
,
0010
0000
0100
0001
0100
0010
0001
1000
0000
1000
0010
0100
0001
0010
0000
0100
,
1000
0000
0001
0100
0010
0100
0001
1000
0000
1100
0000
2002
3000
0000
0003
0000
,
1000
0000
0100
0010
0000
0001
1000
0010
0100
0001
0000
1000
0100
0010
0100
1000
,
0001
0000
0100
0010
0000
1000
0001
1000
0000
0100
0010
0100
1000
0010
0100
0010
,
0001
0000
0010
1000
0000
0100
0010
0000
0001
0100
0000
0010
1000
0000
0000
0001
,
0010
0000
0001
0100
0000
0010
1000
0000
0001
0010
0100
0010
0001
0100
0010
1000
,
0001
0000
1000
0000
0100
0000
0010
0001
0000
0000
1000
0000
0010
0100
0001
1000
,
0100
0010
0100
1000
0000
0001
0100
0010
0100
0000
0001
0010
0100
1000
0001
0100
,
0010
0000
1000
0010
0000
0100
1000
0000
0100
0001
0000
0010
0200
0000
0000
0000
,
1300
0001
0100
0010
0100
0001
0010
0100
0000
1100
0000
1001
0000
0000
0000
0000
,
0001
0000
0100
0010
0000
0100
0001
1000
0000
0001
0100
0000
0010
0000
1000
0001
,
0010
0000
0100
1000
0001
0100
0010
0000
1000
0100
0010
0001
1000
0010
0100
0000
,
0001
0000
0010
0100
1000
0000
0001
0100
0000
0010
1000
0000
0001
0010
0100
1000
,
0001
0000
0100
0000
0010
0000
1000
0001
0010
0100
1000
0100
1000
0000
0001
0000
,
0100
0000
0000
0000
0000
0000
0010
0000
0000
1000
0000
0000
0001
0000
0000
0000
0000
0000
0010
0000
0000
0100
0000
0000
1000
0000
0000
0000
0010
0000
0000
0000
0100
0000
0000
0000
0001
0000
0000
1000
0000
0000
0100
0000
0000
1000
0000
0000
,
0100
0010
0001
0010
0001
1000
0010
0100
0001
0000
0000
0100
0000
0000
1001
0000
,
0000
0001
0100
0001
1000
0100
0000
1100
0000
1000
0010
0100
0001
0000
0000
0000
,
1000
0100
1000
0010
0100
0001
1000
0100
0010
0001
1000
0020
0000
0000
0000
0000
,
0130
0000
0001
1000
0000
0100
0010
0001
0000
1000
0010
0000
0100
0001
1000
0100
,
0010
0000
0020
0000
0100
0000
0000
0031
0000
1000
0010
0000
0100
0000
0001
0000
,
1000
0100
0000
0100
0000
0100
1000
0001
0000
0100
0010
0100
0001
0000
1000
0100
,
0010
0000
0001
1000
0010
0000
0100
0001
1000
0000
0100
0010
0001
0000
1000
0000
,
0010
0000
0100
0001
1000
0000
0100
0010
0000
0010
0001
0000
1000
0000
0010
0100
,
0001
0000
1000
0100
0000
0100
0010
0000
0010
0001
0000
0001
1000
0000
0010
0100
,
0001
0000
1000
0100
0000
0100
0010
0001
0000
0001
1000
0010
0100
0000
0001
0000
,
1000
0000
0000
0000
0000
0000
0100
0000
0000
0010
0000
0000
0001
0000
0000
0100
0000
0000
0010
0000
0000
1000
0000
0000
0001
0000
0000
0010
0000
0000
0100
0000
0000
1000
0000
0000
0001
0000
0000
0000
0100
0000
0000
0000
0010
0000
0000
0000
,
1000
0000
0010
0000
0100
0001
1000
0100
0000
0010
0001
0000
1000
0010
0100
0001
,
1000
0000
0100
0010
0001
0000
1000
0010
0000
0100
0001
0010
0100
1000
0010
0100
,
1000
0000
0100
0001
0000
0001
0010
0100
0000
1000
0000
0001
0100
0010
0000
0010
,
1000
0000
1000
0001
0000
0001
0100
0010
0000
1000
0001
0010
0001
0100
0010
1000
,
0001
0000
1000
0100
0010
0000
0100
1000
0000
0001
0100
0010
1000
0010
0100
0001
,
1000
0100
0010
0001
1000
0010
1000
0100
0010
0000
0001
1000
0100
0000
0010
0001
,
1000
0010
0000
0010
0000
0100
0001
0010
0000
0010
0000
0100
2000
0000
0100
0000
,
3001
0100
0010
0100
1000
0100
0001
1000
0000
1100
0000
0022
0000
0003
0000
0030
;

//---------------dance-single - ----------------
#NOTEDATA:;
#CHARTNAME:;
#CHARTHASH:89904180;
#STEPSTYPE:dance-single;
#BANNER:;
#DESCRIPTION:;
#CHARTSTYLE:;
#DIFFICULTY:Beginner;
#METER:2;
#METERF:0.000000;
#LASTSECONDHINT:91.268051;
#RADARVALUES:0.091486,0.129403,0.043417,0.000000,0.010854,59.000000,55.000000,4.000000,0.000000,0.000000,0.000000,0.000000,0.000000,0.000000,0.091486,0.129403,0.043417,0.000000,0.010854,59.000000,55.000000,4.000000,0.000000,0.000000,0.000000,0.000000,0.000000,0.000000;
#CREDIT:YOSEFU;
#NOTES:
// measure 0
0000
0000
0000
0000
,  // measure 1
0000
0000
0000
0000
,  // measure 2
0000
0000
0000
0000
,  // measure 3
0000
0000
0000
0000
,  // measure 4
1000
0000
0000
0000
,  // measure 5
0001
0000
0000
0000
,  // measure 6
0100
0000
0000
0000
,  // measure 7
0010
0000
0000
0000
,  // measure 8
1001
0000
0000
0000
,  // measure 9
1000
0000
0000
0000
,  // measure 10
0100
0000
0000
0000
,  // measure 11
0010
0000
0000
0000
,  // measure 12
0010
0000
0000
0000
,  // measure 13
0001
0000
0000
0000
,  // measure 14
1000
0000
0000
0000
,  // measure 15
0010
0000
0000
0000
,  // measure 16
0100
0000
0000
0000
,  // measure 17
0001
0000
0000
0000
,  // measure 18
1000
0000
0000
0000
,  // measure 19
0100
0000
0000
0000
,  // measure 20
0010
0000
0000
0000
,  // measure 21
0001
0000
0000
0000
,  // measure 22
0100
0000
0000
0000
,  // measure 23
0100
0000
0000
0000
,  // measure 24
1001
0000
0000
0000
,  // measure 25
0001
0000
0000
0000
,  // measure 26
1000
0000
0000
0000
,  // measure 27
0100
0000
0000
0000
,  // measure 28
0010
0000
0000
0000
,  // measure 29
0001
0000
0000
0000
,  // measure 30
1000
0000
0000
0000
,  // measure 31
0010
0000
0010
0000
,  // measure 32
0110
0000
0000
0000
,  // measure 33
0100
0000
0100
0000
,  // measure 34
0100
0000
0000
0000
,  // measure 35
0001
0000
0001
0000
,  // measure 36
0001
0000
0000
0000
,  // measure 37
1000
0000
1000
0000
,  // measure 38
1000
0000
0000
0000
,  // measure 39
0100
0000
0100
0000
,  // measure 40
0110
0000
0000
0000
,  // measure 41
0001
0000
0001
0000
,  // measure 42
0001
0000
0000
0000
,  // measure 43
1000
0000
1000
0000
,  // measure 44
1000
0000
0000
0000
,  // measure 45
0001
0000
0001
0000
,  // measure 46
0001
0000
0001
0000
,  // measure 47
0100
0000
0000
0000
0000
0000
0000
0100
0000
0000
0000
0100
0000
0000
0000
0000
;

//---------------dance-single - ----------------
#NOTEDATA:;
#CHARTNAME:;
#CHARTHASH:1783815066;
#STEPSTYPE:dance-single;
#BANNER:;
#DESCRIPTION:;
#CHARTSTYLE:;
#DIFFICULTY:Easy;
#METER:5;
#METERF:0.000000;
#LASTSECONDHINT:91.736801;
#RADARVALUES:0.286862,0.338211,0.227939,0.108542,0.070552,185.000000,164.000000,21.000000,10.000000,0.000000,0.000000,0.000000,0.000000,0.000000,0.286862,0.338211,0.227939,0.108542,0.070552,185.000000,164.000000,21.000000,10.000000,0.000000,0.000000,0.000000,0.000000,0.000000;
#CREDIT:YOSEFU;
#NOTES:
// measure 0
0000
0000
0000
0000
,  // measure 1
0000
0000
0000
0000
,  // measure 2
0000
0000
0000
0000
,  // measure 3
0000
0000
0000
0000
,  // measure 4
1000
0010
1000
0000
,  // measure 5
0001
0010
0001
0000
,  // measure 6
1000
0100
1000
0000
,  // measure 7
0001
0000
0000
0000
0100
0000
0000
0010
0000
0000
0000
1010
0000
0000
0000
0000
,  // measure 8
2001
0000
0100
3002
,  // measure 9
0203
0000
0000
0310
,  // measure 10
1000
1000
0001
0001
,  // measure 11
0010
0100
1000
0001
,  // measure 12
0100
0010
2000
0000
,  // measure 13
3001
0010
0100
1000
,  // measure 14
0002
0000
2003
0000
,  // measure 15
3100
0000
0000
0000
0010
0000
0000
0001
0000
0000
0000
2002
0003
0000
3000
0000
,  // measure 16
0100
0010
0100
1000
,  // measure 17
0001
0100
0010
0000
,  // measure 18
1000
0010
0100
0001
,  // measure 19
1000
0100
0010
0000
,  // measure 20
0001
0100
0010
1000
,  // measure 21
0001
0010
0100
0000
,  // measure 22
0010
0001
1000
0010
,  // measure 23
0100
0000
0000
0000
0001
0000
0000
1000
0000
0000
0000
1100
0000
0000
0000
0000
,  // measure 24
0110
0010
0100
1000
,  // measure 25
0001
0000
0000
0000
0100
0000
0000
0000
0010
0000
0000
1000
0000
0000
1001
0000
,  // measure 26
0000
0001
0010
0100
,  // measure 27
1000
0001
0100
0010
,  // measure 28
1001
1000
0100
0010
,  // measure 29
0100
0000
0000
0000
1000
0000
0000
0000
0001
0000
0000
0100
0000
0000
0101
0000
,  // measure 30
0000
0001
1000
0100
,  // measure 31
0010
0000
0000
0000
0010
0000
0000
0000
0100
0000
0000
1001
0000
0000
0000
0000
,  // measure 32
0101
0001
0100
0010
,  // measure 33
1000
0100
0010
0001
,  // measure 34
0100
1000
0100
0001
,  // measure 35
0010
0100
1000
0010
,  // measure 36
0101
1001
1000
0010
,  // measure 37
0100
0001
0010
0100
,  // measure 38
1100
1000
0001
0100
,  // measure 39
0110
0010
1000
0001
,  // measure 40
1001
1010
1000
0100
,  // measure 41
0001
0100
1000
0001
,  // measure 42
0100
0100
1000
1000
,  // measure 43
0100
0001
0010
0100
,  // measure 44
1100
1010
0010
0100
,  // measure 45
1001
0001
0010
0100
,  // measure 46
1001
0100
0010
0100
,  // measure 47
1001
0000
0000
0000
0001
0000
0000
0200
0000
0000
0000
0020
0000
0300
0000
0030
;

//---------------dance-single - ----------------
#NOTEDATA:;
#CHARTNAME:;
#CHARTHASH:1592252591;
#STEPSTYPE:dance-single;
#BANNER:;
#DESCRIPTION:;
#CHARTSTYLE:;
#DIFFICULTY:Medium;
#METER:11;
#METERF:0.000000;
#LASTSECONDHINT:91.736801;
#RADARVALUES:0.469833,0.494308,0.097688,0.151959,0.445023,303.000000,294.000000,9.000000,14.000000,0.000000,0.000000,0.000000,0.000000,0.000000,0.469833,0.494308,0.097688,0.151959,0.445023,303.000000,294.000000,9.000000,14.000000,0.000000,0.000000,0.000000,0.000000,0.000000;
#CREDIT:YOSEFU;
#NOTES:
// measure 0
0000
0000
0000
0000
,  // measure 1
0000
0000
0000
0000
,  // measure 2
0000
0000
0000
0000
,  // measure 3
0000
0000
0000
0000
,  // measure 4
1000
0000
0000
1000
0000
0000
0000
0001
0000
0000
0000
0000
0100
0000
0000
0000
,  // measure 5
0010
0000
0000
0010
0000
0000
0000
1000
0000
0000
0000
0000
0001
0000
0000
0000
,  // measure 6
0010
0000
0000
0010
0000
0000
0000
0100
0000
0000
0100
0000
1000
0000
0000
0000
,  // measure 7
0001
0000
0100
0000
0010
0000
0000
1000
0000
0001
0000
1001
0000
0000
0000
0000
,  // measure 8
2000
0000
0000
0100
0000
0000
0000
0010
0000
0000
3000
0001
0200
0000
0000
0000
,  // measure 9
0320
0000
0000
0100
0000
0000
0000
1000
0000
0000
0000
0100
0030
0000
0001
0000
,  // measure 10
1000
0000
1000
0000
0100
0000
0000
0010
0000
0001
0000
0100
0001
0000
1000
0000
,  // measure 11
0100
0000
0010
0000
0001
0000
0000
1000
0000
0000
0010
0000
0100
0000
0001
0000
,  // measure 12
1000
0100
0010
0100
0001
0100
1000
0000
,  // measure 13
0001
0000
0000
0100
0000
0010
0000
0100
0000
0000
0001
0000
1000
0000
0100
0000
,  // measure 14
0010
0000
0001
0000
0100
0000
0000
0010
0000
0000
1000
0000
0002
0000
0000
0000
,  // measure 15
0013
0000
0100
0000
1000
0000
0000
0010
0000
0100
0000
0202
0300
0000
0003
0000
,  // measure 16
1000
0000
0000
0100
0000
0000
0010
0000
0001
1000
0000
0000
0010
0000
0100
0000
,  // measure 17
0001
0000
0000
1000
0000
0000
0000
0100
0000
0010
0001
0000
1000
0000
0010
0000
,  // measure 18
0100
0000
0000
0100
0000
0000
0001
0000
0000
0010
0000
0000
0100
0000
1000
0000
,  // measure 19
0001
0000
0000
0100
0000
0000
0010
0000
0000
1000
0010
0000
0100
0000
0001
0000
,  // measure 20
1000
0100
0010
0100
1000
0001
0100
0010
,  // measure 21
1000
0000
0000
0010
0000
0000
0000
0100
0000
0000
0001
0000
1000
0000
0100
0000
,  // measure 22
0010
0000
0000
0010
0000
0000
0001
0000
0000
0001
0000
0000
0200
0000
0000
0000
,  // measure 23
0310
0000
1000
0000
0001
0000
0010
0100
0000
1000
0000
1001
0000
0000
0000
0000
,  // measure 24
0001
0000
0000
0100
0000
0000
0010
0000
0000
0000
0100
0000
0001
0000
0000
0000
,  // measure 25
1000
0000
0100
0000
0010
0000
0001
0000
1000
0000
0000
0010
0000
0000
0201
0000
,  // measure 26
0000
0000
0301
0000
0010
0100
1000
0000
,  // measure 27
0001
0100
0010
0000
1000
0001
0010
0100
,  // measure 28
1000
0000
0000
0000
0000
0000
0000
0000
0000
0001
0000
0000
0100
0000
0000
0000
0000
0000
0010
0000
0000
0000
0000
0000
1000
0000
0000
0000
0100
0000
0000
0000
0010
0000
0000
0000
0002
0000
0000
0000
0000
0000
0000
0000
0000
0000
0000
0000
,  // measure 29
0100
0000
0000
0000
1000
0000
0000
0000
0103
0000
0010
1000
0000
0000
1001
0000
,  // measure 30
0000
0001
1000
0000
0001
1000
0000
0001
0000
1000
0010
0000
0100
0000
0000
0000
,  // measure 31
0001
0000
0010
0000
1000
0000
0010
0000
0001
0000
1000
0020
0000
0000
0000
0000
,  // measure 32
0130
0000
0000
0001
0000
0000
1000
0000
0100
0000
0010
0000
0001
0000
1000
0000
,  // measure 33
0010
0000
0020
0000
0100
0000
0000
0001
0000
0001
0000
0000
0130
0000
0001
0000
,  // measure 34
1000
0100
0000
0100
0000
0001
0000
0100
0000
1000
0001
0000
0100
0000
0010
0000
,  // measure 35
1000
0100
0010
1000
0010
0001
0100
0010
,  // measure 36
1000
0000
0001
0000
0011
0000
0000
0010
0000
0100
1000
0000
0001
0000
0100
0000
,  // measure 37
0010
0000
0100
0001
0000
0000
1000
0000
0000
0100
0000
0000
0010
0000
0001
0000
,  // measure 38
0100
0000
0010
1000
0000
0000
0001
0010
0000
0010
0100
0000
1000
0000
0000
0000
,  // measure 39
0100
0001
0100
1000
0001
0100
1000
0100
,  // measure 40
0101
0000
0001
0000
1001
0000
0000
1000
0000
0100
0010
0000
0001
0000
0100
0000
,  // measure 41
0010
0000
1000
0001
0000
0000
0000
0000
0010
0000
0100
0000
1000
0000
0010
0000
,  // measure 42
0001
0000
0010
0100
0000
0000
0001
0000
0000
1000
0000
0000
0100
0000
0010
0000
,  // measure 43
0001
0000
0000
0100
0000
0000
1000
0000
0000
0000
0100
0000
0001
0000
0010
0000
,  // measure 44
0100
0010
0001
0100
0010
1000
0100
0010
,  // measure 45
0001
0100
0010
0001
0010
1000
0100
0010
,  // measure 46
0001
0000
0000
0100
0000
0000
0010
1000
0000
0100
0000
0000
0020
0000
0000
0000
,  // measure 47
0031
0000
0100
0000
1000
0000
0100
0010
0000
1000
0000
2002
0000
3000
0000
0003
;
