#TITLE:Shadowblade;
#SUBTITLE:;
#ARTIST:Caster;
#TITLETRANSLIT:;
#SUBTITLETRANSLIT:;
#ARTISTTRANSLIT:;
#GENRE:Psycore / Neurofunk / Metalcore;
#CREDIT:skeleton made by darkanine;
#BANNER:Shadowblade.png;
#BACKGROUND:Shadowblade-bg.png;
#LYRICSPATH:;
#CDTITLE:../_YSD cdtitles/ysd sale2 cdtitle.png;
#MUSIC:Shadowblade.ogg;
#OFFSET:0.000000;
#SAMPLESTART:50.233002;
#SAMPLELENGTH:22.326000;
#SELECTABLE:YES;
#DISPLAYBPM:86.000000:172.000000;
#BPMS:0.000000=172.000000
,18.000000=688.000000
,18.500000=172.000000
,268.500000=86.000000
,293.500000=91.000000
,294.000000=96.000000
,294.500000=101.000000
,295.000000=110.000000
,295.500000=117.000000
,296.000000=125.999992
,296.500000=140.000000
,297.000000=150.000000
,297.500000=171.000000
,298.000000=180.000000
,299.000000=230.000000
,299.500000=236.000000
,300.000000=255.000000
,300.500000=266.000000
,301.000000=290.000000
,301.500000=308.000000
,302.000000=330.000000
,302.500000=345.000000
,303.000000=371.000000
,303.500000=384.000000
,304.000000=411.000000
,304.500000=433.000000
,305.000000=464.000000
,305.500000=466.000000
,306.000000=492.999969
,306.500000=527.000000
,307.000000=545.000000
,307.500000=560.000000
,308.000000=600.000000
,308.500000=610.000000
,309.000000=640.000000
,309.500000=658.000000
,310.000000=682.000000
,310.500000=703.000000
,311.000000=741.000000
,312.000000=793.000000
,313.000000=833.000000
,314.000000=884.000000
,315.000000=933.000000
,316.000000=980.000061
,317.000000=1031.000000
,318.000000=1080.000000
,319.000000=1111.000000
,320.000000=1185.000000
,321.000000=1234.000000
,322.000000=1275.000000
,323.000000=1315.000000
,324.000000=1300.000000
,324.500000=1200.000000
,325.000000=1100.000000
,325.500000=999.999939
,326.000000=900.000000
,326.500000=800.000000
,327.000000=700.000000
,327.500000=600.000000
,328.000000=499.999969
,328.500000=400.000000
,329.000000=300.000000
,329.500000=200.000000
,330.000000=100.000000
,330.500000=86.000000
;
#STOPS:18.500000=0.480000,
82.000000=0.174000,
114.500000=0.174000,
146.000000=0.174000,
161.500000=0.174000,
177.000000=0.174000,
268.500000=1.047000
;
#BGCHANGES:;
#KEYSOUNDS:;
#ATTACKS:;

//---------------dance-single - ----------------
#NOTES:
     dance-single:
     :
     Beginner:
     5:
     0.199770,0.455726,0.216418,0.024971,0.000000,168.000000,142.000000,26.000000,3.000000,0.000000,0.000000,0.199770,0.455726,0.216418,0.024971,0.000000,168.000000,142.000000,26.000000,3.000000,0.000000,0.000000:
// measure 0
0000
0000
0000
0000
,  // measure 1
0000
0000
0000
0000
,  // measure 2
0000
0000
0000
0000
,  // measure 3
1000
0000
0001
0000
,  // measure 4
1000
0000
0000
0000
0020
0030
1000
0000
,  // measure 5
0000
0001
0000
1000
,  // measure 6
0000
0001
0000
0100
,  // measure 7
0000
0010
0000
0100
,  // measure 8
0000
0010
0000
1000
,  // measure 9
0000
0001
0000
1000
,  // measure 10
0000
0100
0000
1000
,  // measure 11
0000
0001
0000
0100
,  // measure 12
0000
0010
0000
1001
,  // measure 13
0000
0000
0000
1000
,  // measure 14
0000
0000
0000
1001
,  // measure 15
0000
0000
0000
1000
,  // measure 16
0000
0000
0000
0100
,  // measure 17
0000
0100
0000
0010
,  // measure 18
0000
0010
0000
0100
,  // measure 19
0000
0100
0000
1000
,  // measure 20
0000
0000
1000
0000
0000
0001
0000
0000
,  // measure 21
0000
0100
0000
0000
0000
0001
0000
0000
,  // measure 22
0000
0100
0000
0000
0000
0010
0000
0000
,  // measure 23
0000
1000
0000
0000
0000
0010
0000
0000
,  // measure 24
0000
1000
0000
0000
0000
0001
0000
0000
,  // measure 25
0000
0010
0000
0000
0000
0001
0000
0000
,  // measure 26
0000
0010
0000
0000
0000
0100
0000
0000
,  // measure 27
0000
1000
0000
0000
0000
0001
0000
0000
,  // measure 28
0000
0000
0000
0000
0000
1000
0000
0000
,  // measure 29
1000
0000
0001
0000
,  // measure 30
1000
0000
0010
0000
,  // measure 31
0100
0000
0010
0000
,  // measure 32
0100
0000
0001
0000
,  // measure 33
1000
0000
0001
0000
,  // measure 34
1000
0000
0100
0000
,  // measure 35
0010
0000
0100
0000
,  // measure 36
1001
0000
0000
0000
0110
0000
0000
0010
,  // measure 37
0000
0000
0000
0100
0000
0000
0000
0010
,  // measure 38
0000
0000
0000
0100
0000
0000
0000
0001
,  // measure 39
0000
0000
0000
1000
0000
0000
0000
0001
,  // measure 40
0000
0000
0000
1001
0000
0000
0100
0000
,  // measure 41
0000
0010
0000
0100
,  // measure 42
0000
0001
0000
1000
,  // measure 43
0000
0001
0000
0010
,  // measure 44
0000
0000
1001
0000
0000
1000
0000
0000
,  // measure 45
0000
0001
0000
0000
0000
0100
0000
0000
,  // measure 46
0000
0001
0000
0000
0000
1000
0000
0000
,  // measure 47
0000
0001
0000
0000
0000
0010
0000
0000
,  // measure 48
0000
0100
0000
0000
0000
0100
0000
0000
,  // measure 49
0000
1000
0000
0000
0000
1000
0000
0000
,  // measure 50
0000
0001
0000
0000
0000
0001
0000
0000
,  // measure 51
0000
0100
0000
0000
0000
0100
0000
0000
,  // measure 52
0000
0020
0000
0000
0000
0000
0000
0030
,  // measure 53
0000
0100
0000
0100
0000
0100
0000
0000
,  // measure 54
0000
0001
0000
0001
0000
0001
0000
0000
,  // measure 55
0000
1000
0000
1000
0000
1000
0000
0000
,  // measure 56
0000
0100
0000
0100
0000
0100
0000
0000
,  // measure 57
0000
0010
0000
0010
0000
0010
0000
0000
,  // measure 58
0000
0001
0000
0000
0000
0000
0000
0000
,  // measure 59
0000
1000
0000
0000
0000
0000
0000
0000
,  // measure 60
0000
0020
0000
0000
0000
0000
0000
0000
,  // measure 61
0000
0000
0000
0000
,  // measure 62
0000
0000
0000
0000
,  // measure 63
0000
0030
0000
0000
0000
0000
0000
0000
,  // measure 64
0000
1001
0000
0000
0000
1001
0000
0000
,  // measure 65
0000
1001
0000
0000
0000
1001
0000
0000
,  // measure 66
0000
1000
0000
0000
0000
0001
0000
0000
,  // measure 67
0000
1000
1001
0000
0110
0000
1001
0000
,  // measure 68
0000
0110
0000
0000
1001
0000
0110
0000
,  // measure 69
0001
1001
1000
0010
,  // measure 70
0000
0110
0000
0000
1001
0000
1001
0000
,  // measure 71
0010
0110
1001
0110
,  // measure 72
0000
1001
0000
0000
0110
0000
1000
0000
,  // measure 73
1001
0000
0000
0000
;

//---------------dance-single - ----------------
#NOTES:
     dance-single:
     :
     Easy:
     9:
     0.423323,0.619912,0.258037,0.349598,0.033295,356.000000,325.000000,31.000000,42.000000,0.000000,0.000000,0.423323,0.619912,0.258037,0.349598,0.033295,356.000000,325.000000,31.000000,42.000000,0.000000,0.000000:
0000
0000
0000
0000
,
0000
0000
0000
0000
,
0000
0000
0000
0000
,
1000
0010
1000
0000
0001
0010
0001
0000
,
1000
0010
1000
0000
0200
0300
0010
0000
,
0001
0010
0100
1000
,
0010
0100
0001
0101
,
1010
0011
1100
1010
,
0101
0000
1100
0000
0011
0000
0001
0100
,
0001
0000
1000
0100
1000
0000
0001
0010
,
0001
0000
1000
0010
1000
0000
0001
0100
,
0010
0000
1000
0001
0010
0000
0001
1000
,
0010
0100
0110
0001
,
1000
0001
0100
0010
,
0100
0000
0001
0000
1000
0100
0010
0000
,
0001
1000
0010
0100
,
0001
0000
1000
0000
0100
0010
0001
0000
,
1000
0010
0100
0010
,
1000
0001
0010
0100
,
1000
0000
0001
0000
0100
0000
0010
1000
,
0010
0000
0000
0000
0000
0000
0000
0000
0100
0000
0000
0000
0001
0000
0000
0000
0200
0300
0000
0000
0110
0000
0000
0000
0000
0000
0000
0000
1000
0000
0000
0000
,
0000
0001
0000
0010
0000
0110
0000
0100
,
0000
1000
0000
0001
0100
0010
0000
1000
,
0000
0001
0000
0010
0000
0110
0000
0100
,
0000
1000
0000
0001
0100
0010
0000
1000
,
0000
0100
0000
0010
0000
0011
0000
0001
,
0000
1000
0000
0010
0000
0110
0000
0100
,
0000
0001
0000
1000
0000
0100
0000
0010
,
0000
0000
0000
0000
0000
0000
0000
0000
0010
0000
0000
0000
0000
0000
0000
0000
0000
0000
0000
0000
0002
0003
0000
0000
1000
0000
0000
0000
0000
0000
0000
0000
,
0010
0100
0101
1000
,
0100
0010
0011
0001
,
1000
0010
0101
1000
,
0100
0000
0010
0000
0001
0010
0001
0000
,
1000
0010
1000
0000
0001
0100
0001
0000
,
1000
0100
1000
0000
0001
0010
0001
0000
,
1000
0010
1000
0000
0001
0010
0100
0010
,
0002
0000
0000
0000
0000
0000
0000
0000
0003
0000
0000
0000
0000
0000
0000
0000
0200
0300
0000
0000
0010
0000
0000
0000
0000
0000
0000
0000
1000
0000
0000
0000
,
0000
0001
0010
0001
0000
1000
0010
1000
,
0000
0002
0000
1003
0000
0100
0000
0010
,
0000
0001
0010
0001
0000
1000
0010
1000
,
0000
0000
0000
0000
0200
0000
0000
0000
0000
0000
0000
0000
0320
0030
0000
0000
0001
0000
0000
0000
0000
0000
0000
0000
1000
0000
0000
0000
0000
0000
0000
0000
,
0010
0100
0010
0000
1000
0001
1000
0000
,
0100
0010
0001
1000
,
0010
0000
0100
0000
0001
0000
0000
1000
,
0000
0000
0000
0000
0000
0000
0000
0000
0200
0300
0000
0000
0010
0000
0000
0000
0000
0000
0000
0000
0001
0000
0000
0000
0000
0000
0000
0000
1000
0000
0000
0000
,
0100
0010
0000
0001
0010
0100
0000
2000
,
0000
3001
0000
0100
0000
0010
0000
1000
,
0100
0010
0000
0001
0100
0010
0000
1000
,
0000
0001
0010
0001
0000
1000
0010
1000
,
0000
0001
0100
0001
0000
1000
0100
1000
,
0000
0001
0100
0010
0000
1000
0010
0100
,
0000
0001
1000
0100
0000
0010
0001
2000
,
0000
0002
0000
0000
0000
0000
0000
3003
,
0000
1000
0100
1000
0000
0001
0100
0001
,
0000
1000
0010
1000
0000
0001
0010
0001
,
0000
1000
0100
0010
0000
0001
0010
0100
,
0000
1000
0010
0100
0000
0001
0100
0010
,
0000
1000
0100
0010
0000
0001
0100
0010
,
0000
0000
1000
0001
0000
0000
1000
0010
,
0000
0000
0100
0001
0000
0000
1000
0100
,
0000
0020
0000
0000
0000
0000
0000
0000
,
0000
0000
0000
0000
,
0000
0000
0000
0000
,
0000
0000
0000
0000
0000
0000
0000
0030
,
0000
0022
0000
0033
0000
2200
0000
3300
,
0000
1000
0000
0010
0000
0100
0000
0001
,
0000
0100
0001
0100
0000
0010
1000
0010
,
0000
0000
0000
0000
0200
0300
0000
0000
2002
0000
0000
0000
3003
0000
0000
0000
0220
0000
0000
0000
0330
0000
0000
0000
0001
0000
0000
0000
1000
0000
0000
0000
,
0010
0202
0000
0303
2200
3300
1000
0010
,
0100
0001
0100
0000
0010
0000
1000
0000
2002
0000
3003
0000
0001
0000
0010
0000
,
0100
2200
0000
3300
0022
0033
0001
0100
,
0010
1000
2200
3300
0022
0033
0001
0100
,
0010
0000
2020
0000
0000
3030
0000
0000
2200
0000
3300
0000
0010
0000
0100
0000
,
2002
0000
0000
0000
,
0000
0000
0000
0000
,
0000
0000
0000
0000
,
0000
0000
0000
0000
,
0000
0000
0000
0000
,
0000
0000
0000
0000
,
0000
0000
0000
0000
,
0000
0000
0000
0000
,
0000
0000
0000
0000
,
0000
0000
0000
3003
;

//---------------dance-single - ----------------
#NOTES:
     dance-single:
     :
     Medium:
     12:
     0.532721,0.654352,0.141504,0.291332,0.070752,448.000000,431.000000,17.000000,35.000000,0.000000,0.000000,0.532721,0.654352,0.141504,0.291332,0.070752,448.000000,431.000000,17.000000,35.000000,0.000000,0.000000:
0000
0000
0000
0000
,
0000
0000
0000
0000
,
0000
0000
0000
0000
,
1000
0010
1000
0010
0100
0001
0100
0001
,
0010
0100
0010
0100
2000
3000
0001
0100
,
0010
0000
1000
0100
0010
0000
0001
0100
,
0010
0000
1000
0100
0010
0000
0001
0100
,
1000
0000
0100
0001
1000
0000
0100
0001
,
0100
0000
1000
0001
0100
0000
0010
1000
,
0100
0010
0001
0010
0001
1000
0010
0100
,
0001
0100
0001
1000
0100
0010
0001
0100
,
0010
1000
0001
0010
0100
1000
0010
0100
,
0001
1000
0100
0010
0001
1000
0010
0100
,
0001
0000
1000
0100
0010
0000
0100
1000
,
0001
0000
0100
0010
1000
0000
0001
0010
,
0100
0000
0010
0001
1000
0000
0010
0100
,
0001
0000
1000
0100
0010
0000
0001
0100
,
0010
0000
1000
0100
0010
0000
0100
1000
,
0001
0000
0100
0010
1000
0000
0100
0010
,
0001
0000
1000
0010
0100
0000
0001
0010
,
0100
0000
0000
0000
1000
0000
0000
0000
0100
0000
0000
0000
0010
0000
0000
0000
0002
0003
0000
0000
1000
0000
0000
0000
0010
0000
0000
0000
0100
0000
0000
0000
,
0000
0001
0010
0100
0000
1000
0001
0100
,
0000
0010
1000
0100
0000
0010
0001
1000
,
0000
0010
0100
0001
0000
1000
0100
0010
,
0000
0001
0100
0010
0000
1000
0100
0010
,
0000
0001
0100
0010
0000
1000
0100
0010
,
0000
0001
0100
0010
0000
1000
0001
0010
,
0000
0100
1000
0010
0000
0100
0100
0001
,
0000
0000
0010
0000
0000
0000
0000
0000
0010
0000
0000
0000
0000
0000
0100
0000
0000
0000
0000
0000
0200
0300
0000
0000
1000
0000
0000
0000
0001
0000
0000
0000
,
0100
0001
1000
0000
0100
0010
0100
1000
,
0001
0100
0010
0000
1000
0001
0010
0100
,
1000
0001
0100
0000
0010
1000
0100
0010
,
0001
1000
0010
0000
0100
0001
1000
0001
,
0100
0010
1000
0100
0010
0001
1000
0001
,
0100
0001
0010
0100
1000
0001
0100
0010
,
1000
0001
1000
0100
0010
0001
1000
0010
,
0100
0000
0000
0000
0001
0000
0000
0000
1000
0000
0000
0000
0000
0000
0000
0000
0200
0300
0000
0000
1000
0000
0000
0000
0000
0000
0001
0000
0000
0000
0000
0000
,
0100
0010
1000
0001
0000
1000
0100
0010
,
0000
0000
0002
0000
0000
0000
0103
0000
0000
0000
0010
0000
0000
1000
0000
0000
,
0001
0010
0100
1000
0000
0001
0100
0010
,
0000
0000
0000
0000
2000
0000
0000
0000
0000
0000
0000
0000
3200
0300
0000
0000
0010
0000
0000
0000
0000
0000
0001
0000
0000
0000
0000
0000
1000
0000
0000
0000
,
0010
0100
0001
0000
0010
0100
1000
0000
,
0010
0000
0100
0001
1000
0001
0100
0010
,
1000
0000
0001
0000
0010
0000
0010
0000
0100
0000
0000
0100
0000
0000
1000
0000
,
0000
0000
1000
0000
0000
0000
0000
0000
0002
0003
0000
0000
0100
0000
0000
0000
0000
0000
0010
0000
0000
0000
0000
0000
1000
0000
0000
0000
0001
0000
0000
0000
,
0010
0100
0000
1000
0010
0100
0000
0002
,
0000
0000
0013
0000
0000
0000
0100
0000
0000
1000
0000
0000
0001
0000
0100
0000
,
0010
1000
0010
0100
0001
1000
0100
0010
,
0000
0001
0010
0001
0010
0100
1000
0100
,
1000
0100
1000
0001
0100
0001
0100
0010
,
1000
0001
0010
0100
1000
0010
0100
0001
,
1000
0100
0010
0001
1000
0010
0100
0002
,
0000
2000
0000
0000
0000
0000
0000
3003
,
0000
1000
0010
0100
0010
1000
0001
0010
,
0001
1000
0100
0010
0100
1000
0001
0100
,
0010
1000
0100
0010
0001
1000
0010
0100
,
0001
0010
0100
1000
0001
0100
0001
0010
,
0100
1000
0010
1000
0001
0010
0100
1000
,
0001
0100
0010
1000
0001
0000
1000
0100
,
0010
0000
0001
0100
0010
0000
1000
0100
,
0010
0002
0000
0000
0000
0000
0000
0000
,
0000
0000
0000
0000
,
0000
0000
0000
0000
,
0000
0000
0000
0000
0000
0000
0000
0003
,
0000
0101
0000
0000
0000
1010
0000
0000
,
0000
1001
0000
0001
0000
0010
0000
0100
,
0000
1000
0100
0010
0001
0100
0010
1000
,
0001
0000
0000
0000
0020
0030
0000
0000
0022
0000
0000
0000
0033
0000
0000
0000
2200
0000
0000
0000
3300
0000
0000
0000
1000
0000
0000
0000
0010
0000
0000
0000
,
0100
0202
0000
0303
2002
3003
1000
0100
,
0010
0001
0100
0010
1000
0000
0001
0000
0202
0000
0303
0000
0001
0000
0010
0000
,
0100
2200
0000
3300
2020
3030
0101
0001
,
1000
0100
0220
0330
2002
3003
1000
0100
,
0010
0011
0000
0000
0202
0303
1010
0100
,
2002
0000
0000
0000
,
0000
0000
0000
0000
,
0000
0000
0000
0000
,
0000
0000
0000
0000
,
0000
0000
0000
0000
,
0000
0000
0000
0000
,
0000
0000
0000
0000
,
0000
0000
0000
0000
,
0000
0000
0000
0000
,
0000
0000
0000
3003
;

//---------------dance-single - ----------------
#NOTES:
     dance-single:
     :
     Hard:
     15:
     0.700385,0.964308,0.216418,0.258037,0.549368,589.000000,563.000000,26.000000,31.000000,39.000000,0.000000,0.700385,0.964308,0.216418,0.258037,0.549368,589.000000,563.000000,26.000000,31.000000,39.000000,0.000000:
0000
0000
0000
0000
,
0000
0000
0000
0000
,
0000
0000
0000
0000
,
1000
0100
0010
0001
0100
0010
1000
0001
,
0100
0001
0100
0001
1000
0100
1000
0100
0020
0000
0030
0000
0001
0000
0100
0000
,
0010
1000
0010
0000
0000
0000
0100
0000
0001
1000
0001
0000
0000
0000
0010
0000
,
0100
1000
0100
0000
0000
0000
0010
0000
0001
1000
0001
0000
0100
0000
0001
0000
,
0010
0001
0010
0000
0100
0000
1000
0000
0001
1000
0001
0000
0100
0000
0010
0000
,
1000
0010
1000
0000
0001
0000
0010
0000
0100
0010
0100
0000
0010
0000
0001
0000
,
0010
0001
1000
0010
1000
0010
0100
0001
,
0100
0001
1000
0100
1000
0100
0010
0001
,
0100
0000
0010
0000
1000
0000
0100
0000
0010
0000
0001
0000
1000
0001
1000
0001
,
1000
0001
1000
0001
1000
0001
1000
0001
0100
0000
0000
0000
0010
0000
1000
0000
,
0001
1000
0001
0000
0000
0000
0010
0000
0100
1000
0100
0000
0000
0000
0010
0000
,
0001
1000
0001
0000
0000
0000
0100
0000
0010
1000
0010
0000
0000
0000
1000
0000
,
0100
0010
0100
0000
0000
0000
0010
0000
0001
1000
0001
0000
0000
0000
0100
0000
,
0001
1000
0001
0000
0000
0000
1000
0000
0100
0010
0100
0000
1000
0000
0001
0000
,
0100
0001
0100
0000
0000
0000
0010
0000
1000
0001
1000
0000
0000
0000
0100
0000
,
0010
0001
0010
0000
0000
0000
0100
0000
1000
0001
1000
0000
0000
0000
0010
0000
,
0100
0001
0100
0000
0000
0000
0001
0000
0010
0100
0010
0000
0001
0000
0100
0000
,
1000
0000
0000
0000
0100
0000
0000
0000
0001
0000
1000
0000
0001
0000
1000
0000
0200
0300
0000
0000
0010
0000
0000
0000
0001
0000
0000
0000
1000
0000
0100
0000
,
1000
0000
0000
0000
0001
0000
1000
0100
1000
0000
0000
0000
0010
0000
0100
0001
,
0100
0000
0000
0000
0010
0000
1000
0001
1000
0000
0000
0000
0100
0000
0010
0001
,
0010
0000
0000
0000
0100
0000
1000
0001
1000
0000
0000
0000
0010
0000
0100
0001
,
0100
0000
0000
0000
0001
0000
1000
0100
1000
0000
0001
0000
0100
0000
0010
1000
,
0010
0000
0000
0000
0100
0000
0001
1000
0001
0000
0000
0000
0010
0000
0100
0010
,
0100
0000
0000
0000
0010
0000
0001
1000
0001
0000
0000
0000
1000
0000
0010
0100
,
0010
0000
0000
0000
1000
0000
0001
0010
0001
0000
0100
0000
0100
0000
0010
0000
,
0000
0000
1000
0000
0001
0000
1000
0000
0010
0000
0000
0000
0000
0000
1000
0000
0001
0000
1000
0000
0200
0300
0000
0000
0010
0000
0001
0000
1000
0000
0000
0000
,
0000
0000
0010
0000
0100
0001
1000
0000
0000
0000
0100
0000
0010
0001
1000
0000
,
0000
0000
0010
0000
0100
0001
1000
0000
0000
0000
0001
0000
0010
0100
1000
0000
,
0000
0000
0001
0000
0100
0010
1000
0000
0000
0000
0001
0000
1000
0100
0010
0000
,
0000
0000
0001
0000
1000
0010
0100
0000
0001
0000
0100
0000
0001
0000
0100
0000
,
0010
1000
0010
1000
0001
0010
0001
0010
,
0100
0000
1000
0000
0100
0000
1000
0000
0001
0100
0001
0000
1000
0100
1000
0000
,
0001
0010
0001
0000
1000
0010
1000
0000
0001
0010
0001
0010
0100
1000
0100
1000
,
0010
0000
0000
0000
0000
0000
0000
0000
1000
0000
0001
0000
1000
0000
0001
0000
0200
0300
0000
0000
0010
0000
0000
0000
1000
0000
0001
0000
0010
0000
0000
0000
,
0100
0000
1000
0000
1000
0001
0100
0000
0000
0000
0010
0000
0010
0000
1000
0001
,
0010
0000
0100
0000
0000
1000
0001
0000
0000
0000
0100
0000
0000
0010
0000
0010
,
1000
0000
0100
0000
0100
1000
0001
0000
0000
0000
0100
0000
0100
0000
0001
0010
,
0100
0000
0000
0000
2000
0000
0000
0000
0000
0000
0000
0000
3200
0300
0000
0000
0010
0000
0000
0000
0000
0000
0001
0000
0000
0000
0001
0000
0100
0000
0000
0000
,
0010
0000
0010
1000
0001
0000
0000
0000
0010
0000
0010
0000
0100
1000
0001
0000
,
0100
0000
0000
0000
0010
0000
1000
0000
0001
0010
0100
0000
1000
0000
0001
0000
,
0100
0010
1000
0000
0100
0000
0100
0000
0010
0000
0000
0001
1000
0001
0010
0000
,
0000
0000
0001
0000
1000
0000
0001
0000
0200
0300
0000
0000
0010
0000
0000
0000
1000
0000
0001
0000
0100
0000
0000
0000
0010
0000
0000
0000
1000
0000
0000
0000
,
1000
0001
0010
0000
0000
0000
0100
0000
0100
0000
1000
0001
0100
0000
0010
0000
,
0000
1000
0001
0000
0000
0000
0010
0000
0000
0100
0000
0100
1000
0000
0010
0000
,
0010
1000
0001
0000
0000
0000
0010
0000
0010
0000
0001
0100
0010
0000
1000
0000
,
0001
0010
0100
1000
0100
0010
0001
0100
,
0010
1000
0010
0100
0001
1000
0100
0010
,
0001
1000
0010
0100
0001
0010
0100
1000
,
0001
0000
0010
0100
1000
0000
0100
0010
0001
0000
1000
0010
0100
0000
0002
0000
,
0000
2000
0000
0000
0000
0000
0000
3003
,
0000
0000
1000
0000
0010
0000
0100
0001
1000
0000
0100
0000
0010
0000
0001
1000
,
0010
0000
0100
0000
0001
0000
0010
0100
1000
0000
0100
0000
0010
0000
0001
1000
,
0010
0000
0100
0000
0001
0000
0010
0100
1000
0000
0010
0000
0100
0000
0001
1000
,
0100
0000
0010
0000
0100
0000
1000
0001
0100
0000
0010
0000
1000
0000
0001
0010
,
0100
0000
1000
0000
0100
0000
0010
0001
1000
0000
0010
0000
0100
0000
0001
0010
,
0100
0000
1000
0000
0001
0000
0100
0010
1000
0000
0000
0000
0001
0000
0010
0100
,
1000
0000
0000
0000
0001
0000
0100
0010
1000
0000
0000
0000
0001
0000
0010
0100
,
1000
0002
0000
0000
0000
0000
0000
0000
,
0000
0000
0000
0000
,
0000
0000
0000
0000
,
0000
0000
0000
0000
0000
0000
0000
0003
,
0000
0011
0000
0000
0000
1100
0000
0000
,
0000
1010
0000
1000
0000
0001
0000
0010
,
0000
0000
0100
1000
0100
1000
0001
0000
0000
0000
0100
0001
0100
0001
1000
0000
,
0000
0000
0000
0000
0200
0300
0000
0000
0022
0000
0000
0000
0033
0000
0000
0000
2200
0000
0000
0000
3300
0000
0000
0000
1000
0000
0000
0000
0010
0000
0000
0000
,
0110
0000
0000
0202
0000
0000
0000
0000
0000
0303
0000
0000
0011
0000
0000
0001
0010
0100
1000
0000
0000
1010
0000
0000
,
0010
1000
0010
1000
0010
0000
0000
0000
0101
0000
0000
0000
1001
0000
0000
0000
2200
0000
0000
0000
3300
0000
0000
0000
0110
0000
0000
0000
0010
0000
0000
0000
,
0011
0000
0000
0202
0000
0000
0000
0000
0000
0303
0000
0000
2020
0000
0000
3030
0000
0000
1100
0000
0000
1000
0100
0010
,
0001
0011
0202
0303
2020
3030
1100
1001
,
0101
0000
0000
0220
0000
0000
0000
0000
0000
0330
0000
0000
1001
0000
0000
0001
0010
0100
1000
0000
0000
0010
0000
0000
,
2M02
00M0
0M00
00M0
,
0M00
00M0
0M00
00M0
,
0M00
00M0
0M00
00M0
,
0M00
00M0
0M00
00M0
,
0M00
00M0
0M00
00M0
,
0M00
00M0
0M00
00M0
,
0M00
00M0
0M00
00M0
,
0M00
00M0
0M00
00M0
,
0M00
00M0
0M00
00M0
,
0M00
00M0
0M00
3003
;

//---------------dance-single - ----------------
#NOTES:
     dance-single:
     To the Shadow Realm:
     Challenge:
     17:
     0.856158,1.136505,0.299655,0.349598,0.865671,720.000000,684.000000,36.000000,42.000000,39.000000,0.000000,0.856158,1.136505,0.299655,0.349598,0.865671,720.000000,684.000000,36.000000,42.000000,39.000000,0.000000:
0000
0000
0000
0000
,
0000
0000
0000
0000
,
0000
0000
0000
0000
,
1000
0010
1000
0010
0100
0001
0100
0001
1000
0100
1000
0100
0010
0001
0010
0001
,
1000
0100
0010
0001
1000
0010
0100
0001
0020
0000
0030
0000
0001
0000
0100
0000
,
0010
1000
0010
0000
0100
0000
0001
0000
1000
0001
1000
0000
0100
0000
0010
0000
,
0001
1000
0001
0000
0100
0000
0010
0000
1000
0001
1000
0000
1001
0000
0001
0000
,
0010
0100
0010
0000
0011
0000
0001
0000
1000
0010
1000
0000
1001
0000
0001
0000
,
0100
0001
0100
0000
0110
0000
0010
0000
1000
0001
1000
0000
1100
0000
0100
0000
,
0010
0001
0100
0010
1000
0001
0010
0100
,
0010
0000
0001
0000
1000
0000
0010
0000
0100
0000
0001
0000
0010
0100
0010
0100
,
1000
0001
1000
0001
0100
0010
0100
0010
1000
0001
1000
0001
0010
0100
0010
0100
,
1000
0100
0010
0001
1000
0010
0100
0001
1000
0000
0100
0000
1100
0000
1000
0000
,
0001
0100
0001
0000
1000
0000
0100
0000
0010
0001
0010
0000
0001
0000
1000
0000
,
0010
0100
0010
0000
0100
0000
0001
0000
1000
0100
1000
0000
0001
0000
0100
0000
,
0010
1000
0010
0000
0100
0000
0001
0000
1000
0100
1000
0000
0001
0000
0100
0000
,
0010
1000
0010
0000
0100
0000
0001
0000
1000
0100
1000
0100
0010
0000
0001
0000
,
0100
0010
0100
0000
0001
0000
1000
0000
0100
0010
0100
0000
1000
0000
0001
0000
,
0100
0010
0100
0000
0001
0000
1000
0000
0100
0010
0100
0000
0010
0000
0001
0000
,
1000
0010
1000
0000
0100
0000
0010
0000
0001
1000
0001
0000
0100
0001
0100
0001
,
1000
0000
0100
0000
1000
0000
0100
0000
0010
0000
0001
0000
1000
0000
0010
0000
0200
0300
0000
0000
0001
0000
0000
0000
1000
0000
0000
0000
0100
0000
0010
0000
,
0100
0000
1000
0000
0001
0000
0100
0010
0100
0000
0001
0000
1000
0000
0100
0010
,
0100
0000
1000
0000
0001
0000
0100
0010
0100
0000
0001
0000
0010
0000
0100
0010
,
0100
0000
1000
0000
0001
0000
0100
0010
0100
0000
0001
0000
1000
0000
0100
0010
,
0100
0000
0010
0000
0001
0000
1000
0010
1000
0010
0100
0000
0001
0000
1000
0100
,
1000
0000
0001
0000
0100
0000
0010
1000
0010
0000
0100
0000
0001
0000
1000
0001
,
1000
0000
0100
0000
0010
0000
0001
1000
0001
0000
0010
0000
0100
0000
1000
0010
,
1000
0000
0000
0000
0000
0000
0000
0000
0100
0000
0000
0000
0000
0000
0000
0000
0010
0000
0000
0000
0000
0000
0000
0000
0001
0000
0000
0000
0100
0000
0000
0000
0001
0000
0000
0000
0000
0000
0000
0000
1000
0000
0000
0000
0000
0000
0000
0000
1000
0000
0000
0000
0000
0000
0000
0000
0020
0030
0000
0000
0000
0000
0000
0000
,
0020
0030
0000
0000
0001
0000
0000
0000
1000
0000
0000
0000
0001
0000
0000
0000
0020
0030
0000
0000
0000
0000
0000
0000
0020
0030
0000
0000
1000
0000
0000
0000
0001
0000
0000
0000
1000
0000
0000
0000
0200
0000
0300
0000
0000
0000
0000
0000
1000
0000
0000
0000
0001
0000
0000
0000
0100
0000
0000
0000
0000
0000
0000
0000
,
0010
0000
1000
0000
0001
0010
0100
0000
1000
0000
0001
0000
0100
0010
1000
0000
,
0001
0000
0010
0000
0100
0010
0001
0000
1000
0000
0010
0000
0100
0001
1000
0000
,
0100
0000
0010
0000
0100
1000
0001
0000
0100
0000
0010
0000
1000
0100
0010
0000
,
0001
0000
0100
0000
0010
1000
0100
0000
0010
0000
0001
0000
0100
0000
0010
0000
,
1000
0001
0010
0100
1000
0010
0100
0001
,
1000
0000
0100
0000
0010
0000
0001
0000
1000
0010
1000
0010
0100
0001
0100
0001
,
1000
0100
1000
0100
0010
0001
0010
0001
1000
0010
0100
0001
1000
0001
0010
0100
,
1000
0000
0010
0000
0100
0000
0001
0000
1000
0000
0100
0000
0010
0000
0001
0000
0200
0300
0000
0000
0001
0000
0000
0000
1000
0000
0100
0000
1000
0000
0100
0000
,
0010
0000
0001
0000
0001
0100
0010
0000
0010
1000
0100
0000
0100
0010
0001
0010
,
0001
0000
0200
0000
0000
0310
1000
0000
0000
0000
1001
0000
0001
0010
0100
0010
,
0100
0000
1000
0000
1000
0010
0100
0000
0100
0001
0010
0000
0010
0100
1000
0100
,
1000
0000
0000
0000
0002
0000
0000
0000
0000
0000
0000
0000
0203
0300
0000
0000
0010
0000
0000
0000
1000
0000
0001
0000
1000
0000
0001
0000
0010
0000
0000
0000
,
0100
0000
0100
1000
0010
0000
0010
0100
0001
0000
0001
0010
0100
1000
0100
0000
,
0020
0000
0000
0000
0130
0000
1000
0000
0001
1000
0010
1000
0001
0000
0010
0000
,
0100
0000
0000
0000
0010
0000
0000
0000
0001
0000
0000
0000
0010
0000
0000
0000
0100
0000
0000
0000
0000
0000
0000
0000
0100
0000
0000
0000
0000
0000
0000
0000
0020
0030
0000
0000
0000
0000
0000
0000
0020
0030
0000
0000
1000
0000
0000
0000
0001
0000
0000
0000
1000
0000
0000
0000
0020
0030
0000
0000
0000
0000
0000
0000
,
0020
0030
0000
0000
0001
0000
0000
0000
1000
0000
0000
0000
0001
0000
0000
0000
0200
0000
0300
0000
0000
0000
0000
0000
0010
0000
0000
0000
0000
0000
0000
0000
1000
0000
0000
0000
0001
0000
0000
0000
0010
0000
0000
0000
0100
0000
0000
0000
0010
0000
0000
0000
0000
0000
0000
0000
0001
0000
0000
0000
0000
0000
0000
0000
,
0001
0100
0010
0000
0010
1000
0100
0000
0100
0010
0001
1000
0001
0000
0200
0000
,
0000
0000
0310
0000
0000
0000
1001
0000
1000
0001
0010
0100
1000
0000
0010
0000
,
0010
0100
0001
0000
1000
0000
0100
0010
0001
0010
0100
0000
1000
0000
0001
0100
,
0010
0100
0001
0000
1000
0000
0100
0000
0010
0000
0001
0000
0100
0000
0010
0000
,
1000
0001
0010
1000
0010
0001
1000
0010
,
0001
0010
1000
0100
0001
1000
0010
0001
,
1000
0000
0010
0100
0010
0100
0001
0100
0001
1000
0100
1000
0100
1000
0002
0000
,
0000
0200
0000
0000
0000
0000
0000
0303
,
0000
0000
0001
0000
1000
0000
0100
0010
0100
1000
0100
0000
0010
0000
0001
1000
,
0010
1000
0001
0000
0100
0000
0010
1000
0010
0100
0010
0000
1000
0000
0100
0010
,
0001
0010
0100
0000
1000
0000
0010
0100
0001
0100
0010
0000
1000
0000
0100
0010
,
0100
1000
0100
0000
0010
0000
0001
1000
0010
1000
0001
0000
0100
0000
0010
1000
,
0100
1000
0010
0000
0100
0000
0001
0010
0001
0100
0001
0000
0010
0000
0100
0010
,
0001
1000
0001
0000
0100
0000
0010
1000
0010
0000
0000
0000
0100
0000
0001
1000
,
0001
0000
0000
0000
1000
0000
0100
0010
0100
0000
0000
0000
1000
0000
0001
0100
,
0001
0020
0000
0000
0000
0000
0000
0000
,
0000
0000
0000
0000
,
0000
0000
0000
0000
,
0000
0000
0000
0000
0000
0000
0000
0030
,
0000
0220
0000
0330
0000
0022
0000
0033
,
0000
1001
0000
1000
0000
1001
0000
0001
,
0000
0000
1000
0010
1000
0100
0010
0001
0100
0001
1000
0010
1000
0100
0010
0001
,
0100
0000
0000
0000
0000
0000
0000
0000
0000
0000
0000
0000
0001
0000
0000
0000
0000
0000
0000
0000
0000
0000
0000
0000
0200
0000
0000
0000
0000
0000
0300
0000
0000
0000
0000
0000
0000
0000
0000
0000
0000
0000
0000
0000
0000
0000
0000
0000
0202
0000
0000
0000
0000
0000
0000
0000
0000
0000
0000
0000
0000
0000
0000
0000
0000
0000
0000
0000
0000
0000
0000
0000
0303
0000
0000
0000
0000
0000
0000
0000
0000
0000
0000
0000
0000
0000
0000
0000
0000
0000
0000
0000
0000
0000
0000
0000
1100
0000
0000
0000
0000
0000
0000
0000
0000
0000
0000
0000
0000
0000
0000
0000
0000
0000
0000
0000
0000
0000
0000
0000
0000
0000
0000
0000
0000
0000
0000
0000
0000
0000
0000
0000
1000
0000
0000
0000
0100
0000
0000
0000
0010
0000
0000
0000
0001
0000
0000
0000
0000
0000
0000
0000
0000
0000
0000
0000
0000
0000
0000
0000
0000
0000
0000
0000
0000
0000
0000
0000
0011
0000
0000
0000
0000
0000
0000
0000
0000
0000
0000
0000
0000
0000
0000
0000
0000
0000
0000
0000
0000
0000
0000
0000
,
1001
0000
0000
2020
0000
0000
0000
0000
0000
3030
0000
0000
0101
0000
0000
0100
0001
1000
0100
0000
0000
0110
0000
0000
,
0010
0001
0010
0100
1000
0001
0100
0010
1000
0000
0000
0000
1010
0000
0000
0000
2002
0000
0000
0000
3003
0000
0000
0000
0011
0000
0000
0000
0101
0000
0000
0000
,
1010
0000
0000
2002
0000
0000
0000
0000
0000
3003
0000
0000
2200
0000
0000
3300
0000
0000
1010
0000
0000
1000
0010
0100
,
0001
0000
0000
0000
0000
0000
0011
0000
0000
0000
0000
0000
2200
0000
0000
0000
0000
0000
3300
0000
0000
0000
0000
0000
1001
0000
0000
0000
0000
0000
0000
0000
0000
0001
0100
0010
1000
0000
0000
0000
0000
0000
1010
0000
0000
0000
0000
0000
,
1100
0000
0000
0022
0000
0000
0000
0000
0000
0033
0000
0000
0101
0000
0000
0001
0010
0100
1000
0000
0000
1100
0000
0000
,
02M2
M000
00M0
M000
,
00M0
M000
00M0
M000
,
00M0
M000
00M0
M000
,
00M0
M000
00M0
M000
,
00M0
M000
00M0
M000
,
00M0
M000
00M0
M000
,
00M0
M000
00M0
M000
,
00M0
M000
00M0
M000
,
00M0
M000
00M0
M000
,
00M0
M000
00M0
0303
;
