#VERSION:0.83;
#TITLE:SIN;
#SUBTITLE:;
#ARTIST:ESTi;
#TITLETRANSLIT:;
#SUBTITLETRANSLIT:;
#ARTISTTRANSLIT:;
#GENRE:Breakcore;
#ORIGIN:DJMAX PORTABLE CLAZZIQUAI EDITION (2008);
#TAGS:;
#CREDIT:;
#BANNER:SIN.png;
#BACKGROUND:SIN-bg.png;
#PREVIEWVID:;
#JACKET:SIN-jacket.png;
#CDIMAGE:;
#DISCIMAGE:;
#LYRICSPATH:;
#CDTITLE:../_YSD cdtitles/ysd sum mem cdtitle.png;
#MUSIC:SIN.ogg;
#OFFSET:-0.458000;
#SAMPLESTART:82.563004;
#SAMPLELENGTH:20.211000;
#SELECTABLE:YES;
#BPMS:0.000000=190.000000
,64.000000=95.000000
,67.000000=190.000000
,143.000000=95.000000
,145.000000=190.000000
,210.000000=95.000000
,214.000000=190.000000
;
#STOPS:67.000000=0.315790
,140.000000=0.315792
,141.000000=0.315792
,142.000000=0.315792
,145.000000=0.315788
;
#DELAYS:;
#WARPS:;
#TIMESIGNATURES:0.000000=4=4
,140.000000=2=4
,146.000000=4=4
;
#TICKCOUNTS:0.000000=4
;
#COMBOS:0.000000=1
;
#SPEEDS:0.000000=1.000000=0.000000=0
;
#SCROLLS:0.000000=1.000000
;
#FAKES:;
#LABELS:0.000000=Song Start
;
#BGCHANGES:-1.450000=SIN.avi=1.000=0=0=1=StretchNoLoop====,
99999=-nosongbg-=1.000=0=0=0 // don't automatically add -songbackground-
;
#KEYSOUNDS:;
#ATTACKS:
;

//---------------dance-single - ----------------
#NOTEDATA:;
#CHARTNAME:Superbia;
#CHARTHASH:3659073714;
#STEPSTYPE:dance-single;
#BANNER:;
#DESCRIPTION:;
#CHARTSTYLE:;
#DIFFICULTY:Beginner;
#METER:2;
#METERF:2.000000;
#LASTSECONDHINT:112.563263;
#RADARVALUES:0.096344,0.145552,0.000000,0.000000,0.000000,79.000000,79.000000,0.000000,0.000000,0.000000,0.000000,0.000000,0.000000,0.000000,0.096344,0.145552,0.000000,0.000000,0.000000,79.000000,79.000000,0.000000,0.000000,0.000000,0.000000,0.000000,0.000000,0.000000;
#CREDIT:Yosefu's Pride;
#NOTES:
// measure 0
0000
0000
0000
0000
,  // measure 1
0000
0000
0000
0000
,  // measure 2
0000
0000
0000
0000
,  // measure 3
0000
0000
0000
0000
,  // measure 4
0000
0000
0000
0000
,  // measure 5
0000
0000
0000
0000
,  // measure 6
0000
0000
0000
0000
,  // measure 7
0000
0000
0000
0000
,  // measure 8
1000
0000
0000
0000
,  // measure 9
0001
0000
0000
0000
,  // measure 10
0100
0000
0000
0000
,  // measure 11
0010
0000
0000
0000
,  // measure 12
1000
0000
0000
0000
,  // measure 13
0100
0000
0000
0000
,  // measure 14
0010
0000
0000
0000
,  // measure 15
0000
0000
0000
0000
,  // measure 16
0001
0000
0000
0000
,  // measure 17
1000
0000
0000
0000
,  // measure 18
0010
0000
0000
0000
,  // measure 19
0100
0000
0000
0000
,  // measure 20
0001
0000
0000
0000
,  // measure 21
1000
0000
0000
0000
,  // measure 22
0100
0000
0000
0000
,  // measure 23
0010
0000
0000
0000
,  // measure 24
0001
0000
0000
0000
,  // measure 25
0100
0000
0000
0000
,  // measure 26
0010
0000
0000
0000
,  // measure 27
1000
0000
0000
0000
,  // measure 28
0001
0000
0000
0000
,  // measure 29
0010
0000
0000
0000
,  // measure 30
0100
0000
0000
0000
,  // measure 31
1000
0000
0000
0000
,  // measure 32
0001
0000
0000
0000
,  // measure 33
0100
0000
0000
0000
,  // measure 34
0010
0000
0000
0000
,  // measure 35
1000
0000
0001
0000
,  // measure 36
1000
0000
0001
0000
,  // measure 37
0000
0000
0010
0000
,  // measure 38
0000
0000
0100
0000
,  // measure 39
0000
0000
1000
0000
,  // measure 40
0000
0000
0010
0000
,  // measure 41
0000
0000
0100
0000
,  // measure 42
0000
0000
0010
0000
,  // measure 43
0000
0000
1000
0000
,  // measure 44
0000
0000
0100
0000
,  // measure 45
0000
0000
0010
0000
,  // measure 46
0000
0000
0001
0000
,  // measure 47
0000
0000
1000
0000
,  // measure 48
0000
0000
0010
0000
,  // measure 49
0000
0000
0100
0000
,  // measure 50
0000
0000
0001
0000
,  // measure 51
0000
0000
0010
0000
,  // measure 52
0000
0000
0100
0000
,  // measure 53
0000
0000
1000
0000
,  // measure 54
0000
0000
0010
0000
,  // measure 55
0000
0000
0100
0000
,  // measure 56
0000
0000
0001
0000
,  // measure 57
0000
0000
1000
0000
,  // measure 58
0000
0000
0100
0000
,  // measure 59
0000
0000
0010
0000
,  // measure 60
0000
0000
0001
0000
,  // measure 61
0000
0000
1000
0000
,  // measure 62
0000
0000
0010
0000
,  // measure 63
0000
0000
0100
0000
,  // measure 64
0000
0000
1000
0000
,  // measure 65
0000
0000
0100
0000
,  // measure 66
0000
0000
0001
0000
,  // measure 67
0000
0000
0010
0000
,  // measure 68
0000
0000
0100
0000
,  // measure 69
0000
0000
1000
0000
,  // measure 70
0000
0000
0100
0000
,  // measure 71
0000
0000
0001
0000
,  // measure 72
0000
0000
0100
0000
,  // measure 73
0000
0000
1000
0000
,  // measure 74
0000
0000
0010
0000
,  // measure 75
0000
0000
0100
0000
,  // measure 76
0000
0000
0001
0000
,  // measure 77
0000
0000
1000
0000
,  // measure 78
0000
0000
0100
0000
,  // measure 79
0000
0000
0010
0000
,  // measure 80
0000
0000
0001
0000
,  // measure 81
0000
0000
1000
0000
,  // measure 82
0000
0000
0010
0000
,  // measure 83
0000
0000
0100
0000
,  // measure 84
0000
0000
0010
0000
,  // measure 85
0000
0100
0000
0000
;

//---------------dance-single - ----------------
#NOTEDATA:;
#CHARTNAME:Avaritia;
#CHARTHASH:3141701911;
#STEPSTYPE:dance-single;
#BANNER:;
#DESCRIPTION:;
#CHARTSTYLE:;
#DIFFICULTY:Easy;
#METER:6;
#METERF:6.000000;
#LASTSECONDHINT:114.142212;
#RADARVALUES:0.271958,0.406138,0.000000,0.196346,0.000000,223.000000,223.000000,0.000000,23.000000,0.000000,0.000000,0.000000,0.000000,0.000000,0.271958,0.406138,0.000000,0.196346,0.000000,223.000000,223.000000,0.000000,23.000000,0.000000,0.000000,0.000000,0.000000,0.000000;
#CREDIT:Yosefu the Greedy;
#NOTES:
0000
0000
0000
0000
,
0000
0000
0000
0000
,
0000
0000
0000
0000
,
0000
0000
0000
0000
,
0000
0000
0000
0000
,
0000
0000
0000
0000
,
0000
0000
0000
0000
,
0000
0000
0000
0000
,
2000
0000
0000
0000
,
3010
0100
0001
1000
,
2000
0000
3200
0000
,
0000
0000
0310
0001
,
2000
0000
3010
0100
,
0002
0000
2003
0000
,
3200
0000
0000
0000
,
0000
0000
0000
0000
,
0300
0000
0000
0000
,
1000
0001
0100
0000
,
0001
1000
0100
0000
,
0010
0001
1000
0000
,
0010
0100
0001
0000
,
1000
0100
0010
0000
,
0100
1000
0001
0000
,
0100
0010
1000
0000
,
0100
0010
0001
0000
,
2000
0000
0000
0000
,
3020
0000
0000
0130
,
0001
0000
0000
1000
0000
0000
0100
0000
,
0000
0010
0000
0000
0100
0000
1000
0000
,
0001
0000
0000
0100
0000
0000
0000
0000
,
0000
0000
0010
1000
,
0001
0000
0000
0010
0000
0000
0100
0000
,
0000
0000
1000
0001
,
0200
0000
0000
0000
,
0320
0000
1030
0001
,
0010
0000
0100
0000
1000
0000
0001
0100
,
1000
0100
0001
0000
1000
0000
0100
0000
,
0010
0000
0100
0001
,
0100
0000
1000
0001
,
0100
0010
1000
0001
,
0010
0000
0100
1000
,
0010
0000
0001
0010
,
1000
0000
0100
0010
,
0001
0100
0010
1000
,
0001
0000
0010
0000
,
0100
0000
0010
0001
,
1000
0010
0100
0000
,
1000
0000
0100
0000
,
0001
0010
0100
0000
,
0001
0000
0100
0000
,
1000
0001
0100
0000
,
0010
1000
0001
0010
,
0100
1000
0010
0000
,
0000
0200
0302
0000
,
2003
0000
3100
0001
,
0100
1000
0020
0000
,
0230
0000
1300
0100
,
0001
1000
0200
0000
,
0310
0001
1000
0010
,
0001
0010
0100
0001
,
0010
0100
1000
0001
,
0200
0000
0310
0000
,
1000
0001
0010
0000
,
0100
0001
0200
0000
,
2300
0000
3001
0000
,
0100
0010
0001
0000
,
0010
1000
0001
0000
,
0010
0100
1000
0001
,
0100
1000
0100
0001
,
0010
0100
1000
0001
,
0100
0000
0001
1000
,
0100
0000
0010
0001
,
0010
0001
1000
0010
,
1000
0010
0100
0001
,
1000
0000
0100
0010
,
0001
0000
0100
1000
,
0100
0001
0020
0000
,
0230
0000
1300
0001
,
0000
0001
0010
0100
,
0000
1000
0001
0100
,
0000
1000
0100
0001
,
0000
0010
0100
1000
,
0000
0100
0010
1000
,
0000
0010
0001
1000
,
0010
0100
0001
0010
,
0100
2000
0000
0000
,
0000
0000
3000
0000
;

//---------------dance-single - ----------------
#NOTEDATA:;
#CHARTNAME:Invidia;
#CHARTHASH:3013441270;
#STEPSTYPE:dance-single;
#BANNER:;
#DESCRIPTION:;
#CHARTSTYLE:;
#DIFFICULTY:Medium;
#METER:11;
#METERF:11.000000;
#LASTSECONDHINT:114.142212;
#RADARVALUES:0.446352,0.627668,0.000000,0.708554,0.046952,366.000000,366.000000,0.000000,83.000000,0.000000,0.000000,0.000000,0.000000,0.000000,0.446352,0.627668,0.000000,0.708554,0.046952,366.000000,366.000000,0.000000,83.000000,0.000000,0.000000,0.000000,0.000000,0.000000;
#CREDIT:Yosefu the Envious;
#NOTES:
0000
0000
0000
0000
,
0000
0000
0000
0000
,
0000
0000
0000
0000
,
0000
0000
0000
0000
,
0000
0000
0000
0000
,
0000
0000
0000
0000
,
0000
0000
0000
0000
,
0000
0000
0000
0000
,
2000
0000
0000
0000
,
3020
0230
0302
1003
,
2000
0000
0000
3200
0000
0000
0000
0000
,
0000
0000
0320
0032
,
2003
0000
0000
0000
0000
0000
3010
0200
,
0000
0000
0302
0023
,
0230
0000
0000
0000
,
0000
0000
0000
0000
,
1300
0000
0000
1000
0000
0000
1000
0000
0000
0002
0000
0000
1003
0000
0000
0000
,
0001
0000
0000
0100
0000
0000
0001
0000
,
1000
0100
0000
1000
0000
0000
0001
0100
,
0010
0000
0000
1000
0000
0000
0100
0000
,
0010
0001
0000
1000
0000
0000
0010
0100
,
0001
0000
0000
0010
0000
0000
0100
0000
,
1000
0001
0000
0100
0000
0000
0010
1000
,
0001
0000
0000
0010
0000
0000
0100
0000
,
1000
0001
0000
0100
0000
0000
0010
1000
,
0001
0000
1000
0010
0000
1000
0001
0000
,
1000
0100
0000
1000
0010
0000
2000
0000
,
3001
0000
0000
0010
0000
0000
0100
0000
,
0000
1000
0000
0000
0010
0000
0001
0000
,
0010
0000
0000
1000
0000
0000
0100
0000
,
0000
0000
0010
0000
0000
0000
0000
0000
1000
0000
0000
0010
0000
0000
0001
0000
,
0001
0000
0000
0100
0000
0000
0010
0000
,
1000
0001
0000
0010
0000
0000
0001
1000
,
0020
0000
0000
0001
0000
0000
0100
0000
,
1030
0000
0001
0000
0000
0000
0100
0000
0001
0000
0000
0010
0000
0000
0100
0000
,
2000
0000
0000
0000
3002
0000
0000
0000
0203
0000
0000
0000
0310
0001
0010
0100
,
0001
1000
0100
0000
0020
0000
0000
0000
0031
0000
1000
0000
0010
0000
0100
0000
,
0000
0001
1000
0000
0100
0010
0001
1000
,
0001
0100
0000
0010
2000
0000
0000
3200
,
0000
0302
0103
1000
,
0001
0100
0010
0000
1000
0100
0010
0001
,
0000
1000
0010
0000
0100
0001
0010
0100
,
0010
0001
1000
0010
0200
0000
0000
2300
,
0000
0000
3200
0000
0000
0302
0000
0000
,
0003
0000
0020
1000
,
0000
0000
0001
0000
0000
0000
0000
0000
0130
0000
0000
1000
0000
0000
0010
0000
,
0010
0000
0000
1000
0000
0000
0100
0000
0010
0000
0000
0000
0001
0000
0100
0000
,
0001
1000
0100
0010
1000
0010
0001
0100
,
0010
1000
0100
0010
0001
0000
1000
0010
,
0000
1000
0001
0000
0010
0100
1000
0001
,
0100
1000
0100
0010
1000
0000
0100
0010
,
0001
0000
1000
0010
0100
1000
0100
0001
,
0010
0000
0200
0000
0000
0000
0000
0000
1300
0000
0000
0010
0000
0000
0100
0000
,
0000
0002
0000
0000
0023
0000
0000
0000
0230
0000
0000
0000
0000
0000
0000
0000
,
1300
0001
0100
0000
2000
0000
3200
0000
,
0302
0023
0230
0000
,
1300
0001
0100
0000
0020
0000
0032
0000
,
0023
2030
3200
0000
,
1300
0001
0100
0000
0020
0000
2030
0000
,
3200
0000
0302
0000
0103
1000
0001
0100
,
0010
0000
1000
0100
0010
0000
0200
0000
,
2300
0000
0000
0000
3002
0000
0000
0100
,
0000
0000
1003
0001
0010
0000
0100
1000
,
0000
0001
0100
0010
0200
0000
0000
0000
,
2300
0000
0000
0000
3100
0000
0010
1000
,
0000
0002
0023
0230
1300
0000
0001
0100
,
0000
0002
2003
3200
0310
0000
0001
0200
,
0320
0032
0023
0230
0301
0000
1000
0100
,
0000
1000
0001
0000
0200
2300
3200
0302
,
0023
0230
2300
3020
0130
0001
1000
0100
,
0001
0100
0010
0000
0100
1000
0010
0001
,
0010
0100
0001
0000
0010
0001
0100
1000
,
0100
0010
1000
0000
0100
1000
0010
0001
,
0010
0100
0001
0000
0010
0000
0100
1000
,
0000
0001
0100
0010
2000
0000
3100
0010
,
0002
0203
0320
2030
3001
0000
0001
0010
,
0000
1000
0010
0001
2000
0000
3020
0230
,
0302
0023
0230
2300
3001
0000
0100
0001
,
0000
0000
1000
0001
0000
0000
1000
0100
,
0001
0000
0100
0000
1000
0000
0001
0010
,
0000
0000
0001
0100
0000
0000
0001
0010
,
1000
0000
0010
0000
0001
0000
1000
0010
,
0000
0000
1000
0100
0000
0000
1000
0100
,
0001
0000
0100
0000
1000
0000
0001
0100
,
0000
0001
1000
0000
0100
0010
0000
0001
,
1000
0000
0010
0200
0000
0000
0000
0000
,
0000
0000
0300
0000
;

//---------------dance-single - ----------------
#NOTEDATA:;
#CHARTNAME:Ira;
#CHARTHASH:4197163904;
#STEPSTYPE:dance-single;
#BANNER:;
#DESCRIPTION:;
#CHARTSTYLE:;
#DIFFICULTY:Hard;
#METER:15;
#METERF:15.000000;
#LASTSECONDHINT:114.142212;
#RADARVALUES:0.565867,0.849198,0.034147,0.828069,0.264641,464.000000,460.000000,4.000000,97.000000,0.000000,0.000000,0.000000,0.000000,0.000000,0.565867,0.849198,0.034147,0.828069,0.264641,464.000000,460.000000,4.000000,97.000000,0.000000,0.000000,0.000000,0.000000,0.000000;
#CREDIT:Yosefu's Wrath;
#NOTES:
0000
0000
0000
0000
,
0000
0000
0000
0000
,
0000
0000
0000
0000
,
0000
0000
0000
0000
,
0000
0000
0000
0000
,
0000
0000
0000
0000
,
0000
0000
0000
0000
,
0000
0000
0000
0000
,
2000
0000
0000
0000
,
3200
0320
2030
3010
,
0020
0000
0000
0032
0000
0000
0000
0000
,
0203
0000
0000
0000
0310
1000
0002
0000
,
0023
0000
0000
0000
0000
1030
0010
0001
,
0200
0000
1000
0010
,
0302
0000
0000
0000
,
0000
0000
0000
0000
,
1003
0000
0000
1000
0000
0000
1000
0000
0000
0020
0000
0000
1030
0000
0000
0000
,
0001
0100
0000
0001
0000
1000
0100
0000
,
0010
1000
0000
0010
0000
0001
1000
0010
,
0100
0001
0000
1000
0000
0001
0010
0000
,
0100
0001
0000
0100
0000
1000
0001
0100
,
0100
0010
0000
1000
0000
0100
0010
0000
,
1000
0010
0000
0001
0000
1000
0010
0100
,
0001
0000
0000
0010
0000
1000
0010
0000
,
0001
0100
0000
0010
0000
1000
0000
0001
,
0010
0000
0000
0000
0000
0000
0000
0000
0000
0000
0000
0000
0000
0000
0000
0000
0001
0000
0000
0000
0000
0000
0000
0000
0100
0000
0000
0000
0000
0000
0000
0000
0001
0000
0000
0000
1000
0000
0000
0000
0200
0300
0000
0000
0000
0000
0000
0000
0200
0300
0000
0000
0000
0000
0000
0000
0001
0000
0000
0000
1000
0000
0000
0000
,
0020
0030
0000
0000
0000
0000
0000
0000
0020
0030
0000
0000
0000
0000
0000
0000
0001
0000
0000
0000
1000
0000
0000
0000
0200
0300
0000
0000
0000
0000
0000
0000
0200
0300
0000
0000
0000
0000
0000
0000
0001
0000
0000
0000
1000
0000
0000
0000
0200
0000
0000
0000
0000
0000
0000
0000
0000
0000
0000
0000
0000
0000
0000
0000
,
1300
0000
0010
0100
0000
0001
0010
0000
,
0100
0001
0000
0100
1000
0000
0001
0100
,
2000
0000
3100
0001
0000
0010
2000
0000
,
3010
0000
0002
0000
0000
0000
0000
0000
0103
0000
0000
1000
0000
0000
0100
0000
,
0100
0001
0000
1000
0000
0100
0010
0000
,
1000
0010
0000
0001
0000
0100
0010
1000
,
0002
0000
0000
0010
0000
1000
0100
0000
,
1003
0000
0001
0000
0000
0000
0010
0000
1000
0000
0000
0010
0000
0000
0100
0000
,
2200
0000
3300
0000
0202
0000
0303
0000
2002
0000
3003
0000
1010
0010
0001
0010
,
1000
0100
0010
0001
0200
0000
0000
0000
0301
0000
0000
0000
1000
0000
0100
0000
,
0000
0000
0001
0000
0100
0000
1000
0001
1000
0000
0010
0000
0100
0000
0001
0000
,
0001
0001
0010
0100
2000
0000
0000
3020
,
0000
0000
0032
0000
0013
0100
0000
0001
,
0000
1000
0100
0010
0001
0000
0100
1000
,
0000
0000
0100
0000
0001
0000
1000
0001
1000
0000
0001
0000
0010
0000
0100
0000
,
1000
0001
0001
0001
0020
0000
0000
0032
,
0000
0000
0203
0000
0000
2300
0000
0000
,
3100
0001
0000
1000
0001
0000
1000
0010
,
0000
1000
0010
0000
0000
0000
0100
0001
0100
0000
0000
0010
0000
0000
0001
0000
,
0001
0000
0000
0010
0000
0000
1000
0000
0002
0000
0000
0000
0013
0000
0200
0000
,
0000
0000
0000
0000
1300
0001
0100
0000
0020
0000
0000
0000
0031
0000
0010
0000
,
1000
0000
0000
0100
0000
0000
1000
0000
0020
0000
0000
0000
0100
0000
1000
0000
,
0000
0000
0001
0000
0000
0000
1030
0001
1000
0000
0000
0000
0010
0000
0000
0000
,
0010
0000
1000
0001
0010
0000
0000
0000
0100
0000
0000
0000
0001
0000
0001
0000
,
0100
1000
0100
0000
1000
0000
0001
0000
0100
0000
0010
0000
0010
0000
0010
0000
,
0010
0000
0200
0000
0000
0000
0000
0000
0301
0000
0000
1000
0000
0000
0100
0000
,
0000
0020
0000
0000
0032
0000
0000
0000
2003
0000
0000
0000
0000
0000
0000
0000
,
3010
0100
0001
0010
2000
0000
3020
0000
,
0031
0100
0010
1000
0200
0000
0000
0000
,
1300
0001
0100
0010
0002
0000
0023
0000
,
1030
0000
0100
0000
0010
0000
0001
1000
0020
0000
0000
0000
0000
0000
0130
0001
,
1000
0100
0010
0100
2000
0000
3200
0000
,
0302
0000
0000
0000
0203
0000
0000
0000
1300
0001
1000
0001
0100
0000
0010
0000
,
0001
0010
1000
0100
0010
1000
0010
0001
,
0200
0000
0000
0000
0301
0000
1000
0100
,
0000
1000
0010
0001
0010
0000
0100
0001
,
0000
0100
0010
0100
2000
0000
3100
0001
,
0020
0000
0130
1000
0020
0000
0000
0001
,
0000
0000
1030
0010
0010
0000
0100
0001
,
0000
0010
0100
0001
0100
0000
1000
0020
,
0230
0000
0000
0000
0000
0000
0000
0000
2300
0000
0000
0000
0000
0000
0000
0000
3200
0000
0000
0000
0000
0000
0000
0000
0302
0000
0000
0000
0000
0000
0000
0000
1003
0000
0000
0000
0000
0000
0000
0000
0001
0000
0000
0000
1000
0000
0000
0000
0200
0300
0000
0000
0000
0000
0000
0000
0200
0300
0000
0000
0000
0000
0000
0000
,
0001
0000
0000
0000
1000
0000
0000
0000
0200
0300
0000
0000
0000
0000
0000
0000
0200
0300
0000
0000
0000
0000
0000
0000
0001
0000
0000
0000
1000
0000
0000
0000
0200
0000
0000
0000
0000
0000
0000
0000
0320
0000
0000
0000
0000
0000
0000
0000
0230
0000
0000
0000
0000
0000
0000
0000
2300
0000
0000
0000
0000
0000
0000
0000
,
3020
0032
0023
2030
3001
0000
0100
0001
,
0000
0000
1000
0000
0001
0010
0100
1000
0010
0000
0000
0000
0100
0000
0001
0000
,
0000
1000
0100
0001
0100
0000
1000
0010
,
0000
0001
0010
1000
0200
0000
0302
0000
,
0203
0000
2300
0000
3010
0000
1000
0100
,
0000
0000
1000
0000
0001
0010
0100
1000
0020
0000
0000
0000
0031
0000
0010
0000
,
1000
0200
0320
0032
1003
0010
1000
0100
,
0000
0000
0000
0000
1000
0100
0010
0001
0200
0000
0000
0000
0310
0000
1000
0000
,
0002
0000
0023
0230
1300
0001
1000
0010
,
0000
0001
1000
0010
0000
0001
1000
0010
,
0001
0010
0100
0001
1000
0001
0100
0010
,
0000
0001
0100
0010
0000
0001
0100
0010
,
0001
1000
0100
0001
1000
0100
0010
0001
,
0000
0100
0010
0001
0000
0100
0010
0001
,
0100
0000
0000
0000
0000
0000
0000
0000
1000
0000
0000
0000
0000
0000
0000
0000
0100
0000
0000
0000
0000
0000
0000
0000
0001
0000
0000
0000
0000
0000
0000
0000
1000
0000
0000
0000
0000
0000
0000
0000
0001
0000
0000
0000
1000
0000
0000
0000
0200
0300
0000
0000
0000
0000
0000
0000
0200
0300
0000
0000
0000
0000
0000
0000
,
0001
0000
0000
0000
1000
0000
0000
0000
0200
0300
0000
0000
0000
0000
0000
0000
0200
0300
0000
0000
0000
0000
0000
0000
0001
0000
0000
0000
1000
0000
0000
0000
0020
0030
0000
0000
0000
0000
0000
0000
0020
0030
0000
0000
0000
0000
0000
0000
0001
0000
0000
0000
1000
0000
0000
0000
0200
0300
0000
0000
0000
0000
0000
0000
,
0200
0300
0000
0000
0001
0000
0000
0000
1000
0000
0000
0000
0100
0000
0000
0000
1000
0000
0000
0000
0000
0000
0000
0000
0020
0000
0000
0000
0000
0000
0000
0000
0000
0000
0000
0000
0000
0000
0000
0000
0000
0000
0000
0000
0000
0000
0000
0000
0000
0000
0000
0000
0000
0000
0000
0000
0000
0000
0000
0000
0000
0000
0000
0000
,
0000
0000
0030
0000
;
