#VERSION:0.83;
#TITLE:Ride or Die;
#SUBTITLE:;
#ARTIST:kors k vs Relect;
#TITLETRANSLIT:;
#SUBTITLETRANSLIT:;
#ARTISTTRANSLIT:;
#GENRE:;
#ORIGIN:DANCERUSH STARDOM;
#TAGS:;
#CREDIT:;
#BANNER:Ride or Die.png;
#BACKGROUND:Ride or Die-bg.png;
#PREVIEWVID:;
#JACKET:Ride or Die-jacket.png;
#CDIMAGE:;
#DISCIMAGE:;
#LYRICSPATH:;
#CDTITLE:../_YSD cdtitles/ysd tEYEcoon cdtitle.png;
#MUSIC:Ride or Die.ogg;
#OFFSET:-0.133;
#SAMPLESTART:40.136002;
#SAMPLELENGTH:12.800000;
#SELECTABLE:YES;
#BPMS:0.000000=150.000000
;
#STOPS:;
#DELAYS:;
#WARPS:;
#TIMESIGNATURES:0.000000=4=4
;
#TICKCOUNTS:0.000000=4
;
#COMBOS:0.000000=1
;
#SPEEDS:0.000000=1.000000=0.000000=0
;
#SCROLLS:0.000000=1.000000
,100.000000=0.900000
,100.083336=0.800000
,100.166664=0.700000
,100.250000=0.600000
,100.333336=0.500000
,100.416664=0.400000
,100.500000=0.300000
,100.583336=0.200000
,100.666664=0.100000
,100.750000=0.000000
,101.375000=-0.200000
,101.437500=-0.400000
,101.500000=-0.600000
,101.562500=-0.800000
,101.625000=-1.000000
,101.687500=-1.200000
,101.750000=-1.400000
,101.812500=-1.600000
,101.875000=-1.800000
,101.937500=-2.000000
,102.000000=-1.800000
,102.062500=-1.600000
,102.125000=-1.400000
,102.187500=-1.200000
,102.250000=-1.000000
,102.312500=-0.800000
,102.375000=-0.600000
,102.437500=-0.400000
,102.500000=-0.200000
,102.562500=0.000000
,102.625000=0.200000
,102.687500=0.400000
,102.750000=0.600000
,102.812500=0.800000
,102.875000=1.000000
,102.937500=1.200000
,103.000000=1.400000
,103.062500=1.600000
,103.125000=1.800000
,103.187500=2.000000
,103.250000=1.800000
,103.312500=1.600000
,103.375000=1.400000
,103.437500=1.200000
,103.500000=1.000000
,228.416672=0.400000
,228.500000=0.300000
,228.583328=0.200000
,228.666672=0.100000
,228.750000=0.000000
,229.375000=-0.100000
,229.437500=-0.200000
,229.500000=-0.300000
,229.562500=-0.400000
,229.625000=-0.500000
,229.687500=-0.600000
,229.750000=-0.700000
,229.812500=-0.800000
,229.875000=-0.900000
,229.937500=-1.000000
,230.000000=-0.900000
,230.062500=-0.800000
,230.125000=-0.700000
,230.187500=-0.600000
,230.250000=-0.500000
,230.312500=-0.400000
,230.375000=-0.300000
,230.437500=-0.200000
,230.500000=-0.100000
,230.562500=0.000000
,230.625000=0.100000
,230.687500=0.200000
,230.750000=0.300000
,230.812500=0.400000
,230.875000=0.500000
,230.937500=0.600000
,231.000000=0.700000
,231.062500=0.800000
,231.125000=0.900000
,231.187500=1.000000
;
#FAKES:;
#LABELS:0.000000=Song Start
;
#BGCHANGES:;
#KEYSOUNDS:;
#ATTACKS:
;

//---------------dance-single - ----------------
#NOTEDATA:;
#CHARTNAME:;
#CHARTHASH:3017655387;
#STEPSTYPE:dance-single;
#BANNER:;
#DESCRIPTION:;
#CHARTSTYLE:;
#DIFFICULTY:Beginner;
#METER:3;
#METERF:3.000000;
#LASTSECONDHINT:118.536003;
#RADARVALUES:0.167465,0.295058,0.318982,0.087720,0.000000,147.000000,107.000000,40.000000,11.000000,0.000000,0.000000,0.000000,0.000000,0.000000,0.167465,0.295058,0.318982,0.087720,0.000000,147.000000,107.000000,40.000000,11.000000,0.000000,0.000000,0.000000,0.000000,0.000000;
#CREDIT:YOSEFU;
#NOTES:
// measure 0
0000
0000
0000
0000
,  // measure 1
0000
0000
0000
0000
,  // measure 2
0000
0000
0000
0000
,  // measure 3
0000
0000
0000
0000
,  // measure 4
1000
0000
0001
0000
,  // measure 5
1001
0000
0000
0000
,  // measure 6
1001
0000
0001
0000
,  // measure 7
1000
0000
0001
0000
,  // measure 8
1001
0000
0010
0000
,  // measure 9
1001
0000
0100
0000
,  // measure 10
1001
0000
0001
0000
,  // measure 11
1000
0000
0100
0000
,  // measure 12
0110
0000
0010
0000
,  // measure 13
0110
0000
0000
0000
,  // measure 14
1001
0000
0001
0000
,  // measure 15
0100
0000
0001
0000
,  // measure 16
1000
0000
0001
0000
,  // measure 17
1000
0000
0001
0000
,  // measure 18
1001
0000
1000
0000
,  // measure 19
0010
0000
1000
0000
,  // measure 20
0010
0000
0000
0000
,  // measure 21
0100
0000
0000
0000
,  // measure 22
0110
0000
0010
0000
,  // measure 23
0100
0000
0010
0000
,  // measure 24
1000
0000
0001
0000
,  // measure 25
2000
0000
0000
0000
,  // measure 26
3000
0000
0001
0000
,  // measure 27
1000
0000
1001
0000
,  // measure 28
0001
0000
0010
0000
,  // measure 29
0001
0000
0110
0000
,  // measure 30
0100
0000
0010
0000
,  // measure 31
0100
0000
1001
0000
,  // measure 32
0001
0000
1000
0000
,  // measure 33
0002
0000
0003
0000
,  // measure 34
1001
0000
1000
0000
,  // measure 35
0001
0000
0100
0000
,  // measure 36
0020
0000
0000
0030
,  // measure 37
0200
0000
0300
0000
,  // measure 38
1001
0000
1001
0000
,  // measure 39
0110
0000
0110
0000
,  // measure 40
1001
0000
0110
0000
,  // measure 41
2002
0000
3003
0000
,  // measure 42
0000
0000
0000
0000
,  // measure 43
0000
0000
0000
0000
,  // measure 44
0000
0000
0000
0000
,  // measure 45
0000
0000
0000
0000
,  // measure 46
1001
0000
0000
0000
,  // measure 47
0001
0000
0000
0000
,  // measure 48
0100
0000
0000
0000
,  // measure 49
0001
0000
0000
0000
,  // measure 50
1001
0000
0000
0000
,  // measure 51
1000
0000
0000
0000
,  // measure 52
0010
0000
0000
0000
,  // measure 53
0100
0000
0000
0000
,  // measure 54
0002
0000
0000
0000
,  // measure 55
0000
0000
0003
0000
,  // measure 56
1001
0000
1001
0000
,  // measure 57
2002
0000
0000
0000
,  // measure 58
3003
0000
0110
0000
,  // measure 59
1001
0000
0110
0000
,  // measure 60
1001
0000
0110
0000
,  // measure 61
0010
0000
0000
0000
,  // measure 62
0110
0000
0100
0000
,  // measure 63
0010
0000
0010
0000
,  // measure 64
1001
0000
0110
0000
,  // measure 65
1001
0000
0110
0000
,  // measure 66
1001
0000
0001
0000
,  // measure 67
1000
0000
0001
0000
,  // measure 68
0100
0000
0010
0000
,  // measure 69
0110
0000
1001
0000
,  // measure 70
0000
0000
1000
0000
,  // measure 71
0100
0000
1000
0000
,  // measure 72
0010
0000
0100
0000
,  // measure 73
0001
0000
0000
2002
,  // measure 74
3003
0000
0000
0000
;

//---------------dance-single - ----------------
#NOTEDATA:;
#CHARTNAME:;
#CHARTHASH:1041090750;
#STEPSTYPE:dance-single;
#BANNER:;
#DESCRIPTION:;
#CHARTSTYLE:;
#DIFFICULTY:Easy;
#METER:8;
#METERF:0.000000;
#LASTSECONDHINT:118.536003;
#RADARVALUES:0.324678,0.472093,0.366829,0.095695,0.019936,285.000000,239.000000,46.000000,12.000000,0.000000,0.000000,0.000000,0.000000,0.000000,0.324678,0.472093,0.366829,0.095695,0.019936,285.000000,239.000000,46.000000,12.000000,0.000000,0.000000,0.000000,0.000000,0.000000;
#CREDIT:Yosefu as ''diehard'';
#NOTES:
// measure 0
0000
0000
0000
0000
,  // measure 1
0000
0000
0000
0000
,  // measure 2
0000
0000
0000
0000
,  // measure 3
0000
0000
0000
0000
,  // measure 4
1000
0001
0100
0010
,  // measure 5
2002
0000
0000
3003
,  // measure 6
1000
0001
0100
0001
,  // measure 7
0010
0100
1000
0001
,  // measure 8
0101
0100
0001
0010
,  // measure 9
0110
0100
1000
0001
,  // measure 10
0101
0100
0001
1000
,  // measure 11
0100
0010
0001
1000
,  // measure 12
1010
0010
0100
0001
,  // measure 13
1001
0000
0100
1001
,  // measure 14
0001
0100
0010
0100
,  // measure 15
0001
1000
0100
0010
,  // measure 16
1000
0010
0001
0100
,  // measure 17
0010
0001
0010
1000
,  // measure 18
1001
0001
0010
0100
,  // measure 19
0001
0100
1000
0001
,  // measure 20
0200
0000
0000
0300
,  // measure 21
0010
0000
0010
1001
,  // measure 22
1000
0010
0100
1000
,  // measure 23
0100
0001
0010
0100
,  // measure 24
0001
0100
1000
0001
,  // measure 25
0200
0000
0000
0000
,  // measure 26
0301
1000
1100
0100
,  // measure 27
0010
0000
0001
0000
1001
0000
1000
0010
,  // measure 28
1000
0001
0011
0010
,  // measure 29
0100
1000
0100
0000
1001
0000
0000
0000
,  // measure 30
0001
0200
0301
1000
,  // measure 31
0100
0010
0100
0000
1001
0000
0000
0000
,  // measure 32
0001
0000
0000
0000
0000
0100
0000
0000
0101
0000
0000
0000
0000
0000
0001
0000
,  // measure 33
1000
0000
0001
0100
0001
0000
1000
0000
,  // measure 34
1100
0000
0110
0000
0011
0000
0001
1000
,  // measure 35
0001
0000
0000
1000
0001
0000
0100
0001
,  // measure 36
0100
0001
0100
0000
0001
1000
0001
0000
,  // measure 37
1000
0100
1000
0000
0002
0000
0000
0000
,  // measure 38
0103
0101
1001
1100
,  // measure 39
0110
0011
1001
0000
,  // measure 40
1000
0000
0000
0010
0100
0000
0000
0001
,  // measure 41
1000
0001
1000
0000
0010
0100
0010
0000
,  // measure 42
2000
0000
0000
0000
,  // measure 43
0000
0000
0000
0000
,  // measure 44
0000
0000
0000
0000
,  // measure 45
3000
0000
0000
0000
,  // measure 46
1001
0000
0001
0000
,  // measure 47
0100
0000
0000
0010
0000
0000
0000
0000
,  // measure 48
1000
0000
0010
0000
,  // measure 49
0100
0000
0000
0001
0000
0000
0000
0000
,  // measure 50
0011
0000
0010
0000
,  // measure 51
0100
0000
0000
0001
0000
0000
0000
0000
,  // measure 52
0100
0000
1000
0000
,  // measure 53
0001
0000
0000
0100
0000
0000
0001
0000
,  // measure 54
2000
0000
0000
0000
,  // measure 55
0000
0000
0000
0000
,  // measure 56
3100
0000
0000
0010
0000
0000
0010
0000
0001
0000
0000
0000
1000
0000
0000
0000
,  // measure 57
2001
0000
0000
0000
,  // measure 58
3001
0101
1010
1100
,  // measure 59
0011
1001
0110
0000
,  // measure 60
1001
0011
1010
1100
,  // measure 61
1000
0000
0000
1000
0000
0000
0000
0000
0001
0000
0000
0001
0000
0000
0100
0000
,  // measure 62
0001
0101
1001
1100
,  // measure 63
0100
1000
1000
0000
1001
0000
0101
0000
,  // measure 64
0001
1000
0100
0010
,  // measure 65
0001
1000
0010
0100
,  // measure 66
0101
0001
1000
0100
,  // measure 67
0001
0000
0100
0000
0010
0000
0001
1000
,  // measure 68
0001
0100
1000
0100
,  // measure 69
0110
0101
1001
0000
,  // measure 70
2000
3010
0001
0010
,  // measure 71
1000
0000
0100
0000
0010
0000
0001
1000
,  // measure 72
0010
0000
0001
0000
0010
0000
1000
0001
,  // measure 73
0200
0000
0000
0300
0000
0000
0000
0000
0000
0000
0001
0000
2000
0000
0000
0000
,  // measure 74
3000
0000
0000
0000
;

//---------------dance-single - ----------------
#NOTEDATA:;
#CHARTNAME:;
#CHARTHASH:4063837439;
#STEPSTYPE:dance-single;
#BANNER:;
#DESCRIPTION:;
#CHARTSTYLE:;
#DIFFICULTY:Medium;
#METER:12;
#METERF:0.000000;
#LASTSECONDHINT:118.536003;
#RADARVALUES:0.442018,0.590116,0.326956,0.127593,0.131580,388.000000,347.000000,41.000000,16.000000,0.000000,0.000000,0.000000,0.000000,0.000000,0.442018,0.590116,0.326956,0.127593,0.131580,388.000000,347.000000,41.000000,16.000000,0.000000,0.000000,0.000000,0.000000,0.000000;
#CREDIT:Yosefu as ''diehard'';
#NOTES:
0000
0000
0000
0000
,
0000
0000
0000
0000
,
0000
0000
0000
0000
,
0000
0000
0000
0000
,
1000
0010
1000
0000
0001
0010
0001
1000
,
0001
0000
0000
0000
0000
1000
0010
0000
,
0100
0000
0100
0001
1000
0000
1000
0100
,
0010
0000
0010
0100
1000
0000
0001
0100
,
0010
0000
1000
0001
1000
0000
0001
0010
,
0100
0000
0100
1000
0001
0000
0001
0100
,
0010
0000
0010
1000
0100
0000
0100
0010
,
0001
0000
0001
0100
0010
0000
1000
0001
,
0020
0230
2300
3002
,
0103
0000
0010
0000
1000
0001
0020
0000
,
0130
0000
0100
0001
1000
0000
1000
0100
,
0010
0000
0000
0000
0010
0000
0001
0000
1000
0000
0000
1000
0000
0000
0010
0000
,
0000
0100
0100
0001
1000
0000
0100
0010
,
0001
0000
0000
0000
0001
0000
1000
0000
0010
0000
0000
0100
0000
0000
0010
0000
,
1000
0000
1000
0001
0010
0000
0010
0001
,
0100
0000
0000
0000
0100
0000
0001
0000
1000
0000
0000
1000
0000
0000
0100
0000
,
0020
0000
0000
0030
,
0001
0000
0000
0001
0000
0000
0001
0000
0001
0000
1000
0000
0010
0000
0000
0000
,
0100
0000
0001
1000
0100
0000
1000
0001
,
0100
0000
0001
1000
0010
0000
1000
0001
,
0010
0000
0001
0000
0010
0000
0001
0000
1000
0000
0001
0000
1000
0000
0001
1000
,
0002
0000
0000
0000
,
1003
0000
0000
0000
0001
0000
0100
0000
0110
0000
0000
0010
0000
0000
1000
0000
,
0001
0000
0000
0001
0000
0000
0100
0000
0101
0000
0000
0001
1000
0000
0100
0000
,
0010
0000
0000
0000
0001
0000
0100
0000
0101
0000
0000
0001
0000
0000
1000
0000
,
0100
0010
0001
0100
0101
0000
0000
0000
,
0001
0000
0000
0000
0020
0000
0030
0000
0011
0000
0000
0001
0000
0000
1000
0000
,
0010
0100
0001
0100
1001
0000
0000
0000
,
0001
0000
0000
0010
0000
0100
0000
0000
0001
0000
0100
0000
0000
0000
1000
0000
,
0010
0000
0001
0000
0010
0000
1000
0010
1000
0000
0000
0000
0001
0000
0010
0000
,
0100
0000
1000
0001
0101
0000
0001
1000
,
0100
0000
0000
0110
0000
0000
0011
0000
0001
0000
0000
1000
0010
0000
0100
0000
,
0001
0000
1000
0000
1100
0000
0000
0000
1000
0001
0000
1000
0000
0000
1001
0000
,
0001
0000
0000
0101
0000
0000
0110
0000
0020
0000
0000
0000
0000
0000
0000
0000
,
1030
1010
1001
0011
,
0110
1100
1001
0001
,
0100
0000
0000
1000
0000
0000
0100
0000
0010
0000
0000
1000
0000
0000
0100
0000
,
0001
0000
0100
0000
0010
0000
0001
0000
0100
0000
1000
0000
0100
0000
0010
0100
,
0020
0000
0000
0000
,
2030
0000
0000
0000
,
3002
0000
0000
0000
,
0003
0000
0000
0000
,
1001
0000
0000
0001
0100
0000
0000
0001
,
1000
0000
0100
0010
0000
0000
0000
0100
,
0001
0000
0000
0100
0010
0000
0000
0001
,
1000
0000
0010
0100
0000
0000
0000
0001
,
1000
0000
0000
0100
0010
0000
0000
0001
,
0100
0000
1000
0100
0000
0000
0000
0001
,
0100
0000
0000
0001
1000
0000
0000
0001
,
0100
0000
0010
1000
0000
0000
0001
1000
,
0200
0000
0000
0000
,
0000
0000
0000
0000
,
0310
0000
0000
0011
0000
0000
0001
0000
1000
0000
0010
0000
0001
0000
0010
0000
,
2000
0000
0000
0000
0000
0000
0000
3000
,
1010
1001
0011
0110
,
0100
0000
1000
0000
1000
0000
0000
0000
1010
0000
0000
0010
0000
0000
0100
0000
,
0101
0000
0000
0000
0011
0000
0000
0000
1100
0000
0000
0000
1010
0000
0000
1000
,
0001
0000
0000
0100
0000
0000
0000
0001
1000
0000
0000
0100
0000
0000
0010
0000
,
0001
0000
0000
0000
0011
0000
0000
0000
0010
0000
0000
0001
0000
0000
0000
0000
,
1000
0000
0010
0000
0010
0000
0000
0000
0110
0000
0000
0100
0000
0000
0000
0000
,
0101
1001
1100
0110
,
0010
0001
0010
0100
0001
0100
1000
0000
,
0001
0000
0001
0100
0010
0000
0010
1000
,
0100
0000
0000
0000
0100
0000
0010
0000
0001
0000
0000
0001
0000
0000
0100
0000
,
0000
0010
0010
1000
0100
0000
0010
0001
,
0100
0000
0000
0000
0101
0000
0000
0000
1010
0000
0000
1001
0000
0000
0011
0000
,
0000
0000
0001
0100
0010
0000
0001
0010
,
0100
0000
0000
0000
0001
0000
0010
0000
0100
0000
0000
0001
0000
0000
0100
0000
,
1000
0010
0001
0010
0100
0001
0010
0100
,
2000
0000
0000
3000
0000
0000
0000
0000
0000
0000
0001
0000
0201
0000
0000
0000
,
0310
0000
0000
0000
;

//---------------dance-single - ----------------
#NOTEDATA:;
#CHARTNAME:;
#CHARTHASH:3732796664;
#STEPSTYPE:dance-single;
#BANNER:;
#DESCRIPTION:;
#CHARTSTYLE:;
#DIFFICULTY:Hard;
#METER:14;
#METERF:0.000000;
#LASTSECONDHINT:118.536003;
#RADARVALUES:0.617458,0.855669,0.342905,0.191389,0.478473,542.000000,499.000000,43.000000,24.000000,0.000000,0.000000,0.000000,0.000000,0.000000,0.617458,0.855669,0.342905,0.191389,0.478473,542.000000,499.000000,43.000000,24.000000,0.000000,0.000000,0.000000,0.000000,0.000000;
#CREDIT:Yosefu as ''diehard'';
#NOTES:
0000
0000
0000
0000
,
0000
0000
0000
0000
,
0000
0000
0000
0000
,
0000
0000
0000
0000
,
1000
0000
0100
0000
0010
0000
0001
0000
1000
0001
1000
0001
1000
0001
1000
0001
,
1000
0000
0000
0000
0000
0100
1002
0000
,
1003
0010
0100
0010
1000
0001
0010
0001
,
1000
0100
0010
0100
1000
0001
0100
0010
,
1010
1000
0001
0010
0100
0010
0001
1000
,
1010
0000
0000
0000
1001
0000
0001
0000
0010
0000
0100
1000
0001
0000
0100
0000
,
0010
1000
0100
1000
0010
0100
0001
0100
,
0010
1000
0100
0010
0001
0100
0010
1000
,
0002
0203
0320
2030
,
3001
0000
0000
0010
0100
0000
0000
0000
1000
0000
0001
0000
0102
0000
0000
0000
,
0013
0000
0010
0001
0100
0000
0100
0010
,
2000
0000
3000
0000
1000
0000
0100
0000
1000
0000
0000
0100
1000
0000
0001
0000
,
0100
0010
0010
1000
0200
0000
0310
0001
,
0200
0000
0300
0000
0100
0000
0001
0000
1000
0000
0100
1000
0000
0001
0100
0000
,
0110
0000
0010
1000
0001
0000
0001
0010
,
0200
0000
0300
0000
0100
0000
1000
0000
0100
0000
0010
0001
0000
1000
0001
0000
,
0200
0000
0000
0310
,
1000
0000
0001
1000
0000
0001
1000
0000
0001
1000
0010
0000
1001
0000
0000
0000
,
1000
0000
0000
0001
0000
1000
0100
0000
0010
0000
0000
0001
0000
1000
0010
0000
,
0100
0000
0000
0001
0000
1000
0100
0000
0010
0000
0000
0100
1000
0000
0001
0000
,
0100
0000
0010
0000
0001
0000
0010
0000
1000
0001
1000
0001
1000
0001
1000
0001
,
0020
0000
0000
0000
,
0031
0000
0000
0000
1000
0000
0100
0000
0110
0000
0000
0010
0000
0001
1000
0000
,
0010
0000
0100
0001
0000
1000
0001
0000
1001
0000
0000
1000
0010
0100
0001
0010
,
0100
0000
0000
0000
1000
0000
0010
0000
0110
0000
0100
0001
0000
1000
0001
0000
,
0010
0000
0100
1000
0001
0000
0100
0000
0110
0000
0000
0000
0001
1000
0001
0000
,
0100
0000
0000
0000
0020
0000
0030
0000
1001
0000
1000
0100
0000
1000
0010
0000
,
0100
0000
0001
0010
0001
0010
0100
0000
1001
0000
0000
0000
1000
0000
0000
0000
,
0001
0000
1000
0100
0000
0010
0000
1000
0010
0000
0100
1000
0000
0010
0100
0000
,
0001
1000
0001
1000
0001
1000
0001
1000
0100
0000
0010
0000
0001
0000
1000
0000
,
1001
0000
0000
0001
0010
0000
0100
0000
1000
0010
0000
0100
0001
1000
0001
0000
,
0010
0000
0001
0100
0010
0100
0001
0000
1001
0000
0000
1000
0100
0010
0001
0100
,
0010
1000
0001
1000
0100
0000
0010
0000
0001
1000
0001
1000
0010
0100
0001
0000
,
1000
0100
1000
0100
0010
0001
1000
0000
0020
0000
0000
0000
0030
0000
0000
0000
,
1010
0000
0000
1000
0001
0000
0100
0000
0110
0000
0000
0010
1000
0000
0001
0000
,
0011
0000
0000
0010
0100
0000
1000
0000
0001
0100
0010
1000
0001
0000
0000
0000
,
1010
0000
0010
0100
0000
1000
0100
0000
0110
0000
0010
0001
0000
0010
0100
0000
,
0001
0100
0001
0100
0001
0100
0001
0100
0010
1000
0010
1000
0001
0010
0100
1000
,
0002
0000
0023
0000
,
0230
0000
2300
0000
,
3002
0000
0000
0000
,
0003
0000
0000
0000
,
1001
0000
0000
1000
0010
0000
0000
1000
,
0001
0000
0010
0100
0000
0000
0000
0010
,
1000
0000
0000
0010
1000
0000
0000
0010
,
0100
0000
1000
0001
0000
0000
0000
0100
,
0101
0000
0001
1000
0100
0000
1000
0010
,
0100
0000
1000
0100
0001
1000
0100
0010
,
0001
0000
1000
0001
0100
0000
0001
0010
,
0100
0000
1000
0000
0010
0000
0100
0000
0001
0000
0000
0000
1001
0000
1000
0100
,
0020
0000
0000
0000
,
0000
0000
0000
0000
,
0031
0000
0000
1001
0000
0000
1000
0000
0010
0100
0010
0100
0010
0100
0010
0100
,
0002
0000
0000
0000
0000
0000
0000
0003
,
1010
0000
0000
0000
1001
0000
0000
0000
0011
0000
0000
0001
0100
0000
0010
0000
,
1010
0000
1000
0000
1001
0000
0000
0000
0011
0000
0000
0001
0000
0000
0010
0000
,
0110
0000
0000
0000
1100
0000
1000
0000
0010
1000
0000
0001
0010
0000
0100
1000
,
0001
1000
0000
0001
0000
0000
0100
0010
0001
0010
1000
0001
0000
0000
0010
0000
,
0100
0000
0000
0000
1100
0000
0000
0000
1001
0000
0000
0001
0100
0000
0001
0000
,
0010
0000
0010
0000
0010
0000
0000
0000
0110
0000
0000
0100
1000
0000
0010
0000
,
0110
0000
0000
0100
0001
0000
1000
0000
0001
0000
0010
0000
0110
0000
0100
0000
,
1000
0000
0010
0000
0100
0000
1000
0000
0100
0010
0100
0010
0100
0010
0100
0010
,
1000
0000
0000
0000
1000
0000
0010
0000
0100
0000
0000
0000
0100
0000
0010
1000
,
0002
0000
0000
0013
0001
0000
0100
0000
0001
0010
0000
0001
0100
0000
0010
0000
,
1000
0100
0100
0010
0001
0000
0100
0010
,
1010
0000
0000
0000
1001
0000
0000
0000
0011
0000
0000
0110
0000
0000
1100
0000
,
0000
0000
0100
0001
0100
0010
0001
0100
,
0010
0000
1000
0000
0010
0000
0100
0000
0001
0000
1000
0010
0000
0100
0001
0100
,
1000
0000
0100
0010
1000
0000
0001
0000
0010
0001
0100
0001
0010
0001
1000
0001
,
0200
0000
0000
0300
0000
0000
0000
0000
0000
0000
0010
0000
2001
0000
0000
0000
,
3100
0000
0000
0000
;
