#TITLE:RAISE YOUR HEADS UP;
#SUBTITLE:;
#ARTIST:GUHROOVY;
#TITLETRANSLIT:;
#SUBTITLETRANSLIT:;
#ARTISTTRANSLIT:;
#GENRE:Speedcore;
#CREDIT:skeleton made by forcednature;
#BANNER:RAISE YOUR HEADS UP.png;
#BACKGROUND:RAISE YOUR HEADS UP-bg.png;
#LYRICSPATH:;
#CDTITLE:../_YSD cdtitles/ysd sale3 cdtitle.png;
#MUSIC:RAISE YOUR HEADS UP.ogg;
#OFFSET:1.040000;
#SAMPLESTART:32.248001;
#SAMPLELENGTH:17.674000;
#SELECTABLE:YES;
#DISPLAYBPM:115.000000:460.000000;
#BPMS:0.000000=230.000000
,131.000000=460.000000
,131.500000=230.000000
,131.750000=115.000000
,132.000000=460.000000
,244.000000=230.000000
,251.000000=460.000000
,251.500000=230.000000
,251.750000=115.000000
,252.000000=460.000000
,308.000000=920.000000
,309.000000=460.000000
,309.500000=230.000000
,310.000000=920.000000
,311.000000=460.000000
,311.500000=230.000000
,312.000000=920.000000
,313.000000=460.000000
,313.500000=230.000000
,314.000000=920.000000
,315.000000=460.000000
,315.500000=230.000000
,316.000000=460.000000
,344.000000=920.000000
,345.000000=460.000000
,345.500000=230.000000
,346.000000=920.000000
,347.000000=460.000000
,347.500000=230.000000
,348.000000=460.000000
,362.000000=920.000000
,363.000000=460.000000
,363.500000=230.000000
,368.000000=115.000000
,416.000000=460.000000
,417.000000=230.000000
,448.000000=460.000000
,448.500000=230.000000
,448.750000=115.000000
,449.000000=460.000000
;
#STOPS:368.000000=1.043000,
416.000000=1.957000
;
#BGCHANGES:;
#KEYSOUNDS:;
#ATTACKS:;

//---------------dance-single - ----------------
#NOTES:
     dance-single:
     :
     Hard:
     15:
     0.709003,1.060483,0.153080,0.112796,0.020142,616.000000,597.000000,19.000000,14.000000,4.000000,0.000000,0.709003,1.060483,0.153080,0.112796,0.020142,616.000000,597.000000,19.000000,14.000000,4.000000,0.000000:
// measure 0
0000
0000
0000
0000
,  // measure 1
0000
0000
0000
0000
,  // measure 2
0000
0000
0000
0000
,  // measure 3
0000
0000
0000
0000
,  // measure 4
0000
0000
0000
0000
,  // measure 5
1001
0000
0000
0001
0010
0000
0000
0001
,  // measure 6
0000
0001
0000
0001
0100
0000
0010
0000
,  // measure 7
0010
0000
0000
1000
0100
0000
0000
0000
,  // measure 8
0010
0001
0000
1000
0010
0000
0000
0000
,  // measure 9
0100
0000
0001
1000
0000
0100
0000
0000
,  // measure 10
0010
0100
0000
1000
0001
0000
0100
0000
,  // measure 11
0100
0000
0010
1000
0100
0000
0010
0000
,  // measure 12
0001
0100
0001
0100
0020
0000
1000
0000
,  // measure 13
1030
0000
0001
0010
0000
0100
0000
0000
,  // measure 14
0010
0001
0000
1000
0010
0000
0100
0000
,  // measure 15
0100
0000
0001
1000
0000
0100
0010
0000
,  // measure 16
0100
1000
0100
0010
0001
0200
0310
0000
,  // measure 17
1000
0000
0001
0100
0000
0010
0000
0000
,  // measure 18
1000
0100
0000
0010
0001
0000
0100
0000
,  // measure 19
0100
0001
0010
0001
0100
0001
1000
0100
,  // measure 20
0010
0001
0100
0010
1000
0000
0000
0000
,  // measure 21
0100
0000
0010
0001
0000
1000
0000
0000
,  // measure 22
0010
0100
0000
0001
1000
0000
0100
0000
,  // measure 23
0100
0010
0000
0001
0100
0000
0000
0000
,  // measure 24
0020
0000
0000
0030
,  // measure 25
1010
0000
1000
0100
0010
0100
1000
0010
,  // measure 26
0100
0001
0010
0100
1000
0001
0100
0010
,  // measure 27
1000
0000
0001
0010
0100
0010
0001
0100
,  // measure 28
0010
1000
0001
0010
0100
0010
0001
1000
,  // measure 29
1001
0000
0001
0100
0001
0010
0100
1000
,  // measure 30
0010
1000
0100
0010
0001
0100
0010
1000
,  // measure 31
1001
0000
0001
0100
0010
1000
0100
0010
,  // measure 32
0001
0000
0000
1001
,  // measure 33
1000
0010
0100
0001
,  // measure 34
1000
0100
0010
0001
,  // measure 35
0100
0010
1000
0001
,  // measure 36
0010
0100
0010
0001
,  // measure 37
1000
0010
0100
0010
,  // measure 38
1000
0001
0010
0100
,  // measure 39
0010
0001
1000
0010
,  // measure 40
0100
0001
0010
0100
,  // measure 41
1000
0001
0100
0010
,  // measure 42
0100
0001
1000
0100
,  // measure 43
0010
0100
1000
0010
,  // measure 44
0100
0001
0010
0100
,  // measure 45
1000
0001
0100
0010
,  // measure 46
1000
0100
0010
0001
,  // measure 47
0010
0100
1000
0001
,  // measure 48
0100
0000
0110
0000
,  // measure 49
1000
0001
0100
1000
,  // measure 50
0100
0001
1000
0100
,  // measure 51
0001
0100
1000
0001
,  // measure 52
0100
0010
1000
0100
,  // measure 53
0010
0001
1000
0100
,  // measure 54
0001
0100
1000
0001
,  // measure 55
0100
1000
0100
0001
,  // measure 56
1000
0100
0020
0000
,  // measure 57
0031
0100
1000
0100
,  // measure 58
0001
1000
0100
0001
,  // measure 59
0100
1000
0001
0100
,  // measure 60
0010
1000
0100
0010
,  // measure 61
0001
0100
0010
1000
0100
0010
0100
1000
,  // measure 62
0010
0100
0001
1000
0100
1000
0020
0000
,  // measure 63
0130
0001
1000
0100
,  // measure 64
0010
0001
0100
0010
,  // measure 65
1000
0001
0010
0100
,  // measure 66
0010
0001
1000
0010
,  // measure 67
0100
0001
0010
0100
,  // measure 68
1000
0001
0100
0010
,  // measure 69
1000
0100
0010
0001
,  // measure 70
1000
0010
0200
0300
,  // measure 71
0001
0010
0100
0010
,  // measure 72
0001
1000
0010
0100
,  // measure 73
0001
0010
0001
0100
,  // measure 74
0010
1000
0001
0100
,  // measure 75
0001
0010
0100
1000
,  // measure 76
0010
0100
0001
1000
,  // measure 77
1001
0000
1001
0000
,  // measure 78
1001
0000
0110
0000
,  // measure 79
1000
0010
1000
0100
,  // measure 80
0010
0001
0100
0010
,  // measure 81
1000
0001
0010
0001
,  // measure 82
0100
0010
1000
0001
,  // measure 83
0010
0100
0010
0001
,  // measure 84
1000
0010
0100
0001
,  // measure 85
1000
0100
0010
0001
,  // measure 86
0011
0000
1100
0000
,  // measure 87
1000
0010
0100
0001
,  // measure 88
0010
0100
1000
0001
,  // measure 89
0010
0001
1000
0010
,  // measure 90
0100
0100
0110
0000
,  // measure 91
0001
0000
0000
0001
0010
0000
0100
0000
,  // measure 92
MMMM
0000
0000
1000
0001
0000
0000
0000
,  // measure 93
0100
0001
0000
0001
0010
0000
0000
0000
,  // measure 94
0100
0000
0000
1000
0001
0000
0000
0000
,  // measure 95
0100
0000
0010
0000
0000
0000
0010
1000
0001
0000
1000
0000
0000
0000
0100
0000
,  // measure 96
0010
0000
0000
0001
1000
0000
0000
0000
,  // measure 97
0010
0100
0000
0100
0001
0000
0000
0000
,  // measure 98
1000
0000
0000
0100
0010
0000
0000
0000
,  // measure 99
0100
1000
0000
1000
0001
0000
0000
0200
,  // measure 100
0310
0000
1000
0000
0000
0000
0100
0000
0010
0000
0000
0001
0000
0000
1000
0000
,  // measure 101
0010
0000
0100
0000
0000
0000
0200
0000
0301
0000
0000
0010
0000
0000
0200
0000
,  // measure 102
1300
0000
0001
0000
0000
0000
0100
0000
0010
0000
0000
1000
0000
0000
0001
0000
,  // measure 103
0010
0000
0100
0000
0000
0000
0200
0000
1300
0000
0000
0001
0000
0000
0100
0000
,  // measure 104
0101
0000
1001
0000
1000
0010
0100
0000
,  // measure 105
0001
0100
0001
0100
0001
0010
0100
0000
,  // measure 106
1000
0100
0010
0000
0001
0100
0010
0000
,  // measure 107
1000
0010
1000
0010
1000
0100
0010
0000
,  // measure 108
0001
0100
0101
0000
0001
0010
0100
0000
,  // measure 109
1000
0010
1000
0010
0100
0001
0010
0000
,  // measure 110
0100
1000
0001
0100
1000
0100
0001
1000
,  // measure 111
0100
0010
0001
0000
0000
0000
0000
0000
,  // measure 112
1001
1000
0010
0100
,  // measure 113
0001
0010
0100
0010
,  // measure 114
0001
1000
0010
0001
,  // measure 115
0010
1000
0001
0010
,  // measure 116
0100
1000
0010
0100
,  // measure 117
0001
1000
0100
0010
,  // measure 118
0100
1000
0001
0100
,  // measure 119
1000
0100
0020
0000
,  // measure 120
0000
0130
0001
0010
,  // measure 121
0100
1000
0100
0010
,  // measure 122
0001
0100
0010
1000
,  // measure 123
0100
0001
0100
1000
,  // measure 124
0001
0100
0010
1000
,  // measure 125
0100
0010
0001
1000
,  // measure 126
0010
0001
1000
0100
,  // measure 127
0001
0010
0000
1100
,  // measure 128
0000
0000
1000
0000
0000
0001
0010
0000
,  // measure 129
0100
0000
1000
0000
0000
0001
0010
0000
,  // measure 130
0100
0000
1000
0000
0000
0001
0010
0000
,  // measure 131
0100
1000
0100
0001
,  // measure 132
0100
0000
1000
0000
0000
0001
0100
0000
,  // measure 133
0010
0000
1000
0000
0000
0001
0100
0000
,  // measure 134
0010
0000
1000
0000
0000
0001
0100
0000
,  // measure 135
0010
1000
0200
0000
,  // measure 136
0000
0310
1000
0001
,  // measure 137
0100
0010
0001
0100
,  // measure 138
0010
0001
1000
0100
,  // measure 139
0010
1000
0002
0000
,  // measure 140
0013
0100
0000
1000
,  // measure 141
0001
0100
0000
0010
,  // measure 142
1000
0200
0000
0000
,  // measure 143
0000
0000
0000
0000
,  // measure 144
0000
0000
0000
0000
,  // measure 145
0000
0000
0000
0310
,  // measure 146
0000
1001
0000
0000
;

//---------------dance-single - ----------------
#NOTES:
     dance-single:
     :
     Beginner:
     4:
     0.176100,0.294579,0.128910,0.201421,0.000000,153.000000,137.000000,16.000000,25.000000,0.000000,0.000000,0.176100,0.294579,0.128910,0.201421,0.000000,153.000000,137.000000,16.000000,25.000000,0.000000,0.000000:
// measure 0
0000
0000
0000
0000
,  // measure 1
0000
0000
0000
0000
,  // measure 2
0000
0000
0000
0000
,  // measure 3
0000
0000
0000
0000
,  // measure 4
0000
0000
0000
0000
,  // measure 5
1000
0000
0000
0000
,  // measure 6
0001
0000
0000
0000
,  // measure 7
0100
0000
0000
0000
,  // measure 8
0010
0000
0000
0000
,  // measure 9
2000
0000
3000
0000
,  // measure 10
0002
0000
0003
0000
,  // measure 11
0020
0000
0030
0000
,  // measure 12
0200
0000
0300
0000
,  // measure 13
2000
0000
3000
0000
,  // measure 14
0020
0000
0030
0000
,  // measure 15
0200
0000
0300
0000
,  // measure 16
0002
0000
0003
0000
,  // measure 17
2000
0000
3000
0000
,  // measure 18
0200
0000
0300
0000
,  // measure 19
0020
0000
0030
0000
,  // measure 20
0002
0000
0003
0000
,  // measure 21
0200
0000
0300
0000
,  // measure 22
0020
0000
0030
0000
,  // measure 23
2000
0000
3000
0000
,  // measure 24
0200
0000
0300
0000
,  // measure 25
1001
0000
0000
0000
,  // measure 26
0001
0000
0000
0000
,  // measure 27
0100
0000
0000
0000
,  // measure 28
0010
0000
0000
0000
,  // measure 29
0110
0000
0000
0000
,  // measure 30
1000
0000
0000
0000
,  // measure 31
1001
0000
0000
0000
,  // measure 32
0100
0000
0000
0000
,  // measure 33
0001
0000
0000
0000
,  // measure 34
0001
0000
0000
0000
,  // measure 35
1000
0000
0000
0000
,  // measure 36
1000
0000
0000
0000
,  // measure 37
0010
0000
0000
0000
,  // measure 38
0010
0000
0000
0000
,  // measure 39
0100
0000
0000
0000
,  // measure 40
0100
0000
0000
0000
,  // measure 41
1001
0000
0000
0000
,  // measure 42
0001
0000
0000
0000
,  // measure 43
0010
0000
0000
0000
,  // measure 44
0010
0000
0000
0000
,  // measure 45
0100
0000
0000
0000
,  // measure 46
0100
0000
0000
0000
,  // measure 47
1000
0000
0000
0000
,  // measure 48
2000
0000
3000
0000
,  // measure 49
1001
0000
0000
0000
,  // measure 50
0001
0000
0000
0000
,  // measure 51
0100
0000
0000
0000
,  // measure 52
0100
0000
0000
0000
,  // measure 53
0010
0000
0000
0000
,  // measure 54
0010
0000
0000
0000
,  // measure 55
1000
0000
0000
0000
,  // measure 56
1000
0000
0000
0000
,  // measure 57
0110
0000
0000
0000
,  // measure 58
0001
0000
0000
0000
,  // measure 59
1000
0000
0000
0000
,  // measure 60
0100
0000
0000
0000
,  // measure 61
0020
0000
0000
0000
,  // measure 62
0000
0000
0000
0030
,  // measure 63
1001
0000
0000
0000
,  // measure 64
0001
0000
0000
0000
,  // measure 65
0100
0000
0000
0000
,  // measure 66
0010
0000
0000
0000
,  // measure 67
1000
0000
0000
0000
,  // measure 68
0100
0000
0000
0000
,  // measure 69
0010
0000
0000
0000
,  // measure 70
0001
0000
0000
0000
,  // measure 71
0100
0000
0000
0000
,  // measure 72
0001
0000
0000
0000
,  // measure 73
0010
0000
0000
0000
,  // measure 74
0100
0000
0000
0000
,  // measure 75
1000
0000
0000
0000
,  // measure 76
0010
0000
0000
0000
,  // measure 77
0200
0000
0000
0000
,  // measure 78
0000
0000
0300
0000
,  // measure 79
0001
0000
0000
0000
,  // measure 80
0010
0000
0000
0000
,  // measure 81
0100
0000
0000
0000
,  // measure 82
0010
0000
0000
0000
,  // measure 83
0001
0000
0000
0000
,  // measure 84
1000
0000
0000
0000
,  // measure 85
0010
0000
0000
0000
,  // measure 86
0200
0000
0300
0000
,  // measure 87
0001
0000
0000
0000
,  // measure 88
1000
0000
0000
0000
,  // measure 89
0100
0000
0000
0000
,  // measure 90
0020
0000
0030
0000
,  // measure 91
0220
0000
0000
0000
,  // measure 92
0330
0000
0000
0000
,  // measure 93
1000
0000
0000
0000
,  // measure 94
0001
0000
0000
0000
,  // measure 95
0100
0000
0000
0000
,  // measure 96
0010
0000
0000
0000
,  // measure 97
1000
0000
0000
0000
,  // measure 98
0100
0000
0000
0000
,  // measure 99
0010
0000
0000
0000
,  // measure 100
0001
0000
0000
0000
,  // measure 101
0100
0000
0000
0000
,  // measure 102
1000
0000
0000
0000
,  // measure 103
0100
0000
0000
0000
,  // measure 104
1001
0000
0000
0000
,  // measure 105
0000
0001
0000
0000
,  // measure 106
0000
1000
0000
0000
,  // measure 107
0000
0100
0000
0000
,  // measure 108
0000
0110
0000
0000
,  // measure 109
0000
0001
0000
0000
,  // measure 110
0000
1001
0000
0000
,  // measure 111
0000
0100
0000
0000
,  // measure 112
0000
1001
0000
0000
,  // measure 113
0000
1000
0000
0000
,  // measure 114
0000
0010
0000
0000
,  // measure 115
0000
0100
0000
0000
,  // measure 116
0000
0001
0000
0000
,  // measure 117
0000
0010
0000
0000
,  // measure 118
0000
0100
0000
0000
,  // measure 119
0000
1000
0000
0000
,  // measure 120
0000
1001
0000
0000
,  // measure 121
0000
0001
0000
0000
,  // measure 122
0000
0100
0000
0000
,  // measure 123
0000
0010
0000
0000
,  // measure 124
0000
0100
0000
0000
,  // measure 125
0000
0001
0000
0000
,  // measure 126
0000
1000
0000
0000
,  // measure 127
0000
0200
0000
0300
,  // measure 128
0000
0010
0000
0000
,  // measure 129
0000
0001
0000
0000
,  // measure 130
0000
1000
0000
0000
,  // measure 131
0000
0010
0000
0010
,  // measure 132
0000
0010
0000
0000
,  // measure 133
0000
0100
0000
0000
,  // measure 134
0000
0001
0000
0000
,  // measure 135
0000
1000
0000
0000
,  // measure 136
0000
1001
0000
0000
,  // measure 137
0000
0001
0000
0000
,  // measure 138
0000
0110
0000
0000
,  // measure 139
0000
1000
0000
0000
,  // measure 140
0000
1001
0000
0000
,  // measure 141
0000
0100
0000
0000
,  // measure 142
0000
0020
0000
0000
,  // measure 143
0000
0000
0000
0000
,  // measure 144
0000
0000
0000
0000
,  // measure 145
0000
0000
0000
0030
,  // measure 146
0000
0010
0000
0000
;

//---------------dance-single - ----------------
#NOTES:
     dance-single:
     :
     Easy:
     10:
     0.318821,0.589157,0.145023,0.177251,0.000000,277.000000,259.000000,18.000000,22.000000,0.000000,0.000000,0.318821,0.589157,0.145023,0.177251,0.000000,277.000000,259.000000,18.000000,22.000000,0.000000,0.000000:
// measure 0
0000
0000
0000
0000
,  // measure 1
0000
0000
0000
0000
,  // measure 2
0000
0000
0000
0000
,  // measure 3
0000
0000
0000
0000
,  // measure 4
0000
0000
0000
0000
,  // measure 5
1000
0000
0001
0000
,  // measure 6
0100
0000
0001
0000
,  // measure 7
1000
0000
0001
0000
,  // measure 8
0200
0000
0000
0000
,  // measure 9
0302
0000
0000
0000
,  // measure 10
0023
0000
0000
0000
,  // measure 11
0230
0000
0000
0000
,  // measure 12
2300
0000
0000
0000
,  // measure 13
3020
0000
0000
0000
,  // measure 14
0230
0000
0000
0000
,  // measure 15
0302
0000
0000
0000
,  // measure 16
0023
0000
0000
0000
0000
0200
0300
0000
,  // measure 17
0032
0000
0000
0000
,  // measure 18
0203
0000
0000
0000
,  // measure 19
0320
0000
0000
0000
,  // measure 20
2030
0000
0000
0000
,  // measure 21
3002
0000
0000
0000
,  // measure 22
0023
0000
0000
0000
,  // measure 23
0230
0000
0000
0000
,  // measure 24
2300
0000
0000
0000
,  // measure 25
3001
0000
0100
0000
,  // measure 26
0010
0000
0100
0001
,  // measure 27
1000
0000
0100
0000
,  // measure 28
0010
0000
0001
1000
,  // measure 29
0010
0000
0100
0000
,  // measure 30
0001
0000
1000
0100
,  // measure 31
0010
0000
0100
0000
,  // measure 32
1000
0000
0000
1001
,  // measure 33
0001
0000
0000
0000
,  // measure 34
0100
0000
0000
0000
,  // measure 35
0010
0000
0000
0000
,  // measure 36
1000
0000
0010
0000
,  // measure 37
1000
0000
0000
0000
,  // measure 38
0001
0000
0000
0000
,  // measure 39
1000
0000
0000
0000
,  // measure 40
0100
0000
0010
0000
,  // measure 41
0100
0000
0000
0000
,  // measure 42
0010
0000
0000
0000
,  // measure 43
0001
0000
0000
0000
,  // measure 44
1000
0000
0010
0000
,  // measure 45
1000
0000
0000
0000
,  // measure 46
0001
0000
0000
0000
,  // measure 47
0010
0000
0000
0000
,  // measure 48
0200
0000
0300
0000
,  // measure 49
1000
0000
0000
0000
,  // measure 50
0001
0000
0000
0000
,  // measure 51
0100
0000
0000
0000
,  // measure 52
0010
0000
1000
0000
,  // measure 53
0001
0000
0000
0000
,  // measure 54
0010
0000
0000
0000
,  // measure 55
0100
0000
0000
0000
,  // measure 56
1000
0000
0100
0000
,  // measure 57
0010
0000
0000
0000
,  // measure 58
0001
0000
0000
0000
,  // measure 59
0100
0000
0000
0000
,  // measure 60
0010
0000
1000
0000
,  // measure 61
0001
0000
0010
0000
,  // measure 62
0100
0000
0000
1000
0000
0000
0001
0000
,  // measure 63
0101
0000
0000
0100
,  // measure 64
0001
0000
1000
0000
,  // measure 65
0000
0000
0100
0000
,  // measure 66
0000
0010
0000
0001
,  // measure 67
1000
0000
0000
1000
,  // measure 68
0010
0000
0100
0000
,  // measure 69
0000
0000
0001
0000
,  // measure 70
1000
0000
1100
0000
,  // measure 71
0100
0000
0000
0100
,  // measure 72
0010
0000
0001
0000
,  // measure 73
0000
0000
1000
0000
,  // measure 74
0000
0010
0000
0100
,  // measure 75
0001
0000
0000
0001
,  // measure 76
0010
0000
0100
0000
,  // measure 77
1001
0000
1001
0000
,  // measure 78
1001
0000
0110
0000
,  // measure 79
1001
0000
0000
0001
,  // measure 80
0100
0000
0010
0000
,  // measure 81
0000
0000
1000
0000
,  // measure 82
0000
0001
0000
0010
,  // measure 83
0100
0000
0000
0100
,  // measure 84
0010
0000
0001
0000
,  // measure 85
0000
0000
1000
0000
,  // measure 86
0110
0000
1001
0000
,  // measure 87
1000
0000
0000
1000
,  // measure 88
0010
0000
0100
0000
,  // measure 89
0000
0000
0001
0000
,  // measure 90
1000
0000
1001
0000
,  // measure 91
1000
0000
0000
1000
0001
0000
1000
0000
,  // measure 92
0000
0000
0001
0000
,  // measure 93
1000
0100
0000
0100
1000
0000
0000
0000
,  // measure 94
0001
0000
0000
0001
0100
0000
0000
0000
,  // measure 95
0000
0100
0000
0100
0010
0100
0000
0010
,  // measure 96
1000
0000
0000
1000
0010
0000
0000
0000
,  // measure 97
0000
0100
0000
0100
0001
0000
0000
0000
,  // measure 98
1000
0000
0000
1000
0100
0000
0000
0000
,  // measure 99
0000
0010
0000
0010
0001
0000
0000
0000
,  // measure 100
1000
0000
0000
1000
0010
0000
0000
0000
,  // measure 101
0000
0100
0000
0100
0001
0000
0000
0000
,  // measure 102
0010
0000
0000
0010
0100
0000
0000
0000
,  // measure 103
0000
1000
0000
1000
0001
0000
0000
0100
,  // measure 104
0110
1001
0000
1000
,  // measure 105
0000
0010
0000
0100
,  // measure 106
0000
0001
0000
1000
,  // measure 107
0000
0100
0000
0010
,  // measure 108
0000
1001
0000
0001
,  // measure 109
0000
0100
0000
0010
,  // measure 110
0000
1000
0000
0001
,  // measure 111
0000
0100
0000
0000
,  // measure 112
1001
1000
0000
0001
,  // measure 113
0000
0100
0000
0010
,  // measure 114
0000
1000
0000
0001
,  // measure 115
0010
0100
0000
0010
,  // measure 116
0000
0001
0000
1000
,  // measure 117
0000
0010
0000
0100
,  // measure 118
0000
0001
0000
1000
,  // measure 119
0100
0010
0002
0003
,  // measure 120
0000
1001
0000
1000
,  // measure 121
0000
0010
0000
0100
,  // measure 122
0000
0001
0000
1000
,  // measure 123
0100
0010
0000
0001
,  // measure 124
0000
0100
0000
0010
,  // measure 125
1000
0001
0000
0010
,  // measure 126
0000
0100
0000
1000
,  // measure 127
0001
0100
0000
0101
,  // measure 128
0000
0001
0000
0010
,  // measure 129
0000
1000
0000
0010
,  // measure 130
0000
0001
0000
0100
,  // measure 131
0000
1000
0000
0100
,  // measure 132
0000
0001
0000
0010
,  // measure 133
0000
1000
0000
0010
,  // measure 134
0000
0001
0000
1000
,  // measure 135
0000
0010
0200
0000
,  // measure 136
0000
0301
0000
0010
,  // measure 137
0000
1000
0000
0010
,  // measure 138
0000
0001
0000
0100
,  // measure 139
0000
1000
0000
0100
,  // measure 140
0000
0001
0000
1000
,  // measure 141
0000
0100
0000
0010
,  // measure 142
0000
0002
0000
0000
,  // measure 143
0000
0000
0000
0000
,  // measure 144
0000
0000
0000
0000
,  // measure 145
0000
0000
0000
0103
,  // measure 146
0000
1001
0000
0000
;

//---------------dance-single - ----------------
#NOTES:
     dance-single:
     :
     Medium:
     12:
     0.496072,1.001567,0.136966,0.185308,0.020142,431.000000,414.000000,17.000000,23.000000,0.000000,0.000000,0.496072,1.001567,0.136966,0.185308,0.020142,431.000000,414.000000,17.000000,23.000000,0.000000,0.000000:
// measure 0
0000
0000
0000
0000
,  // measure 1
0000
0000
0000
0000
,  // measure 2
0000
0000
0000
0000
,  // measure 3
0000
0000
0000
0000
,  // measure 4
0000
0000
0000
0000
,  // measure 5
1000
0000
0000
0001
0100
0000
0000
0010
,  // measure 6
0000
0010
0000
0010
1000
0000
0000
0000
,  // measure 7
0001
0000
0000
0010
0100
0000
0000
0000
,  // measure 8
2000
0000
0000
0000
,  // measure 9
3002
0000
0100
0000
,  // measure 10
0023
0000
0100
0000
,  // measure 11
0032
0000
0100
0000
,  // measure 12
2003
0000
0100
0000
,  // measure 13
3002
0000
0100
0000
,  // measure 14
0023
0000
0100
0000
,  // measure 15
0032
0000
1000
0000
,  // measure 16
0103
0000
0000
0010
0000
2000
3000
0000
,  // measure 17
0002
0000
1000
0000
,  // measure 18
0203
0000
0010
0000
,  // measure 19
0302
0000
0010
0000
,  // measure 20
2003
0000
0100
0000
,  // measure 21
3020
0000
0001
0000
,  // measure 22
0230
0000
1000
0000
,  // measure 23
0302
0000
0010
0000
,  // measure 24
0203
0000
0000
0300
,  // measure 25
0101
0000
0000
0001
1000
0000
0001
0100
,  // measure 26
0000
0000
0010
1000
0000
0000
0001
0010
,  // measure 27
0100
0000
0000
1000
0100
0000
1000
0001
,  // measure 28
0000
0000
0100
0001
0000
0000
0010
0100
,  // measure 29
1000
0000
0000
0001
0100
0000
0010
1000
,  // measure 30
0000
0000
0001
0010
0000
0000
0100
1000
,  // measure 31
0001
0000
0000
0100
0010
0000
1000
0001
,  // measure 32
0010
0000
0000
1001
,  // measure 33
1000
0000
0010
0100
,  // measure 34
0001
0000
1000
0100
,  // measure 35
0010
0000
0100
1000
,  // measure 36
0001
0000
0100
0010
,  // measure 37
1000
0000
0001
0010
,  // measure 38
0100
0000
0010
0001
,  // measure 39
1000
0000
0010
0100
,  // measure 40
0001
0000
1000
0100
,  // measure 41
0010
0000
0100
1000
,  // measure 42
0001
0000
0100
0010
,  // measure 43
1000
0000
0001
0010
,  // measure 44
0100
0000
0010
0001
,  // measure 45
1000
0000
0010
0100
,  // measure 46
0001
0000
1000
0100
,  // measure 47
0010
0000
0001
1000
,  // measure 48
0010
0000
0101
0000
,  // measure 49
1000
0100
0000
1000
,  // measure 50
0000
0001
0100
0000
,  // measure 51
0010
1000
0000
0001
,  // measure 52
0000
0010
0100
1000
,  // measure 53
0100
0010
0000
0001
,  // measure 54
0000
0100
0010
1000
,  // measure 55
0010
0100
0000
0001
,  // measure 56
1000
0100
0020
0000
,  // measure 57
0031
0100
0000
0010
,  // measure 58
0000
1000
0001
0000
,  // measure 59
0010
0100
0000
1000
,  // measure 60
0000
0001
0100
0010
,  // measure 61
1000
0010
0000
0100
0000
0001
1000
0100
,  // measure 62
0010
0001
0000
0100
0010
1000
0001
0000
,  // measure 63
0010
0000
0001
0100
,  // measure 64
0010
0000
1000
0000
,  // measure 65
0001
0010
0100
0000
,  // measure 66
0010
0001
0000
1000
,  // measure 67
0010
0000
0100
0001
,  // measure 68
1000
0000
0100
0000
,  // measure 69
0010
0001
1000
0000
,  // measure 70
0010
0100
0001
0000
,  // measure 71
1000
0000
0100
0010
,  // measure 72
0001
0000
0100
0000
,  // measure 73
0010
1000
0001
0000
,  // measure 74
0010
0100
0000
1000
,  // measure 75
0001
0000
0100
0010
,  // measure 76
1000
0000
0001
0000
,  // measure 77
0110
0000
0110
0000
,  // measure 78
0110
0000
1001
0000
,  // measure 79
0001
0000
0010
0100
,  // measure 80
1000
0000
0010
0000
,  // measure 81
0100
0001
1000
0000
,  // measure 82
0100
0010
0000
0001
,  // measure 83
1000
0000
0010
0100
,  // measure 84
0001
0000
1000
0000
,  // measure 85
0100
0010
0001
0000
,  // measure 86
1001
0000
0110
0000
,  // measure 87
1000
0000
0100
0010
,  // measure 88
0001
0000
0100
0000
,  // measure 89
0010
0000
1000
0000
,  // measure 90
0100
0010
0001
0000
,  // measure 91
1000
0000
0000
1000
0010
0000
0100
0000
,  // measure 92
0000
0000
0000
0001
1000
0000
0000
0000
,  // measure 93
0000
0001
0000
0001
0100
0000
0000
0000
,  // measure 94
0010
0000
0000
0010
1000
0000
0000
0000
,  // measure 95
0000
0000
0100
0000
0000
0000
0100
0010
0001
0000
1000
0000
0000
0000
0001
0000
,  // measure 96
0100
0000
0000
0100
0010
0000
0000
0000
,  // measure 97
0000
1000
0000
1000
0100
0000
0000
0000
,  // measure 98
0010
0000
0000
0010
0001
0000
0000
0000
,  // measure 99
0000
1000
0000
1000
0010
0000
0000
0100
,  // measure 100
0001
0000
1000
0000
0000
0000
1001
0000
0010
0000
0000
0100
0000
0000
0100
0000
,  // measure 101
0000
0000
1001
0000
1000
0000
1100
0000
0100
0000
0000
0010
0000
0000
0010
0000
,  // measure 102
0001
0000
0100
0000
0000
0000
1001
0000
0100
0000
0000
0010
0000
0000
0010
0000
,  // measure 103
0000
0000
1001
0000
0000
0000
0011
0000
0001
0000
0000
1000
0000
0000
1000
0000
,  // measure 104
0010
1000
0010
0100
,  // measure 105
0001
0000
1000
0000
0100
0010
0001
0000
,  // measure 106
1000
0010
0100
0001
,  // measure 107
0010
0000
0100
0000
1000
0001
0100
0000
,  // measure 108
0010
1000
0001
0000
0010
0000
0100
0000
,  // measure 109
1000
0000
0001
0000
0100
0010
1000
0000
,  // measure 110
0001
0010
0100
1000
,  // measure 111
0100
0010
0000
0000
,  // measure 112
1001
0001
0000
0100
,  // measure 113
0010
1000
0000
0001
,  // measure 114
0000
0010
0000
0100
,  // measure 115
1000
0001
0000
0100
,  // measure 116
0000
0010
0000
0100
,  // measure 117
0001
1000
0000
0100
,  // measure 118
0000
0010
0000
0001
,  // measure 119
1000
0010
0200
0000
,  // measure 120
0000
0301
0000
1000
,  // measure 121
0100
0010
0000
0100
,  // measure 122
0000
1000
0000
0001
,  // measure 123
0100
0010
0000
0100
,  // measure 124
0000
0001
0000
1000
,  // measure 125
0100
0010
0000
0001
,  // measure 126
0000
1000
0000
0010
,  // measure 127
0100
0001
0000
0000
,  // measure 128
0000
1000
0000
0001
,  // measure 129
0100
1000
0000
0001
,  // measure 130
0010
1000
0000
0001
,  // measure 131
0100
1000
0100
0001
,  // measure 132
1000
0100
0000
1000
,  // measure 133
0100
0001
0000
1000
,  // measure 134
0010
0001
0000
1000
,  // measure 135
0100
0010
0002
0000
,  // measure 136
0000
1003
0010
0001
,  // measure 137
0010
2000
0000
0000
,  // measure 138
0000
3001
0010
1000
,  // measure 139
0010
0002
0000
0000
,  // measure 140
0000
1003
0000
0010
,  // measure 141
1000
0100
0000
0010
,  // measure 142
0001
0200
0000
0000
,  // measure 143
0000
0000
0000
0000
,  // measure 144
0000
0000
0000
0000
,  // measure 145
0000
0000
0000
0310
,  // measure 146
0000
1001
0000
0000
;

//---------------dance-single - Yosefu Raises the Roof----------------
#NOTES:
     dance-single:
     Yosefu Raises the Roof:
     Challenge:
     18:
     0.938047,1.531808,0.145023,0.298103,0.177251,815.000000,797.000000,18.000000,37.000000,4.000000,0.000000,0.938047,1.531808,0.145023,0.298103,0.177251,815.000000,797.000000,18.000000,37.000000,4.000000,0.000000:
0000
0000
0000
0000
,
0000
0000
0000
0000
,
0000
0000
0000
0000
,
0000
0000
0000
0000
,
0000
0000
0000
0000
,
1001
0000
0000
0001
0100
0000
0000
0001
,
0000
0000
0001
0000
0000
0000
1000
0100
0010
0000
0000
0000
0100
0000
0000
0000
,
1100
0000
0000
1000
0001
0000
0000
0000
,
0200
0010
0000
1000
0000
0000
0301
0000
,
2000
0000
0010
0010
0000
0100
0000
0000
,
3002
0100
0000
1000
1000
0000
0100
0000
,
0023
0000
0000
0100
0100
0000
0000
0000
,
0230
0001
0020
0030
,
2300
0000
0100
0100
0000
0010
0000
0000
,
3002
0010
0000
1000
1000
0000
0010
0000
,
0203
0000
0000
1000
0000
0001
0000
0000
,
0320
0000
1000
1000
0000
0200
0300
0000
,
2030
0000
0001
0001
0000
0100
0000
0000
,
3002
0010
0000
1000
1000
0000
0100
0000
,
0023
0000
0000
1000
1000
0000
0000
0000
,
0230
1000
0000
0010
0010
0000
0000
0000
,
2300
0000
0001
0001
0000
0010
0000
0000
,
3002
0100
0000
1000
1000
0000
0010
0000
,
0203
0010
0000
1000
1000
0000
0000
0000
,
0320
0000
0000
0030
,
2001
0000
0000
0000
3001
0100
0010
0000
1000
0000
0010
0000
0100
0000
1000
0000
,
0100
0000
0001
0000
0010
0000
1000
0000
0010
0000
0100
1000
0001
0000
0100
0000
,
0020
0000
0000
0000
1030
0001
0010
0000
0100
0000
0010
0000
1000
0000
0010
0000
,
0001
0000
1000
0000
0010
0000
0001
0000
0010
0000
0100
0001
1000
0000
0100
0000
,
0120
0000
0000
0000
0031
1000
0010
0000
0100
0000
0010
0000
0001
0000
0010
0000
,
1000
0000
0001
0000
0010
0000
1000
0000
0010
0000
0100
1000
0001
0000
1000
0000
,
0001
0100
0001
0100
0010
1000
0010
1000
0001
0010
0100
1000
0001
0100
0010
1000
,
0001
0000
0000
1001
,
1000
0000
0010
0000
0100
0001
1000
0000
,
0100
0000
0010
0000
1000
0000
0010
0001
,
1000
0001
0100
1000
,
0100
0000
0001
0010
0100
0000
1000
0010
,
1000
0000
0100
0000
0010
0001
0100
0000
,
0001
0000
0100
0000
1000
0000
0100
0010
,
1000
0001
0010
1000
,
0010
0100
1000
0001
0100
0001
0010
0100
,
1000
0001
0100
0000
0010
1000
0100
0000
,
0010
0000
0100
0000
0001
0000
0100
0010
,
0001
1000
0010
0001
,
0010
0000
0100
0001
1000
0000
0100
0010
,
0001
0000
0100
0000
0010
1000
0100
0000
,
0010
0000
0100
0000
0001
0000
0100
0010
,
0001
0100
0001
1000
0010
1000
0001
0010
,
0100
1000
0010
0100
0001
1000
0100
0010
,
0001
0000
0100
0000
0010
1000
0001
0000
,
0010
0100
1000
0100
0010
0000
0001
0000
,
0100
0000
0010
0000
1000
0100
0010
0000
,
0001
0100
0001
0010
0100
0000
1000
0000
,
0010
0000
0001
0000
0010
0100
0001
0000
,
1000
0100
0010
0100
1000
0000
0010
0000
,
0100
0000
1000
0000
0100
0010
1000
0000
,
0001
0010
0100
1000
0020
0000
0000
0000
,
0130
0000
0001
0000
0010
0100
1000
0000
,
0001
0100
0001
0010
0100
0000
1000
0000
,
0001
0000
0100
0000
0010
1000
0100
0000
,
0010
0001
1000
0010
0100
0000
0001
0000
,
0100
0000
0001
0000
0010
0100
1000
0000
0001
0100
0001
0010
0100
0000
0001
0000
,
0100
0000
1000
0000
0001
0100
0010
0000
1000
0100
0010
0001
0200
0000
0000
0000
,
0301
0010
0100
1000
,
0010
0000
0100
0000
0001
0000
1000
0100
,
0010
0100
1000
0001
,
0100
0000
0010
0000
1000
0000
0001
0010
,
0100
0010
0001
0100
,
0010
0000
1000
0000
0100
0000
0010
0001
,
1000
0010
0100
0001
,
0010
0100
1000
0010
2000
0000
3000
0000
,
0010
0100
0001
0000
0010
0000
0100
0000
,
1000
0000
0001
0000
0100
0000
0010
1000
,
0001
0010
0100
0010
,
0001
0000
1000
0000
0010
0000
0100
0001
,
1000
0100
0010
0001
,
0100
0000
0010
0000
1000
0000
0001
0010
,
0100
0000
1100
0000
,
0011
0000
1001
0000
,
1000
0010
0100
0001
,
0010
0000
0100
0000
1000
0000
0001
0100
,
0010
1000
0001
0010
,
0100
0000
1000
0000
0001
0000
0100
0010
,
1000
0001
0010
0000
0100
0000
1000
0000
,
0010
0000
0100
0000
0001
0010
0100
0000
,
1000
0000
0001
0100
0010
0000
1000
0000
,
1010
0000
0101
0000
,
0001
1000
0100
0000
0010
0000
0100
0000
,
1000
0000
0010
0000
0100
0001
0010
0100
,
1000
0010
1000
0000
0001
0000
1000
0000
,
0100
0100
0110
0000
,
1001
0000
0000
1000
0020
0030
0200
0300
,
MMMM
0000
0000
1000
0001
0000
0100
0000
,
0001
1000
0000
1000
0100
0000
0010
0000
,
0001
0000
0000
1000
0010
0000
0100
0000
,
0001
0000
1000
0000
0000
0000
1000
0001
0100
0000
0010
0000
0000
0000
1000
0000
,
0100
1000
0010
0100
0001
1000
0001
0010
,
0100
1000
0001
0100
1000
0100
0010
1000
,
0001
0010
0100
1000
0010
0100
0001
1000
,
0100
1000
0001
0010
1000
0010
0001
0100
,
0010
0000
1000
0000
0100
0000
0010
0000
0001
0000
0100
0010
1000
0000
0001
0000
,
0010
0000
0100
0000
1000
0000
0001
0100
1000
0000
0100
0010
1000
0000
0001
0010
,
0100
0000
1000
0000
0010
0000
0100
0000
0001
0000
0010
0100
1000
0000
0001
0000
,
0100
0000
0010
0000
1000
0000
0001
0010
1000
0000
0010
0100
1000
0000
0001
0000
,
2002
3003
0000
0000
0000
0000
0000
0000
1001
0000
0000
0000
0000
0000
1000
0000
0001
0000
0000
0000
1000
0000
0000
0000
0020
0000
0000
0000
0000
0000
0000
0000
,
0130
0000
0001
0000
0100
0000
0010
1000
0001
0000
0100
0000
2000
0000
0000
0000
,
3100
0000
0001
0000
0010
0000
0000
0100
1000
0000
0001
0000
0200
0000
0000
0000
,
0310
0000
1000
0000
0010
0000
0100
0001
1000
0000
0100
0000
0002
0000
0000
0000
,
0103
0000
1000
0000
1001
0000
0000
0001
0100
0000
0010
0000
0001
0000
0010
0000
,
1000
0000
0100
0000
0010
0000
0100
1000
0001
0000
0100
0000
1000
0000
0100
0000
,
0010
0000
1000
0000
0001
0010
0001
0010
0100
1000
0100
1000
0001
0100
0010
1000
,
0001
0010
0100
1000
0001
0000
0000
0000
0000
0000
0000
0000
0000
0000
0000
0000
,
1001
0000
1000
0000
0100
1000
0001
0000
,
0100
0010
1000
0100
,
1000
0001
0100
0000
0010
1000
0001
0000
,
0010
1000
0010
0001
,
1000
0010
0100
0000
0001
0010
0100
0000
,
1000
0010
0100
0010
,
1000
0100
0010
0000
0100
1000
0001
0000
,
0100
0000
1000
0100
0020
0000
0000
0000
,
0000
0000
1030
0100
0010
0001
1000
0000
,
0010
0100
0001
0010
,
0001
1000
0010
0000
0100
0001
1000
0000
,
0100
0000
0001
0000
0100
0000
1000
0001
,
0100
0000
0010
0000
1000
0100
0010
0000
,
0100
1000
0010
0100
,
0001
0010
0100
0010
0001
0100
0010
1000
,
0001
1000
0100
0010
0001
1000
0010
0000
,
0000
0000
1000
0100
0010
0001
0100
0000
,
0001
0000
1000
0100
0010
0001
0100
0000
,
0001
0000
1000
0100
0010
0001
0100
0000
,
0001
0000
1000
0010
0100
0010
1000
0001
,
0010
0001
1000
0010
0100
0001
0010
0000
,
0001
0000
1000
0010
0100
0001
0010
0000
,
0001
0000
1000
0010
0100
0001
0010
0100
,
1000
0001
0100
0010
2000
0000
0000
0000
,
0000
0000
3001
0010
0100
1000
0010
0000
,
0100
0000
1000
0100
0010
0100
0001
0000
,
1000
0000
0001
0100
0010
1000
0100
0000
,
0001
0000
0100
0010
0001
1000
0020
0000
,
0030
0000
0101
0000
0001
1000
0100
0000
,
0010
0000
0001
0000
1000
0010
0100
0000
,
0001
0000
0010
0100
1000
0100
0010
0001
,
1000
0010
0100
0001
0010
0100
1000
0001
,
0100
0010
1000
0001
0010
0100
1000
0010
,
0100
0001
1000
0100
0010
0001
0200
0000
,
0300
1001
0000
0000
;
